osu file format v14

[General]
AudioFilename: audio.mp3
AudioLeadIn: 0
PreviewTime: 51395
Countdown: 0
SampleSet: Soft
StackLeniency: 0.7
Mode: 3
LetterboxInBreaks: 0
SpecialStyle: 0
WidescreenStoryboard: 1

[Editor]
Bookmarks: 7307,20280,30010,36293,42780,46023,49469,79064,81902,87983
DistanceSpacing: 2.5
BeatDivisor: 4
GridSize: 32
TimelineZoom: 2.250007

[Metadata]
Title:Koi wa Explosion (feat. Tamura Yukari) (TV Size)
TitleUnicode:恋はエクスプロージョン (feat. 田村ゆかり) (TV Size)
Artist:Oishi Masayoshi
ArtistUnicode:オーイシマサヨシ
Creator:Aix-
Version:Love
Source:恋は世界征服のあとで
Tags:love after world domination koiseka koi wa sekai seifuku no ato de desumi magahara 禍原 デス美 desucchi op opening j-pop jpop pop japanese anime PONY CANYON ポニーキャニオン axelowo 大石昌良
BeatmapID:3615968
BeatmapSetID:1766513

[Difficulty]
HPDrainRate:8.5
CircleSize:4
OverallDifficulty:8
ApproachRate:5
SliderMultiplier:1.4
SliderTickRate:1

[Events]
//Background and Video events
0,0,"Love-after-world-domination.jpg",0,0
Video,101,"Video.m4v"
//Break Periods
//Storyboard Layer 0 (Background)
//Storyboard Layer 1 (Fail)
//Storyboard Layer 2 (Pass)
//Storyboard Layer 3 (Foreground)
//Storyboard Layer 4 (Overlay)
//Storyboard Sound Samples
Sample,39233,0,"tom02.wav",70

[TimingPoints]
821,405.405405405405,4,2,1,70,1,0
51091,-100.0,4,2,1,70,0,1
70550,-100.0,4,2,1,70,0,0

[HitObjects]
64,192,618,1,0,0:0:0:0:
192,192,685,1,0,0:0:0:0:
320,192,753,1,0,0:0:0:0:
64,192,821,128,2,1834:0:0:0:0:
192,192,821,1,4,0:0:0:0:
448,192,821,128,0,1429:0:0:0:0:
192,192,1429,128,0,1834:0:0:0:70:tom02.wav
320,192,1429,1,0,0:0:0:0:
320,192,1834,1,0,0:0:0:70:tom03.wav
448,192,1834,1,0,0:0:0:0:
192,192,2062,1,8,0:0:0:0:
320,192,2062,1,0,0:0:0:70:tom04.wav
64,192,2239,128,4,3050:0:0:0:0:
192,192,2239,1,2,0:0:0:0:
448,192,2239,128,0,3456:0:0:0:0:
320,192,2670,1,0,0:0:0:70:tom01.wav
192,192,3050,1,0,0:0:0:70:tom02.wav
320,192,3050,128,0,3456:0:0:0:0:
64,192,3456,1,0,0:0:0:70:tom03.wav
192,192,3456,1,0,0:0:0:0:
192,192,3658,1,8,0:0:0:0:
320,192,3658,1,0,0:0:0:70:tom04.wav
64,192,3861,128,4,4266:0:0:0:0:
320,192,3861,1,2,0:0:0:0:
448,192,3861,128,0,4266:0:0:0:0:
192,192,4266,1,0,0:0:0:0:
320,192,4469,1,8,0:0:0:50:soft-hitclap.wav
192,192,4672,1,8,0:0:0:0:
448,192,4672,1,0,0:0:0:0:
64,192,4875,1,8,0:0:0:0:
448,192,4875,1,0,0:0:0:0:
64,192,5077,1,8,0:0:0:0:
320,192,5077,1,0,0:0:0:0:
192,192,5280,1,8,0:0:0:0:
320,192,5280,1,0,0:0:0:0:
448,192,5280,1,0,0:0:0:0:
64,192,5483,128,4,5888:0:0:0:0:
192,192,5483,1,2,0:0:0:0:
448,192,5483,1,0,0:0:0:0:
192,192,5888,1,2,0:0:0:0:
448,192,5888,1,0,0:0:0:0:
64,192,6091,1,8,0:0:0:0:
448,192,6091,1,0,0:0:0:0:
320,192,6192,1,0,0:0:0:50:soft-hitclap.wav
64,192,6293,1,2,0:0:0:0:
192,192,6293,1,0,0:0:0:0:
64,192,6496,1,2,0:0:0:0:
192,192,6496,1,8,0:0:0:0:
320,192,6598,1,8,0:0:0:0:
448,192,6598,1,0,0:0:0:0:
320,192,6800,1,8,0:0:0:0:
448,192,6800,1,0,0:0:0:0:
64,192,6902,1,8,0:0:0:0:
192,192,6902,1,2,0:0:0:0:
320,192,7003,1,8,0:0:0:0:
448,192,7003,1,0,0:0:0:0:
64,192,7104,1,8,0:0:0:0:
192,192,7104,1,0,0:0:0:0:
320,192,7206,1,8,0:0:0:0:
64,192,7307,128,4,7408:0:0:0:0:
448,192,7307,128,2,7408:0:0:0:0:
192,192,7408,128,0,7510:0:0:0:0:
320,192,7408,128,0,7510:0:0:0:0:
64,192,7510,128,0,7611:0:0:0:0:
448,192,7510,128,0,7611:0:0:0:0:
192,192,7611,128,0,7712:0:0:0:0:
320,192,7611,128,0,7712:0:0:0:0:
64,192,7712,128,8,8118:0:0:0:0:
448,192,7712,128,0,8118:0:0:0:0:
192,192,8118,1,2,0:0:0:0:
320,192,8118,1,0,0:0:0:0:
192,192,8320,1,0,0:0:0:0:
320,192,8422,1,0,0:0:0:0:
64,192,8523,1,8,0:0:0:0:
448,192,8523,1,0,0:0:0:0:
448,192,8726,1,0,0:0:0:0:
320,192,8827,1,0,0:0:0:0:
64,192,8929,1,2,0:0:0:0:
192,192,8929,1,0,0:0:0:0:
64,192,9131,128,0,9334:0:0:0:0:
320,192,9131,128,0,9334:0:0:0:0:
192,192,9334,1,8,0:0:0:0:
448,192,9334,1,0,0:0:0:0:
192,192,9537,128,0,9739:0:0:0:0:
320,192,9537,128,0,9739:0:0:0:0:
64,192,9739,1,2,0:0:0:0:
448,192,9739,1,0,0:0:0:0:
192,192,9942,128,0,10145:0:0:0:0:
448,192,9942,128,0,10145:0:0:0:0:
64,192,10145,1,8,0:0:0:0:
320,192,10145,1,0,0:0:0:0:
64,192,10348,128,8,10753:0:0:0:0:
192,192,10348,1,4,0:0:0:0:
320,192,10348,128,0,10550:0:0:0:0:
192,192,10550,1,2,0:0:0:0:
448,192,10550,1,0,0:0:0:0:
320,192,10753,128,0,10956:0:0:0:0:
448,192,10753,128,0,10956:0:0:0:0:
64,192,10956,128,8,11158:0:0:0:0:
192,192,10956,1,0,0:0:0:0:
192,192,11158,128,0,11361:0:0:0:0:
320,192,11158,128,0,11361:0:0:0:0:
64,192,11361,1,2,0:0:0:0:
448,192,11361,1,0,0:0:0:0:
64,192,11564,128,0,11766:0:0:0:0:
448,192,11564,128,0,12172:0:0:0:0:
192,192,11766,1,8,0:0:0:0:
320,192,11766,1,0,0:0:0:0:
192,192,11969,1,0,0:0:0:0:
64,192,12172,1,2,0:0:0:0:
320,192,12172,1,0,0:0:0:0:
192,192,12273,1,0,0:0:0:0:
64,192,12375,1,0,0:0:0:0:
192,192,12577,1,8,0:0:0:0:
448,192,12577,1,0,0:0:0:0:
448,192,12780,1,0,0:0:0:0:
64,192,12983,1,2,0:0:0:0:
320,192,12983,1,0,0:0:0:0:
64,192,13185,1,8,0:0:0:0:
320,192,13185,1,0,0:0:0:0:
320,192,13388,1,8,0:0:0:0:
448,192,13388,1,2,0:0:0:0:
64,192,13489,1,8,0:0:0:0:
192,192,13489,1,0,0:0:0:0:
320,192,13591,1,8,0:0:0:0:
448,192,13591,1,0,0:0:0:0:
192,192,13692,1,8,0:0:0:0:
64,192,13793,128,2,13895:0:0:0:0:
448,192,13793,128,4,13895:0:0:0:0:
192,192,13895,128,0,13996:0:0:0:0:
320,192,13895,128,0,13996:0:0:0:0:
64,192,13996,128,0,14098:0:0:0:0:
448,192,13996,128,0,14098:0:0:0:0:
192,192,14098,128,0,14199:0:0:0:0:
320,192,14098,128,0,14199:0:0:0:0:
64,192,14199,128,8,14604:0:0:0:0:
448,192,14199,128,0,14604:0:0:0:0:
192,192,14604,1,2,0:0:0:0:
320,192,14604,1,0,0:0:0:0:
320,192,14807,1,0,0:0:0:0:
192,192,14908,1,0,0:0:0:0:
64,192,15010,1,8,0:0:0:0:
448,192,15010,1,0,0:0:0:0:
64,192,15212,1,0,0:0:0:0:
192,192,15314,1,0,0:0:0:0:
320,192,15415,1,2,0:0:0:0:
448,192,15415,1,0,0:0:0:0:
192,192,15618,128,0,15820:0:0:0:0:
448,192,15618,128,0,15820:0:0:0:0:
64,192,15820,1,8,0:0:0:0:
320,192,15820,1,0,0:0:0:0:
192,192,16023,128,0,16226:0:0:0:0:
320,192,16023,128,0,16226:0:0:0:0:
64,192,16226,1,2,0:0:0:0:
448,192,16226,1,0,0:0:0:0:
64,192,16429,128,0,16631:0:0:0:0:
320,192,16429,128,0,16631:0:0:0:0:
192,192,16631,1,8,0:0:0:0:
448,192,16631,1,0,0:0:0:0:
192,192,16834,128,8,17037:0:0:0:0:
320,192,16834,1,4,0:0:0:0:
448,192,16834,128,0,17239:0:0:0:0:
64,192,17037,1,2,0:0:0:0:
320,192,17037,1,0,0:0:0:0:
64,192,17239,128,0,17442:0:0:0:0:
192,192,17239,128,0,17442:0:0:0:0:
320,192,17442,1,8,0:0:0:0:
448,192,17442,128,0,17645:0:0:0:0:
192,192,17645,128,0,17848:0:0:0:0:
320,192,17645,128,0,17848:0:0:0:0:
64,192,17746,1,0,0:0:0:50:soft-hitclap.wav
448,192,17848,1,2,0:0:0:0:
64,192,18050,1,0,0:0:0:70:tom03.wav
320,192,18050,1,0,0:0:0:0:
448,192,18152,1,0,0:0:0:50:soft-hitclap.wav
64,192,18253,1,2,0:0:0:0:
192,192,18253,1,8,0:0:0:0:
320,192,18354,1,0,0:0:0:70:tom02.wav
448,192,18354,1,0,0:0:0:0:
192,192,18456,1,0,0:0:0:70:tom03.wav
64,192,18658,1,8,0:0:0:0:
320,192,18658,1,2,0:0:0:0:
448,192,18658,128,0,18760:0:0:0:0:
192,192,18760,128,0,18861:0:0:0:0:
448,192,18861,128,0,18962:0:0:0:0:
192,192,18962,128,0,19165:0:0:0:0:
320,192,19064,128,0,19165:0:0:0:0:
64,192,19266,128,0,19368:0:0:0:0:
320,192,19368,128,0,19469:0:0:0:0:
64,192,19469,128,0,19570:0:0:0:0:
320,192,19570,128,0,20179:0:0:0:0:
192,192,19672,128,0,20179:0:0:0:0:
64,192,19875,1,0,0:0:0:70:tom03.wav
448,192,19875,1,0,0:0:0:0:
64,192,20280,1,2,0:0:0:0:
192,192,20280,1,4,0:0:0:0:
320,192,20280,1,0,0:0:0:0:
448,192,20280,1,0,0:0:0:0:
320,192,20483,1,0,0:0:0:0:
64,192,20685,1,8,0:0:0:0:
192,192,20685,1,0,0:0:0:0:
448,192,20685,1,0,0:0:0:0:
448,192,20888,1,0,0:0:0:0:
64,192,21091,1,2,0:0:0:0:
320,192,21091,1,0,0:0:0:0:
64,192,21293,1,0,0:0:0:0:
192,192,21395,1,0,0:0:0:0:
64,192,21496,1,8,0:0:0:0:
320,192,21496,1,0,0:0:0:0:
448,192,21496,1,0,0:0:0:0:
192,192,21598,1,0,0:0:0:0:
448,192,21699,1,0,0:0:0:0:
64,192,21800,1,0,0:0:0:0:
320,192,21902,1,2,0:0:0:0:
448,192,21902,1,0,0:0:0:0:
192,192,22003,1,0,0:0:0:0:
320,192,22104,1,0,0:0:0:0:
192,192,22206,1,0,0:0:0:0:
64,192,22307,1,8,0:0:0:0:
320,192,22307,1,0,0:0:0:0:
448,192,22307,1,0,0:0:0:0:
64,192,22510,1,0,0:0:0:0:
192,192,22712,1,2,0:0:0:0:
320,192,22712,1,0,0:0:0:0:
448,192,22814,1,0,0:0:0:0:
192,192,22915,1,0,0:0:0:0:
448,192,23016,1,0,0:0:0:0:
64,192,23118,1,8,0:0:0:0:
192,192,23118,1,0,0:0:0:70:clap.wav
320,192,23118,1,0,0:0:0:0:
64,192,23320,1,0,0:0:0:0:
192,192,23422,1,0,0:0:0:0:
320,192,23523,1,2,0:0:0:0:
448,192,23523,1,0,0:0:0:0:
320,192,23726,1,0,0:0:0:0:
192,192,23827,1,0,0:0:0:0:
64,192,23929,1,8,0:0:0:0:
320,192,23929,1,0,0:0:0:0:
448,192,23929,128,0,24131:0:0:0:0:
64,192,24131,1,0,0:0:0:0:
320,192,24233,1,0,0:0:0:0:
64,192,24334,1,2,0:0:0:0:
192,192,24334,1,0,0:0:0:0:
448,192,24435,1,0,0:0:0:0:
192,192,24537,1,0,0:0:0:0:
320,192,24638,1,0,0:0:0:0:
64,192,24739,128,8,24942:0:0:0:0:
192,192,24739,1,0,0:0:0:0:
448,192,24739,1,0,0:0:0:0:
448,192,24942,1,0,0:0:0:0:
192,192,25043,1,0,0:0:0:0:
320,192,25145,1,2,0:0:0:0:
448,192,25145,1,0,0:0:0:0:
192,192,25246,1,0,0:0:0:0:
320,192,25348,1,0,0:0:0:0:
64,192,25550,1,8,0:0:0:0:
192,192,25550,1,0,0:0:0:0:
448,192,25550,1,0,0:0:0:0:
320,192,25652,1,0,0:0:0:0:
192,192,25753,1,0,0:0:0:0:
320,192,25854,1,0,0:0:0:0:
64,192,25956,1,2,0:0:0:0:
192,192,25956,1,0,0:0:0:0:
448,192,26057,1,8,0:0:0:50:soft-hitclap.wav
64,192,26158,1,0,0:0:0:0:
192,192,26260,1,0,0:0:0:0:
64,192,26361,1,8,0:0:0:0:
320,192,26361,1,0,0:0:0:0:
448,192,26361,1,0,0:0:0:0:
192,192,26462,1,0,0:0:0:0:
448,192,26564,1,0,0:0:0:0:
320,192,26665,1,0,0:0:0:0:
64,192,26766,1,2,0:0:0:0:
192,192,26766,1,0,0:0:0:70:cymbal.wav
448,192,26766,1,0,0:0:0:0:
192,192,26969,1,0,0:0:0:0:
64,192,27172,1,8,0:0:0:0:
320,192,27172,1,0,0:0:0:0:
448,192,27172,1,0,0:0:0:0:
64,192,27375,1,0,0:0:0:0:
192,192,27577,1,2,0:0:0:0:
448,192,27577,1,0,0:0:0:0:
448,192,27780,1,0,0:0:0:0:
320,192,27881,1,0,0:0:0:0:
64,192,27983,1,8,0:0:0:0:
192,192,27983,1,0,0:0:0:0:
448,192,27983,1,0,0:0:0:0:
320,192,28185,1,0,0:0:0:0:
192,192,28287,1,0,0:0:0:0:
64,192,28388,1,2,0:0:0:0:
448,192,28388,1,0,0:0:0:0:
64,192,28591,1,0,0:0:0:0:
192,192,28793,1,8,0:0:0:0:
320,192,28793,1,0,0:0:0:0:
448,192,28793,1,0,0:0:0:0:
64,192,28895,1,0,0:0:0:0:
320,192,28996,1,0,0:0:0:0:
192,192,29199,1,2,0:0:0:0:
448,192,29199,1,0,0:0:0:0:
64,192,29300,1,0,0:0:0:0:
320,192,29402,1,0,0:0:0:0:
192,192,29503,1,0,0:0:0:50:soft-hitclap.wav
320,192,29604,1,2,0:0:0:0:
448,192,29604,1,0,0:0:0:70:clap.wav
64,192,29706,1,8,0:0:0:0:
192,192,29706,1,0,0:0:0:70:tom02.wav
448,192,29807,1,0,0:0:0:70:tom03.wav
320,192,29908,1,0,0:0:0:70:tom04.wav
64,192,30010,1,2,0:0:0:0:
192,192,30010,128,4,30212:0:0:0:0:
448,192,30010,1,0,0:0:0:0:
320,192,30212,128,0,30415:0:0:0:0:
64,192,30415,128,8,30618:0:0:0:0:
448,192,30415,1,0,0:0:0:0:
192,192,30618,128,2,30820:0:0:0:0:
448,192,30618,128,0,30820:0:0:0:0:
320,192,30820,1,0,0:0:0:0:
64,192,31023,128,2,31226:0:0:0:0:
320,192,31023,128,0,31226:0:0:0:0:
192,192,31226,128,8,31429:0:0:0:0:
448,192,31226,1,0,0:0:0:0:
320,192,31429,128,2,31631:0:0:0:0:
448,192,31429,128,0,31631:0:0:0:0:
64,192,31631,1,0,0:0:0:0:
192,192,31834,1,2,0:0:0:0:
448,192,31834,128,0,32037:0:0:0:0:
64,192,32037,1,8,0:0:0:0:
320,192,32037,128,0,32239:0:0:0:0:
64,192,32239,128,2,32442:0:0:0:0:
192,192,32239,128,0,32442:0:0:0:0:
448,192,32442,1,0,0:0:0:0:
192,192,32645,1,2,0:0:0:0:
320,192,32645,128,0,32848:0:0:0:0:
64,192,32848,1,8,0:0:0:0:
448,192,32848,1,0,0:0:0:70:tom01.wav
192,192,32949,1,0,0:0:0:70:tom02.wav
320,192,33050,1,0,0:0:0:70:tom03.wav
64,192,33253,1,8,0:0:0:0:
192,192,33253,1,4,0:0:0:0:
448,192,33253,128,0,33658:0:0:0:0:
64,192,33456,128,0,33658:0:0:0:0:
192,192,33658,1,8,0:0:0:50:soft-hitclap.wav
320,192,33658,128,0,34064:0:0:0:0:
64,192,33861,1,8,0:0:0:50:soft-hitclap.wav
192,192,33861,128,0,34064:0:0:0:0:
64,192,34064,128,8,34469:0:0:0:0:
448,192,34064,1,0,0:0:0:0:
192,192,34266,128,8,34469:0:0:0:0:
320,192,34266,1,0,0:0:0:0:
320,192,34469,1,8,0:0:0:0:
448,192,34469,1,0,0:0:0:0:
64,192,34672,1,8,0:0:0:0:
192,192,34672,1,0,0:0:0:70:cymbal.wav
448,192,34672,128,0,34875:0:0:0:0:
320,192,34875,1,0,0:0:0:0:
64,192,35077,1,2,0:0:0:0:
192,192,35077,128,0,35280:0:0:0:0:
320,192,35280,1,8,0:0:0:0:
448,192,35280,128,0,35685:0:0:0:0:
64,192,35483,1,2,0:0:0:0:
320,192,35483,128,0,35685:0:0:0:0:
64,192,35685,1,8,0:0:0:0:
192,192,35685,1,0,0:0:0:0:
192,192,35888,1,2,0:0:0:0:
320,192,35888,1,0,0:0:0:0:
448,192,35989,1,0,0:0:0:0:
64,192,36091,1,8,0:0:0:0:
192,192,36091,1,2,0:0:0:0:
320,192,36192,1,8,0:0:0:0:
64,192,36293,1,4,0:0:0:0:
192,192,36293,128,2,36699:0:0:0:0:
448,192,36293,1,0,0:0:0:0:
64,192,36699,128,0,36902:0:0:0:0:
320,192,36902,128,0,37104:0:0:0:0:
192,192,37104,128,0,37307:0:0:0:0:
448,192,37307,128,0,37712:0:0:0:0:
64,192,37510,128,0,37611:0:0:0:0:
320,192,37611,128,0,37712:0:0:0:0:
192,192,37712,1,0,0:0:0:0:
64,192,37915,1,8,0:0:0:0:
320,192,37915,128,0,38320:0:0:0:0:
448,192,37915,1,0,0:0:0:0:
448,192,38320,128,0,38523:0:0:0:0:
192,192,38523,128,0,38726:0:0:0:0:
64,192,38726,1,0,0:0:0:0:
320,192,38827,1,2,0:0:0:0:
448,192,38827,1,0,0:0:0:0:
64,192,38929,128,8,39334:0:0:0:0:
192,192,38929,1,0,0:0:0:0:
448,192,39131,128,2,39233:0:0:0:0:
192,192,39233,128,8,39334:0:0:0:0:
320,192,39334,1,0,0:0:0:70:tom03.wav
192,192,39435,1,0,0:0:0:30:soft-hitclap.wav
64,192,39537,1,4,0:0:0:0:
320,192,39537,128,2,39942:0:0:0:0:
448,192,39537,1,0,0:0:0:0:
448,192,39942,128,0,40145:0:0:0:0:
192,192,40145,128,0,40348:0:0:0:0:
320,192,40348,128,0,40550:0:0:0:0:
64,192,40550,128,0,40753:0:0:0:0:
448,192,40550,128,0,40956:0:0:0:0:
320,192,40753,128,0,40956:0:0:0:0:
192,192,40956,128,0,41158:0:0:0:0:
64,192,41158,128,0,41496:0:0:0:0:
448,192,41158,128,0,41766:0:0:0:0:
192,192,41496,1,0,0:0:0:30:soft-hitclap.wav
320,192,41564,1,0,0:0:0:0:
64,192,41766,1,8,0:0:0:0:
192,192,41766,1,0,0:0:0:0:
320,192,41766,1,0,0:0:0:0:
64,192,41969,1,2,0:0:0:0:
192,192,41969,1,0,0:0:0:0:
320,192,42070,1,8,0:0:0:0:
448,192,42070,1,0,0:0:0:0:
64,192,42172,1,2,0:0:0:0:
192,192,42172,1,0,0:0:0:0:
448,192,42273,1,8,0:0:0:50:soft-hitclap.wav
192,192,42375,1,2,0:0:0:0:
320,192,42375,1,0,0:0:0:70:tom02.wav
64,192,42577,1,8,0:0:0:0:
192,192,42577,1,0,0:0:0:0:
448,192,42577,1,0,0:0:0:0:
64,192,42780,1,4,0:0:0:0:
320,192,42780,1,2,0:0:0:0:
448,192,42780,128,0,43388:0:0:0:0:
64,192,43185,1,2,0:0:0:0:
192,192,43185,1,0,0:0:0:0:
64,192,43388,1,8,0:0:0:0:
192,192,43388,1,0,0:0:0:0:
320,192,43388,1,0,0:0:0:0:
192,192,43591,128,2,44199:0:0:0:0:
448,192,43591,1,0,0:0:0:0:
64,192,43793,1,0,0:0:0:0:
320,192,43996,1,2,0:0:0:0:
448,192,43996,1,0,0:0:0:0:
64,192,44199,1,8,0:0:0:0:
320,192,44199,1,0,0:0:0:0:
448,192,44199,1,0,0:0:0:0:
64,192,44402,1,2,0:0:0:0:
320,192,44402,128,0,44807:0:0:0:0:
448,192,44604,1,0,0:0:0:0:
64,192,44807,1,2,0:0:0:0:
192,192,44807,1,0,0:0:0:0:
64,192,45010,1,8,0:0:0:0:
320,192,45010,1,0,0:0:0:0:
448,192,45010,1,0,0:0:0:0:
64,192,45212,128,2,45618:0:0:0:0:
192,192,45212,1,0,0:0:0:0:
448,192,45415,1,0,0:0:0:0:
192,192,45618,1,2,0:0:0:0:
320,192,45618,1,0,0:0:0:0:
64,192,45820,1,8,0:0:0:0:
192,192,45820,1,0,0:0:0:0:
448,192,45820,1,0,0:0:0:0:
64,192,46023,1,4,0:0:0:0:
320,192,46023,1,2,0:0:0:0:
448,192,46023,128,0,46429:0:0:0:0:
192,192,46429,1,8,0:0:0:50:soft-hitclap.wav
320,192,46429,1,0,0:0:0:70:tom02.wav
64,192,46631,1,8,0:0:0:0:
320,192,46631,1,0,0:0:0:70:tom03.wav
448,192,46631,1,0,0:0:0:0:
64,192,46834,1,8,0:0:0:0:
320,192,46834,1,0,0:0:0:70:tom03.wav
448,192,46834,1,0,0:0:0:0:
64,192,47037,1,8,0:0:0:0:
192,192,47037,1,0,0:0:0:70:tom03.wav
448,192,47037,1,0,0:0:0:0:
64,192,47239,1,8,0:0:0:0:
192,192,47239,1,0,0:0:0:70:tom03.wav
448,192,47239,1,0,0:0:0:0:
192,192,47442,1,8,0:0:0:0:
320,192,47442,1,0,0:0:0:70:cymbal.wav
448,192,47442,1,0,0:0:0:70:tom03.wav
320,192,47645,1,0,0:0:0:0:
64,192,47848,1,8,0:0:0:0:
192,192,47848,1,4,0:0:0:0:
448,192,47848,1,0,0:0:0:0:
320,192,48050,1,2,0:0:0:0:
448,192,48050,1,0,0:0:0:0:
64,192,48253,1,8,0:0:0:0:
192,192,48253,1,0,0:0:0:0:
320,192,48253,1,0,0:0:0:0:
448,192,48354,1,8,0:0:0:50:soft-hitclap.wav
64,192,48456,1,2,0:0:0:0:
192,192,48456,1,0,0:0:0:0:
320,192,48557,1,8,0:0:0:0:
448,192,48557,1,0,0:0:0:0:
64,192,48658,1,8,0:0:0:0:
192,192,48658,1,2,0:0:0:0:
320,192,48861,1,0,0:0:0:70:tom01.wav
448,192,48861,1,0,0:0:0:0:
64,192,48962,1,8,0:0:0:0:
192,192,48962,1,0,0:0:0:0:
320,192,49064,1,2,0:0:0:0:
448,192,49064,1,0,0:0:0:0:
192,192,49165,1,0,0:0:0:70:tom02.wav
64,192,49266,1,0,0:0:0:70:tom03.wav
448,192,49266,1,0,0:0:0:0:
320,192,49469,128,8,49672:0:0:0:0:
448,192,49469,128,2,49672:0:0:0:0:
64,192,49570,128,8,49672:0:0:0:0:
192,192,49570,128,0,49672:0:0:0:0:
320,192,49773,128,8,49976:0:0:0:0:
448,192,49773,128,0,49976:0:0:0:0:
64,192,49875,128,8,49976:0:0:0:0:
192,192,49875,128,0,49976:0:0:0:0:
64,192,50077,128,8,50280:0:0:0:0:
192,192,50077,128,0,50280:0:0:0:0:
320,192,50179,128,8,50280:0:0:0:0:
448,192,50179,128,0,50280:0:0:0:0:
64,192,50381,128,8,50584:0:0:0:0:
192,192,50381,128,0,50584:0:0:0:0:
320,192,50483,128,8,50584:0:0:0:0:
448,192,50483,128,0,50584:0:0:0:0:
64,192,50685,1,8,0:0:0:0:
448,192,50685,1,0,0:0:0:70:cymbal.wav
192,192,50743,1,0,0:0:0:0:
320,192,50801,1,0,0:0:0:0:
448,192,50859,1,0,0:0:0:0:
64,192,50917,1,0,0:0:0:0:
192,192,50975,1,0,0:0:0:0:
320,192,51033,1,0,0:0:0:0:
64,192,51091,1,2,0:0:0:0:
192,192,51091,1,4,0:0:0:0:
448,192,51091,1,0,0:0:0:0:
192,192,51293,1,0,0:0:0:0:
320,192,51395,1,0,0:0:0:0:
64,192,51496,1,8,0:0:0:0:
192,192,51496,1,0,0:0:0:0:
448,192,51496,128,0,51699:0:0:0:0:
320,192,51699,1,0,0:0:0:0:
64,192,51902,1,8,0:0:0:0:
192,192,51902,128,0,52104:0:0:0:0:
448,192,51902,1,0,0:0:0:0:
320,192,52104,1,2,0:0:0:0:
448,192,52104,1,0,0:0:0:0:
64,192,52307,1,8,0:0:0:0:
320,192,52307,128,0,52510:0:0:0:0:
448,192,52307,1,0,0:0:0:0:
64,192,52510,1,2,0:0:0:0:
192,192,52510,1,0,0:0:0:0:
64,192,52712,128,8,53016:0:0:0:0:
320,192,52712,1,0,0:0:0:0:
448,192,52712,1,0,0:0:0:0:
192,192,52915,1,0,0:0:0:0:
320,192,53016,1,0,0:0:0:0:
64,192,53118,1,8,0:0:0:0:
192,192,53118,1,0,0:0:0:0:
448,192,53118,128,0,53422:0:0:0:0:
320,192,53320,1,0,0:0:0:0:
64,192,53523,1,8,0:0:0:0:
192,192,53523,128,0,53726:0:0:0:0:
448,192,53523,1,0,0:0:0:0:
320,192,53726,1,2,0:0:0:0:
448,192,53726,1,0,0:0:0:0:
64,192,53929,1,8,0:0:0:0:
320,192,53929,128,0,54131:0:0:0:0:
448,192,53929,1,0,0:0:0:0:
64,192,54131,1,2,0:0:0:0:
192,192,54131,1,0,0:0:0:0:
64,192,54334,128,8,54537:0:0:0:0:
192,192,54334,1,0,0:0:0:0:
448,192,54334,1,0,0:0:0:0:
320,192,54537,128,0,54739:0:0:0:0:
448,192,54638,1,0,0:0:0:0:
64,192,54739,1,8,0:0:0:0:
192,192,54739,128,0,54942:0:0:0:0:
448,192,54942,128,0,55145:0:0:0:0:
64,192,55145,128,8,55348:0:0:0:0:
192,192,55145,1,0,0:0:0:0:
320,192,55145,1,0,0:0:0:0:
192,192,55348,1,2,0:0:0:0:
320,192,55348,128,0,55550:0:0:0:0:
64,192,55550,1,8,0:0:0:0:
192,192,55550,128,0,55753:0:0:0:0:
448,192,55550,1,0,0:0:0:0:
320,192,55753,1,2,0:0:0:0:
448,192,55753,128,0,55956:0:0:0:0:
64,192,55956,128,8,56766:0:0:0:0:
192,192,55956,1,0,0:0:0:0:
320,192,55956,1,0,0:0:0:0:
448,192,56158,1,0,0:0:0:0:
192,192,56260,1,0,0:0:0:0:
320,192,56361,1,8,0:0:0:0:
448,192,56361,1,0,0:0:0:0:
192,192,56766,1,8,0:0:0:0:
320,192,56766,1,0,0:0:0:0:
448,192,56766,1,0,0:0:0:0:
192,192,56969,1,2,0:0:0:0:
448,192,56969,1,0,0:0:0:0:
64,192,57172,1,8,0:0:0:0:
192,192,57172,1,0,0:0:0:0:
320,192,57172,1,0,0:0:0:0:
64,192,57375,1,2,0:0:0:0:
320,192,57375,1,0,0:0:0:0:
64,192,57577,1,8,0:0:0:0:
192,192,57577,1,4,0:0:0:0:
448,192,57577,1,0,0:0:0:0:
320,192,57780,1,0,0:0:0:0:
192,192,57881,1,0,0:0:0:0:
64,192,57983,128,8,58185:0:0:0:0:
320,192,57983,1,0,0:0:0:0:
448,192,57983,1,0,0:0:0:0:
192,192,58185,1,0,0:0:0:0:
64,192,58388,1,8,0:0:0:0:
320,192,58388,128,0,58591:0:0:0:0:
448,192,58388,1,0,0:0:0:0:
64,192,58591,1,2,0:0:0:0:
192,192,58591,1,0,0:0:0:0:
64,192,58793,1,8,0:0:0:0:
192,192,58793,128,0,58996:0:0:0:0:
448,192,58793,1,0,0:0:0:0:
320,192,58996,1,2,0:0:0:0:
448,192,58996,1,0,0:0:0:0:
64,192,59199,1,8,0:0:0:0:
192,192,59199,1,0,0:0:0:0:
448,192,59199,128,0,59503:0:0:0:0:
320,192,59402,1,0,0:0:0:0:
192,192,59503,1,0,0:0:0:0:
64,192,59604,128,8,59908:0:0:0:0:
320,192,59604,1,0,0:0:0:0:
448,192,59604,1,0,0:0:0:0:
192,192,59807,1,0,0:0:0:0:
64,192,60010,1,8,0:0:0:0:
320,192,60010,128,0,60212:0:0:0:0:
448,192,60010,1,0,0:0:0:0:
64,192,60212,1,2,0:0:0:0:
192,192,60212,1,0,0:0:0:0:
64,192,60415,1,8,0:0:0:0:
192,192,60415,128,0,60618:0:0:0:0:
448,192,60415,1,0,0:0:0:0:
320,192,60618,1,2,0:0:0:0:
448,192,60618,1,0,0:0:0:0:
192,192,60719,1,0,0:0:0:0:
64,192,60820,128,8,61429:0:0:0:0:
320,192,60820,1,0,0:0:0:0:
448,192,60820,1,0,0:0:0:0:
192,192,61226,1,8,0:0:0:0:
320,192,61226,1,0,0:0:0:0:
448,192,61226,1,0,0:0:0:0:
448,192,61429,1,0,0:0:0:0:
64,192,61631,1,8,0:0:0:0:
192,192,61631,1,0,0:0:0:0:
320,192,61631,1,0,0:0:0:0:
320,192,61834,1,2,0:0:0:0:
448,192,61834,1,0,0:0:0:0:
64,192,62037,1,8,0:0:0:0:
192,192,62037,1,0,0:0:0:0:
448,192,62037,1,0,0:0:0:0:
64,192,62239,1,2,0:0:0:0:
320,192,62239,1,0,0:0:0:0:
192,192,62442,1,8,0:0:0:0:
320,192,62442,1,4,0:0:0:0:
448,192,62442,1,0,0:0:0:0:
64,192,62645,1,2,0:0:0:0:
192,192,62645,1,0,0:0:0:0:
64,192,62848,1,8,0:0:0:0:
320,192,62848,1,0,0:0:0:0:
448,192,62848,1,0,0:0:0:0:
192,192,63050,1,2,0:0:0:0:
448,192,63050,1,0,0:0:0:0:
64,192,63253,1,8,0:0:0:0:
192,192,63253,1,0,0:0:0:0:
320,192,63253,1,0,0:0:0:0:
64,192,63456,1,8,0:0:0:0:
192,192,63456,1,2,0:0:0:0:
320,192,63557,1,8,0:0:0:0:
64,192,63658,1,8,0:0:0:0:
448,192,63658,1,0,0:0:0:0:
192,192,63716,1,0,0:0:0:0:
320,192,63774,1,0,0:0:0:0:
448,192,63832,1,0,0:0:0:0:
64,192,63890,1,0,0:0:0:0:
192,192,63948,1,0,0:0:0:0:
320,192,64006,1,0,0:0:0:0:
64,192,64064,1,4,0:0:0:0:
192,192,64064,1,2,0:0:0:0:
448,192,64064,1,0,0:0:0:0:
192,192,64266,1,0,0:0:0:0:
320,192,64368,1,0,0:0:0:0:
64,192,64469,1,8,0:0:0:0:
192,192,64469,1,0,0:0:0:0:
448,192,64469,128,0,64672:0:0:0:0:
320,192,64672,1,0,0:0:0:0:
64,192,64875,1,8,0:0:0:0:
192,192,64875,128,0,65077:0:0:0:0:
448,192,64875,1,0,0:0:0:0:
320,192,65077,1,2,0:0:0:0:
448,192,65077,1,0,0:0:0:0:
64,192,65280,1,8,0:0:0:0:
320,192,65280,128,0,65483:0:0:0:0:
448,192,65280,1,0,0:0:0:0:
64,192,65483,1,2,0:0:0:0:
192,192,65483,1,0,0:0:0:0:
64,192,65685,128,8,65989:0:0:0:0:
320,192,65685,1,0,0:0:0:0:
448,192,65685,1,0,0:0:0:0:
192,192,65888,1,0,0:0:0:0:
320,192,65989,1,0,0:0:0:0:
64,192,66091,1,8,0:0:0:0:
192,192,66091,1,0,0:0:0:0:
448,192,66091,128,0,66395:0:0:0:0:
320,192,66293,1,0,0:0:0:0:
64,192,66496,1,8,0:0:0:0:
192,192,66496,128,0,66699:0:0:0:0:
448,192,66496,1,0,0:0:0:0:
320,192,66699,1,2,0:0:0:0:
448,192,66699,1,0,0:0:0:0:
64,192,66902,1,8,0:0:0:0:
320,192,66902,128,0,67104:0:0:0:0:
448,192,66902,1,0,0:0:0:0:
64,192,67104,1,2,0:0:0:0:
192,192,67104,1,0,0:0:0:0:
64,192,67307,1,8,0:0:0:0:
320,192,67307,1,0,0:0:0:0:
448,192,67307,128,0,67510:0:0:0:0:
192,192,67510,1,0,0:0:0:0:
320,192,67611,1,0,0:0:0:0:
64,192,67712,128,8,67915:0:0:0:0:
192,192,67712,1,0,0:0:0:0:
448,192,67712,1,0,0:0:0:0:
192,192,67915,1,0,0:0:0:0:
448,192,68016,1,0,0:0:0:0:
64,192,68118,1,8,0:0:0:0:
192,192,68118,1,0,0:0:0:0:
320,192,68118,1,0,0:0:0:0:
320,192,68320,1,2,0:0:0:0:
448,192,68320,1,0,0:0:0:0:
192,192,68422,1,0,0:0:0:0:
64,192,68523,1,8,0:0:0:0:
320,192,68523,1,0,0:0:0:0:
448,192,68523,1,0,0:0:0:0:
64,192,68726,1,2,0:0:0:0:
192,192,68726,1,0,0:0:0:0:
448,192,68827,1,0,0:0:0:0:
64,192,68929,128,4,69638:0:0:0:0:
192,192,68929,1,8,0:0:0:0:
320,192,68929,1,0,0:0:0:0:
192,192,69131,1,2,0:0:0:0:
448,192,69131,1,0,0:0:0:0:
320,192,69334,1,8,0:0:0:0:
448,192,69334,1,0,0:0:0:0:
192,192,69537,1,0,0:0:0:0:
320,192,69638,1,8,0:0:0:0:
448,192,69638,1,0,0:0:0:0:
64,192,69739,1,8,0:0:0:0:
192,192,69739,1,2,0:0:0:0:
64,192,69942,1,0,0:0:0:70:tom03.wav
448,192,69942,1,0,0:0:0:0:
192,192,70145,1,8,0:0:0:0:
320,192,70145,1,0,0:0:0:70:tom04.wav
448,192,70145,1,0,0:0:0:0:
192,192,70348,1,0,0:0:0:0:
320,192,70449,1,0,0:0:0:50:soft-hitclap.wav
64,192,70550,1,2,0:0:0:0:
192,192,70550,1,4,0:0:0:0:
448,192,70550,128,0,70956:0:0:0:0:
192,192,70956,1,0,0:0:0:70:rim.wav
320,192,70956,1,0,0:0:0:0:
64,192,71158,128,0,71361:0:0:0:0:
320,192,71361,1,0,0:0:0:70:rim.wav
448,192,71361,1,0,0:0:0:0:
192,192,71564,128,0,71766:0:0:0:0:
320,192,71766,1,0,0:0:0:70:rim.wav
448,192,71766,1,0,0:0:0:0:
192,192,71969,1,2,0:0:0:0:
320,192,71969,128,0,72172:0:0:0:0:
64,192,72172,1,0,0:0:0:70:rim.wav
448,192,72172,1,0,0:0:0:0:
448,192,72375,1,0,0:0:0:0:
64,192,72577,1,0,0:0:0:70:rim.wav
320,192,72577,1,0,0:0:0:0:
448,192,72780,128,0,72983:0:0:0:0:
64,192,72983,1,0,0:0:0:70:rim.wav
192,192,72983,128,0,73388:0:0:0:0:
320,192,73388,128,0,73793:0:0:0:70:cymbal.wav
448,192,73388,1,0,0:0:0:70:rim.wav
64,192,73793,128,4,73996:0:0:0:0:
192,192,73793,1,2,0:0:0:0:
448,192,73793,1,0,0:0:0:0:
320,192,73996,128,0,74199:0:0:0:0:
64,192,74199,1,0,0:0:0:70:rim.wav
192,192,74199,128,0,74402:0:0:0:0:
448,192,74402,128,0,74604:0:0:0:0:
64,192,74604,1,0,0:0:0:70:rim.wav
192,192,74604,1,0,0:0:0:0:
320,192,74807,128,2,75010:0:0:0:0:
448,192,74807,1,0,0:0:0:0:
64,192,75010,1,0,0:0:0:70:rim.wav
192,192,75010,1,0,0:0:0:0:
192,192,75212,128,2,75415:0:0:0:0:
320,192,75212,1,0,0:0:0:0:
64,192,75415,1,0,0:0:0:70:rim.wav
448,192,75415,1,0,0:0:0:0:
320,192,75668,1,0,0:0:0:0:
192,192,75719,1,0,0:0:0:0:
64,192,75820,1,0,0:0:0:70:rim.wav
448,192,75820,1,0,0:0:0:0:
448,192,76023,1,0,0:0:0:0:
64,192,76226,1,0,0:0:0:70:cymbal.wav
320,192,76226,128,0,76631:0:0:0:70:rim.wav
192,192,76429,1,0,0:0:0:70:tom03.wav
192,192,76631,128,0,77037:0:0:0:70:tom04.wav
448,192,76631,1,0,0:0:0:0:
64,192,77037,1,4,0:0:0:0:
320,192,77037,1,2,0:0:0:0:
448,192,77037,128,0,77442:0:0:0:0:
64,192,77442,1,0,0:0:0:70:rim.wav
192,192,77442,1,0,0:0:0:0:
320,192,77645,128,0,77848:0:0:0:0:
64,192,77848,1,0,0:0:0:70:rim.wav
192,192,77848,1,0,0:0:0:0:
64,192,78050,128,2,78253:0:0:0:0:
320,192,78050,1,0,0:0:0:50:cymbal.wav
448,192,78253,1,0,0:0:0:0:
192,192,78456,128,2,78658:0:0:0:0:
448,192,78456,128,0,78658:0:0:0:70:cymbal.wav
192,192,78861,1,2,0:0:0:0:
448,192,78861,1,0,0:0:0:0:
64,192,79064,128,4,79469:0:0:0:0:
192,192,79064,1,8,0:0:0:0:
320,192,79064,1,0,0:0:0:0:
320,192,79469,1,2,0:0:0:0:
448,192,79469,1,0,0:0:0:0:
64,192,79672,1,8,0:0:0:0:
192,192,79672,1,0,0:0:0:0:
448,192,79672,1,0,0:0:0:0:
64,192,79875,1,8,0:0:0:0:
192,192,79875,1,0,0:0:0:0:
448,192,79875,1,0,0:0:0:0:
64,192,80077,1,8,0:0:0:0:
192,192,80077,1,0,0:0:0:0:
448,192,80077,1,0,0:0:0:0:
64,192,80280,1,8,0:0:0:0:
192,192,80280,1,0,0:0:0:0:
320,192,80280,1,0,0:0:0:0:
320,192,80483,1,8,0:0:0:0:
448,192,80483,1,0,0:0:0:0:
192,192,80685,1,2,0:0:0:0:
320,192,80685,1,8,0:0:0:0:
448,192,80787,1,0,0:0:0:0:
64,192,80888,1,2,0:0:0:0:
192,192,80888,1,8,0:0:0:0:
320,192,80989,1,8,0:0:0:0:
64,192,81091,1,2,0:0:0:0:
448,192,81091,1,0,0:0:0:0:
192,192,81293,1,8,0:0:0:0:
320,192,81293,1,0,0:0:0:0:
64,192,81395,1,8,0:0:0:0:
320,192,81496,1,2,0:0:0:0:
448,192,81496,1,8,0:0:0:0:
64,192,81598,1,8,0:0:0:0:
192,192,81598,1,0,0:0:0:0:
320,192,81699,1,8,0:0:0:0:
448,192,81699,1,0,0:0:0:0:
192,192,81800,1,8,0:0:0:0:
64,192,81902,1,4,0:0:0:0:
320,192,81902,1,2,0:0:0:0:
448,192,81902,128,0,82307:0:0:0:0:
64,192,82307,1,8,0:0:0:0:
192,192,82307,1,0,0:0:0:0:
320,192,82307,1,0,0:0:0:0:
320,192,82510,1,2,0:0:0:0:
448,192,82510,1,0,0:0:0:0:
64,192,82712,1,8,0:0:0:0:
320,192,82712,1,0,0:0:0:0:
448,192,82712,1,0,0:0:0:0:
64,192,82915,1,2,0:0:0:0:
192,192,82915,1,0,0:0:0:0:
64,192,83118,128,8,83422:0:0:0:0:
192,192,83118,1,0,0:0:0:0:
448,192,83118,1,0,0:0:0:0:
320,192,83320,1,2,0:0:0:0:
448,192,83320,1,0,0:0:0:0:
192,192,83422,1,0,0:0:0:0:
64,192,83523,1,8,0:0:0:0:
320,192,83523,128,0,83929:0:0:0:0:
448,192,83523,1,0,0:0:0:0:
64,192,83726,1,2,0:0:0:0:
192,192,83726,1,0,0:0:0:0:
64,192,83929,1,8,0:0:0:0:
192,192,83929,1,0,0:0:0:0:
448,192,83929,128,0,84131:0:0:0:0:
192,192,84131,128,2,84334:0:0:0:0:
320,192,84131,1,0,0:0:0:0:
64,192,84334,1,8,0:0:0:0:
320,192,84334,1,0,0:0:0:0:
448,192,84334,128,0,84537:0:0:0:0:
64,192,84537,1,2,0:0:0:0:
320,192,84537,1,0,0:0:0:0:
192,192,84638,1,2,0:0:0:0:
64,192,84739,128,8,84942:0:0:0:0:
320,192,84739,1,0,0:0:0:0:
448,192,84739,1,0,0:0:0:0:
192,192,84942,1,2,0:0:0:0:
448,192,84942,1,0,0:0:0:0:
320,192,85043,1,0,0:0:0:0:
64,192,85145,1,8,0:0:0:0:
192,192,85145,1,4,0:0:0:0:
448,192,85145,1,0,0:0:0:0:
64,192,85348,1,0,0:0:0:0:
320,192,85348,1,0,0:0:0:0:
192,192,85550,1,8,0:0:0:0:
320,192,85550,1,0,0:0:0:0:
448,192,85550,1,0,0:0:0:0:
64,192,85753,1,2,0:0:0:0:
192,192,85753,1,0,0:0:0:0:
320,192,85854,1,0,0:0:0:0:
64,192,85956,1,8,0:0:0:0:
192,192,85956,1,0,0:0:0:0:
448,192,85956,128,0,86361:0:0:0:0:
64,192,86158,1,2,0:0:0:0:
320,192,86158,1,0,0:0:0:0:
64,192,86361,128,8,86969:0:0:0:0:
192,192,86361,1,0,0:0:0:0:
320,192,86361,1,0,0:0:0:0:
192,192,86564,1,2,0:0:0:0:
448,192,86564,1,0,0:0:0:0:
192,192,86766,128,8,86969:0:0:0:0:
320,192,86766,1,0,0:0:0:0:
448,192,86766,128,0,86969:0:0:0:0:
320,192,86969,1,0,0:0:0:70:tom01.wav
192,192,87037,1,0,0:0:0:70:tom02.wav
64,192,87104,1,0,0:0:0:70:tom03.wav
320,192,87172,1,2,0:0:0:0:
448,192,87172,1,0,0:0:0:0:
64,192,87375,128,2,87848:0:0:0:0:
192,192,87375,128,4,87780:0:0:0:0:
320,192,87375,1,0,0:0:0:0:
448,192,87375,128,0,87983:0:0:0:0:
320,192,87848,128,0,87983:0:0:0:0:
192,192,87915,128,0,87983:0:0:0:0:
64,192,87983,1,0,0:0:0:0:
