osu file format v14

[General]
AudioFilename: audio.mp3
AudioLeadIn: 0
PreviewTime:39431
Countdown: 0
SampleSet: Soft
StackLeniency: 0.7
Mode: 3
LetterboxInBreaks: 0
WidescreenStoryboard: 1
SpecialStyle: 0

[Editor]
DistanceSpacing: 0.7
BeatDivisor: 2
GridSize: 32
TimelineZoom: 1

[Metadata]
Title:Gift (TV Size)
TitleUnicode:ギフト (TV Size)
Artist:Oishi Masayoshi
ArtistUnicode:オーイシマサヨシ
Creator:Syrion-
Version:Normal
Source:お隣の天使様にいつの間にか駄目人間にされていた件
Tags:virtue- mirsaaa The Angel Next Door Spoils Me Rotten Otonari no Tenshi-sama ni Itsunomanika Dame Ningen Sareteita Ken anime op opening male vocals PCCG-02223 japanese jpop pop j-pop Mahiru Shiina 椎名真昼 大石昌良
BeatmapID:3961351
BeatmapSetID:1919524

[Difficulty]
HPDrainRate:7
CircleSize:4
OverallDifficulty:7
ApproachRate:5
SliderMultiplier:1.4
SliderTickRate:1

[Events]
//Background and Video events
Video,60,"video_x264.mp4"
0,0,"mahiru bangun di kasur ku.jpg",0,0
//Break Periods
//Storyboard Layer 0 (Background)
//Storyboard Layer 1 (Fail)
//Storyboard Layer 2 (Pass)
//Storyboard Layer 3 (Foreground)
//Storyboard Layer 4 (Overlay)
//Storyboard Sound Samples
Sample,6250,0,"Hat open.wav",40
Sample,8977,0,"Tom2.wav",30
Sample,9431,0,"Tom2.wav",30
Sample,10340,0,"Tom2.wav",30
Sample,11250,0,"Tom2.wav",30
Sample,20568,0,"Hat open.wav",40
Sample,33750,0,"Hat open.wav",40
Sample,34204,0,"Hat open.wav",40
Sample,51260,0,"Hat open.wav",40
Sample,54669,0,"Hat open.wav",40
Sample,56942,0,"Hat open.wav",40
Sample,58078,0,"Hat open.wav",40
Sample,59897,0,"Hat open.wav",40
Sample,60806,0,"Hat open.wav",40
Sample,63306,0,"Hat open.wav",40
Sample,65799,0,"soft-hitclap.wav",25
Sample,66259,0,"soft-hitclap.wav",25
Sample,66719,0,"soft-hitclap.wav",25
Sample,67168,0,"soft-hitclap.wav",25
Sample,67617,0,"soft-hitclap.wav",25
Sample,78970,0,"Hat open.wav",40
Sample,82606,0,"Hat open.wav",40
Sample,84197,0,"Hat open.wav",40
Sample,85106,0,"Hat open.wav",40
Sample,85561,0,"Hat open.wav",40

[TimingPoints]
568,454.545454545455,4,2,1,40,1,0
1250,454.545454545455,4,2,1,40,1,0
46488,454.545454545455,4,2,1,40,1,1
65340,459.770114942529,4,2,1,40,1,0
65340,-99.009900990099,4,2,1,40,0,1
66719,449.438202247191,4,2,1,40,1,0
66719,-101.010101010101,4,2,1,40,0,1
68516,454.545454545455,4,2,1,40,1,0

[HitObjects]
64,192,568,1,0,0:0:0:0:
192,192,795,1,0,0:0:0:40:Hat open.wav
320,192,1022,1,0,0:0:0:0:
64,192,1250,1,4,0:0:0:0:
448,192,1250,1,2,0:0:0:0:
320,192,1704,1,2,0:0:0:0:
320,192,2613,1,2,0:0:0:0:
64,192,2840,1,0,0:0:0:0:
192,192,3068,1,0,0:0:0:0:
448,192,3295,1,0,0:0:0:0:
320,192,3522,1,2,0:0:0:0:
192,192,3750,1,0,0:0:0:0:
64,192,3977,128,0,4431:0:0:0:0:
320,192,4431,1,0,0:0:0:0:
192,192,4659,1,0,0:0:0:0:
320,192,4886,1,2,0:0:0:0:
448,192,4886,1,4,0:0:0:0:
64,192,5340,1,2,0:0:0:0:
448,192,5795,1,0,0:0:0:0:
320,192,6022,1,0,0:0:0:0:
192,192,6250,128,2,6704:0:0:0:0:
64,192,6704,128,8,7159:0:0:0:0:
448,192,6704,1,0,0:0:0:0:
320,192,7159,128,0,7613:0:0:0:0:
192,192,7613,128,0,8068:0:0:0:0:
448,192,8068,128,0,8522:0:0:0:0:
64,192,8522,1,4,0:0:0:0:
320,192,8522,1,2,0:0:0:0:
192,192,8750,1,0,0:0:0:30:Tom2.wav
448,192,8977,1,2,0:0:0:0:
64,192,9204,1,0,0:0:0:0:
320,192,9431,1,2,0:0:0:0:
448,192,9659,1,0,0:0:0:0:
192,192,9886,1,2,0:0:0:0:
64,192,10113,1,0,0:0:0:30:Tom2.wav
320,192,10340,1,2,0:0:0:0:
448,192,10568,1,0,0:0:0:30:Tom2.wav
192,192,10795,1,2,0:0:0:0:
320,192,11022,1,0,0:0:0:30:Tom2.wav
64,192,11250,1,2,0:0:0:0:
192,192,11477,1,0,0:0:0:0:
448,192,11704,1,2,0:0:0:0:
64,192,11931,1,0,0:0:0:30:Tom2.wav
192,192,12159,128,2,12613:0:0:0:0:
320,192,12159,1,0,0:0:0:30:Tom2.wav
64,192,12613,1,0,0:0:0:0:
320,192,12840,128,0,13295:0:0:0:0:
448,192,12840,1,0,0:0:0:0:
192,192,13295,1,0,0:0:0:0:
448,192,13522,1,0,0:0:0:0:
64,192,13750,128,0,14204:0:0:0:0:
320,192,13750,1,0,0:0:0:0:
192,192,14204,1,0,0:0:0:0:
320,192,14431,1,0,0:0:0:0:
64,192,14659,1,0,0:0:0:0:
448,192,14659,128,0,15113:0:0:0:0:
192,192,15113,1,0,0:0:0:0:
320,192,15340,1,0,0:0:0:0:
64,192,15568,128,0,16022:0:0:0:40:Hat open.wav
448,192,15568,1,0,0:0:0:0:
320,192,16022,1,0,0:0:0:0:
192,192,16250,1,0,0:0:0:0:
320,192,16477,1,0,0:0:0:0:
448,192,16477,128,0,16931:0:0:0:0:
64,192,16931,128,0,17386:0:0:0:0:
192,192,16931,1,0,0:0:0:0:
320,192,17386,128,0,17840:0:0:0:0:
448,192,17386,1,0,0:0:0:0:
64,192,17840,1,0,0:0:0:0:
192,192,17840,1,0,0:0:0:0:
448,192,18068,1,0,0:0:0:0:
192,192,18295,128,0,18750:0:0:0:0:
320,192,18295,1,0,0:0:0:0:
64,192,18750,1,0,0:0:0:0:
448,192,18750,1,0,0:0:0:0:
192,192,18977,1,0,0:0:0:40:clap.wav
320,192,18977,1,0,0:0:0:0:
448,192,19204,1,0,0:0:0:40:Hat open.wav
64,192,19431,128,2,19886:0:0:0:0:
192,192,19431,1,0,0:0:0:0:
448,192,19886,1,0,0:0:0:0:
192,192,20113,1,0,0:0:0:40:Hat open.wav
320,192,20113,128,0,20568:0:0:0:0:
64,192,20568,1,2,0:0:0:0:
192,192,20795,1,0,0:0:0:0:
320,192,21022,1,0,0:0:0:40:Hat open.wav
448,192,21022,128,0,21477:0:0:0:0:
192,192,21477,1,0,0:0:0:40:Hat open.wav
64,192,21704,1,0,0:0:0:0:
320,192,21931,128,0,22386:0:0:0:40:Hat open.wav
448,192,21931,1,0,0:0:0:0:
64,192,22386,1,0,0:0:0:40:Hat open.wav
448,192,22613,1,0,0:0:0:0:
192,192,22840,128,4,23295:0:0:0:0:
320,192,22840,1,2,0:0:0:0:
64,192,23295,128,0,23750:0:0:0:40:Hat open.wav
192,192,23750,1,2,0:0:0:0:
320,192,23750,128,4,24204:0:0:0:0:
448,192,24204,128,0,24659:0:0:0:30:Tom2.wav
64,192,24431,1,2,0:0:0:0:
192,192,24886,128,8,25340:0:0:0:0:
320,192,24886,1,0,0:0:0:40:Hat open.wav
64,192,25340,128,8,25795:0:0:0:0:
448,192,25340,1,0,0:0:0:40:Hat open.wav
192,192,25795,1,8,0:0:0:0:
320,192,25795,128,0,26022:0:0:0:40:Hat open.wav
448,192,26022,128,0,26250:0:0:0:0:
64,192,26250,1,8,0:0:0:0:
192,192,26250,128,0,26477:0:0:0:40:Hat open.wav
320,192,26477,128,0,26704:0:0:0:0:
64,192,26704,1,2,0:0:0:0:
448,192,26704,128,4,28068:0:0:0:0:
192,192,27159,1,2,0:0:0:0:
320,192,27613,1,2,0:0:0:0:
64,192,28068,1,2,0:0:0:0:
192,192,28295,1,8,0:0:0:0:
448,192,28522,1,2,0:0:0:0:
320,192,28750,1,0,0:0:0:0:
192,192,28977,1,0,0:0:0:0:
64,192,29204,1,0,0:0:0:0:
448,192,29431,1,0,0:0:0:0:
192,192,29659,1,0,0:0:0:0:
320,192,29886,1,0,0:0:0:0:
64,192,30113,1,0,0:0:0:0:
192,192,30340,1,2,0:0:0:0:
448,192,30568,1,0,0:0:0:0:
320,192,30795,1,0,0:0:0:0:
64,192,31022,1,0,0:0:0:0:
192,192,31250,1,0,0:0:0:0:
320,192,31363,1,0,0:0:0:0:
448,192,31477,1,0,0:0:0:0:
64,192,31704,1,0,0:0:0:0:
320,192,31931,1,0,0:0:0:0:
192,192,32386,1,0,0:0:0:0:
64,192,32613,1,0,0:0:0:0:
320,192,32840,1,0,0:0:0:0:
192,192,33068,1,0,0:0:0:0:
448,192,33295,1,0,0:0:0:0:
320,192,33522,1,0,0:0:0:0:
64,192,33750,1,8,0:0:0:0:
192,192,33977,1,2,0:0:0:0:
192,192,34204,1,8,0:0:0:0:
448,192,34431,1,2,0:0:0:0:
448,192,34659,1,0,0:0:0:0:
64,192,34886,1,8,0:0:0:0:
192,192,34886,1,0,0:0:0:40:Hat open.wav
320,192,35113,1,0,0:0:0:0:
64,192,35227,128,2,35568:0:0:0:0:
448,192,35227,1,4,0:0:0:0:
192,192,35568,1,2,0:0:0:0:
320,192,35795,1,6,0:0:0:0:
192,192,36022,1,8,0:0:0:0:
448,192,36022,1,0,0:0:0:0:
64,192,36250,1,0,0:0:0:0:
320,192,36477,1,8,0:0:0:0:
448,192,36477,1,0,0:0:0:0:
192,192,36704,1,0,0:0:0:0:
64,192,36931,1,8,0:0:0:0:
448,192,36931,1,0,0:0:0:0:
192,192,37159,1,0,0:0:0:0:
320,192,37386,1,2,0:0:0:0:
64,192,37613,128,8,38068:0:0:0:0:
448,192,37613,1,4,0:0:0:0:
320,192,38068,128,8,38522:0:0:0:0:
448,192,38068,1,4,0:0:0:0:
64,192,38522,1,8,0:0:0:0:
192,192,38522,128,4,38977:0:0:0:0:
320,192,38977,1,4,0:0:0:0:
448,192,38977,128,8,39431:0:0:0:0:
64,192,39431,1,2,0:0:0:0:
192,192,39431,1,0,0:0:0:0:
320,192,39886,1,8,0:0:0:0:
448,192,39886,1,0,0:0:0:0:
192,192,40340,1,2,0:0:0:0:
64,192,40795,1,8,0:0:0:0:
448,192,40795,1,0,0:0:0:0:
320,192,41022,1,0,0:0:0:0:
192,192,41136,1,0,0:0:0:0:
64,192,41250,1,2,0:0:0:0:
448,192,41477,1,0,0:0:0:0:
64,192,41704,1,8,0:0:0:0:
192,192,41704,1,0,0:0:0:0:
448,192,41931,1,0,0:0:0:0:
192,192,42159,1,2,0:0:0:0:
320,192,42386,1,2,0:0:0:0:
64,192,42613,1,8,0:0:0:0:
448,192,42840,1,0,0:0:0:0:
64,192,43068,1,2,0:0:0:0:
192,192,43068,1,4,0:0:0:0:
320,192,43522,1,8,0:0:0:0:
448,192,43522,1,0,0:0:0:0:
192,192,43977,1,2,0:0:0:0:
320,192,44204,1,0,0:0:0:0:
64,192,44431,1,8,0:0:0:0:
448,192,44431,128,0,44886:0:0:0:0:
192,192,44886,1,8,0:0:0:0:
320,192,44886,1,0,0:0:0:40:Hat open.wav
64,192,45113,1,0,0:0:0:20:LR4_SnareKKF.wav
192,192,45227,1,0,0:0:0:20:LR4_SnareKKF.wav
448,192,45340,1,0,0:0:0:25:LR4_SnareKKF.wav
320,192,45454,1,0,0:0:0:25:LR4_SnareKKF.wav
64,192,45568,128,0,46022:0:0:0:30:LR4_SnareKKF.wav
192,192,45795,128,0,46022:0:0:0:35:LR4_SnareKKF.wav
448,192,46022,1,0,0:0:0:40:LR4_SnareKKF.wav
320,192,46136,1,0,0:0:0:40:LR4_SnareKKF.wav
64,192,46250,1,0,0:0:0:40:LR4_SnareKKF.wav
192,192,46363,1,0,0:0:0:40:LR4_SnareKKF.wav
320,192,46488,1,2,0:0:0:0:
448,192,46488,128,4,46942:0:0:0:0:
64,192,46942,1,8,0:0:0:0:
192,192,46942,1,0,0:0:0:40:Hat open.wav
320,192,47169,1,2,0:0:0:0:
64,192,47397,1,8,0:0:0:0:
448,192,47397,1,0,0:0:0:40:Hat open.wav
192,192,47624,1,2,0:0:0:0:
320,192,47851,1,8,0:0:0:0:
448,192,47851,1,0,0:0:0:40:Hat open.wav
64,192,48078,1,0,0:0:0:0:
192,192,48306,128,8,48760:0:0:0:0:
320,192,48306,1,4,0:0:0:0:
64,192,48760,1,8,0:0:0:0:
448,192,48760,1,0,0:0:0:40:Hat open.wav
320,192,48988,1,2,0:0:0:0:
64,192,49215,128,8,49669:0:0:0:0:
192,192,49215,1,0,0:0:0:40:Hat open.wav
448,192,49442,1,2,0:0:0:0:
192,192,49669,1,8,0:0:0:0:
320,192,49669,1,0,0:0:0:40:Hat open.wav
448,192,49897,1,0,0:0:0:0:
320,192,50010,1,2,0:0:0:0:
64,192,50124,1,8,0:0:0:0:
192,192,50124,128,4,50578:0:0:0:0:
320,192,50578,1,8,0:0:0:0:
448,192,50578,1,0,0:0:0:40:Hat open.wav
64,192,50806,1,2,0:0:0:0:
320,192,51033,1,8,0:0:0:0:
448,192,51033,128,0,51488:0:0:0:40:Hat open.wav
64,192,51260,1,2,0:0:0:0:
192,192,51488,1,8,0:0:0:0:
320,192,51488,1,0,0:0:0:40:Hat open.wav
64,192,51715,1,0,0:0:0:0:
192,192,51828,1,2,0:0:0:0:
320,192,51942,128,8,52397:0:0:0:0:
448,192,51942,1,0,0:0:0:0:
64,192,52397,1,8,0:0:0:0:
192,192,52397,1,0,0:0:0:40:Hat open.wav
448,192,52624,1,2,0:0:0:0:
192,192,52851,1,8,0:0:0:0:
320,192,52851,1,0,0:0:0:40:Hat open.wav
64,192,53078,1,10,0:0:0:0:
192,192,53306,1,8,0:0:0:0:
448,192,53306,1,0,0:0:0:0:
320,192,53533,1,8,0:0:0:0:
64,192,53760,1,8,0:0:0:0:
192,192,53988,1,4,0:0:0:0:
320,192,53988,128,2,54442:0:0:0:0:
64,192,54442,128,2,54897:0:0:0:0:
448,192,54669,1,8,0:0:0:0:
320,192,54897,1,2,0:0:0:0:
64,192,55124,1,8,0:0:0:0:
192,192,55124,1,0,0:0:0:40:Hat open.wav
448,192,55351,1,0,0:0:0:0:
320,192,55465,1,2,0:0:0:0:
64,192,55578,1,8,0:0:0:0:
192,192,55578,128,0,56033:0:0:0:0:
320,192,56033,1,8,0:0:0:0:
448,192,56033,1,0,0:0:0:40:Hat open.wav
64,192,56260,1,2,0:0:0:0:
192,192,56488,1,8,0:0:0:0:
320,192,56488,1,0,0:0:0:40:Hat open.wav
448,192,56715,128,2,57169:0:0:0:0:
192,192,56942,1,8,0:0:0:0:
64,192,57169,1,0,0:0:0:0:
192,192,57283,1,2,0:0:0:0:
320,192,57397,128,8,57851:0:0:0:0:
448,192,57397,1,4,0:0:0:0:
64,192,57851,1,8,0:0:0:0:
192,192,57851,1,0,0:0:0:40:Hat open.wav
320,192,58078,1,2,0:0:0:0:
64,192,58306,128,8,58760:0:0:0:0:
448,192,58306,1,0,0:0:0:40:Hat open.wav
192,192,58533,1,2,0:0:0:0:
320,192,58760,1,8,0:0:0:0:
448,192,58760,1,0,0:0:0:40:Hat open.wav
192,192,58988,128,0,59442:0:0:0:0:
448,192,59215,1,8,0:0:0:0:
320,192,59442,1,2,0:0:0:0:
64,192,59669,1,8,0:0:0:0:
192,192,59669,1,0,0:0:0:40:Hat open.wav
448,192,59897,1,2,0:0:0:0:
192,192,60124,1,8,0:0:0:0:
320,192,60124,128,0,60578:0:0:0:40:Hat open.wav
64,192,60578,1,8,0:0:0:0:
448,192,60578,1,0,0:0:0:40:Hat open.wav
192,192,60806,1,2,0:0:0:0:
320,192,60919,1,8,0:0:0:0:
64,192,61033,1,8,0:0:0:0:
192,192,61147,1,8,0:0:0:0:
320,192,61260,1,2,0:0:0:0:
448,192,61260,1,4,0:0:0:0:
64,192,61488,1,8,0:0:0:0:
192,192,61488,1,0,0:0:0:40:Hat open.wav
320,192,61715,1,2,0:0:0:0:
64,192,61942,1,8,0:0:0:0:
448,192,61942,128,0,62397:0:0:0:40:Hat open.wav
192,192,62397,1,8,0:0:0:0:
320,192,62397,1,0,0:0:0:40:Hat open.wav
64,192,62624,1,0,0:0:0:0:
192,192,62738,1,2,0:0:0:0:
320,192,62851,1,8,0:0:0:0:
448,192,62851,1,0,0:0:0:40:Hat open.wav
64,192,63078,1,4,0:0:0:0:
192,192,63078,128,2,63533:0:0:0:0:
320,192,63306,1,8,0:0:0:0:
64,192,63533,1,2,0:0:0:0:
448,192,63533,1,0,0:0:0:0:
192,192,63760,1,8,0:0:0:0:
320,192,63760,128,0,64215:0:0:0:0:
64,192,64215,1,8,0:0:0:0:
448,192,64215,1,0,0:0:0:40:Hat open.wav
192,192,64442,1,2,0:0:0:0:
64,192,64669,1,8,0:0:0:0:
448,192,64669,1,0,0:0:0:40:Hat open.wav
192,192,64897,1,2,0:0:0:0:
320,192,64897,128,0,65340:0:0:0:0:
64,192,65340,1,2,0:0:0:0:
448,192,65569,1,0,0:0:0:25:soft-hitclap.wav
192,192,65799,1,2,0:0:0:0:
320,192,66029,1,0,0:0:0:25:soft-hitclap.wav
64,192,66259,1,2,0:0:0:0:
192,192,66489,1,0,0:0:0:25:soft-hitclap.wav
448,192,66719,1,2,0:0:0:0:
320,192,66943,1,0,0:0:0:25:soft-hitclap.wav
192,192,67168,1,2,0:0:0:0:
64,192,67393,1,0,0:0:0:25:soft-hitclap.wav
448,192,67617,128,2,67842:0:0:0:0:
320,192,67842,128,2,68067:0:0:0:0:
64,192,68067,128,8,68516:0:0:0:0:
192,192,68292,128,0,68516:0:0:0:0:
320,192,68516,1,2,0:0:0:0:
448,192,68516,128,4,68970:0:0:0:0:
64,192,68970,1,8,0:0:0:0:
192,192,68970,1,0,0:0:0:40:Hat open.wav
320,192,69197,1,0,0:0:0:0:
448,192,69425,1,0,0:0:0:40:Hat open.wav
192,192,69652,1,2,0:0:0:0:
64,192,69879,1,8,0:0:0:0:
448,192,69879,1,0,0:0:0:40:Hat open.wav
320,192,70106,128,2,70561:0:0:0:0:
64,192,70561,1,2,0:0:0:0:
192,192,70788,1,8,0:0:0:0:
448,192,70788,1,0,0:0:0:40:Hat open.wav
320,192,71016,1,0,0:0:0:0:
64,192,71243,1,0,0:0:0:40:Hat open.wav
192,192,71470,1,2,0:0:0:0:
320,192,71697,1,8,0:0:0:0:
448,192,71697,1,0,0:0:0:40:Hat open.wav
64,192,71925,128,2,72379:0:0:0:0:
192,192,72379,1,2,0:0:0:0:
320,192,72606,1,8,0:0:0:0:
448,192,72606,1,0,0:0:0:40:Hat open.wav
192,192,72834,128,2,73288:0:0:0:0:
320,192,73288,1,2,0:0:0:0:
64,192,73516,1,8,0:0:0:0:
448,192,73516,1,0,0:0:0:40:Hat open.wav
320,192,73743,128,2,74197:0:0:0:0:
64,192,74197,1,2,0:0:0:0:
192,192,74425,1,8,0:0:0:0:
448,192,74425,1,0,0:0:0:40:Hat open.wav
320,192,74652,1,2,0:0:0:0:
448,192,74879,128,0,75334:0:0:0:40:Hat open.wav
192,192,75106,1,2,0:0:0:0:
64,192,75334,128,8,75788:0:0:0:0:
320,192,75334,1,0,0:0:0:40:Hat open.wav
448,192,75561,1,2,0:0:0:0:
192,192,75788,1,2,0:0:0:0:
320,192,75788,128,4,76243:0:0:0:0:
64,192,76243,1,8,0:0:0:0:
448,192,76243,1,4,0:0:0:0:
192,192,76470,1,0,0:0:0:0:
448,192,76697,1,0,0:0:0:40:Hat open.wav
192,192,76925,1,2,0:0:0:0:
64,192,77152,1,8,0:0:0:0:
448,192,77152,1,0,0:0:0:40:Hat open.wav
192,192,77379,128,2,77834:0:0:0:0:
320,192,77834,1,2,0:0:0:0:
64,192,78061,1,8,0:0:0:0:
448,192,78061,1,0,0:0:0:40:Hat open.wav
192,192,78288,1,0,0:0:0:0:
320,192,78516,1,0,0:0:0:40:Hat open.wav
448,192,78743,128,2,79197:0:0:0:0:
64,192,78970,1,8,0:0:0:0:
320,192,79197,128,2,79652:0:0:0:0:
64,192,79652,1,2,0:0:0:0:
192,192,79879,1,8,0:0:0:0:
448,192,79879,1,0,0:0:0:40:Hat open.wav
64,192,80106,128,2,80561:0:0:0:0:
320,192,80561,1,2,0:0:0:0:
192,192,80788,1,8,0:0:0:0:
448,192,80788,1,0,0:0:0:40:Hat open.wav
64,192,81016,1,2,0:0:0:0:
448,192,81243,1,0,0:0:0:40:Hat open.wav
320,192,81470,1,2,0:0:0:0:
64,192,81697,1,8,0:0:0:0:
192,192,81697,1,0,0:0:0:40:Hat open.wav
448,192,81925,1,2,0:0:0:0:
320,192,82152,128,0,82606:0:0:0:40:Hat open.wav
64,192,82379,1,2,0:0:0:0:
192,192,82606,1,8,0:0:0:0:
320,192,82834,1,2,0:0:0:0:
448,192,82834,128,4,83288:0:0:0:0:
192,192,83288,1,2,0:0:0:0:
64,192,83516,1,8,0:0:0:0:
448,192,83516,1,0,0:0:0:40:Hat open.wav
192,192,83743,1,2,0:0:0:0:
320,192,83743,1,0,0:0:0:0:
448,192,83970,1,0,0:0:0:0:
64,192,84197,1,2,0:0:0:0:
192,192,84425,1,8,0:0:0:0:
320,192,84425,1,0,0:0:0:40:Hat open.wav
448,192,84652,128,6,85106:0:0:0:0:
192,192,85106,1,2,0:0:0:0:
64,192,85334,1,8,0:0:0:0:
320,192,85334,1,0,0:0:0:0:
192,192,85561,1,2,0:0:0:0:
448,192,85788,1,8,0:0:0:0:
320,192,85902,1,8,0:0:0:0:
64,192,86016,1,8,0:0:0:0:
192,192,86129,1,8,0:0:0:0:
448,192,86243,128,8,87152:0:0:0:0:
64,192,86697,1,4,0:0:0:0:
320,192,86697,128,2,87152:0:0:0:0:
