osu file format v14

[General]
AudioFilename: audio.mp3
AudioLeadIn: 0
PreviewTime: 46395
Countdown: 0
SampleSet: Soft
StackLeniency: 0.7
Mode: 2
LetterboxInBreaks: 0
WidescreenStoryboard: 1

[Editor]
DistanceSpacing: 0.7
BeatDivisor: 4
GridSize: 8
TimelineZoom: 3.099999

[Metadata]
Title:Gift (TV Size)
TitleUnicode:ギフト (TV Size)
Artist:Oishi Masayoshi
ArtistUnicode:オーイシマサヨシ
Creator:-Rustyy
Version:Secre's Overdose
Source:お隣の天使様にいつの間にか駄目人間にされていた件
Tags:male vocals vocalist Project No.9 椎名 真昼 Mahiru Shiina The Angel Next Door Spoils Me Rotten Otonari no Tenshi-sama ni Itsunomanika Dame Ningen ni Sareteita Ken anime opening pop jpop japanese Secre chickenbible Mochi - -Luminate [_-Kukkai-_] Kukkai -Hex-
BeatmapID:4092342
BeatmapSetID:1971609

[Difficulty]
HPDrainRate:5
CircleSize:4.2
OverallDifficulty:9.4
ApproachRate:9.4
SliderMultiplier:1.39
SliderTickRate:1

[Events]
//Background and Video events
0,0,"gift.jpg",0,0
//Break Periods
//Storyboard Layer 0 (Background)
//Storyboard Layer 1 (Fail)
//Storyboard Layer 2 (Pass)
//Storyboard Layer 3 (Foreground)
//Storyboard Layer 4 (Overlay)
//Storyboard Sound Samples

[TimingPoints]
618,227.272727272727,4,2,2,48,1,0
1299,227.272727272727,4,2,2,48,1,0
6753,-100,4,2,1,48,0,0
8117,-66.6666666666667,4,2,1,48,0,0
8571,-100,4,2,1,35,0,0
12191,227.272727272727,4,2,2,33,1,0
12191,-100,4,2,2,33,0,0
19009,-100,4,2,2,40,0,0
23327,-100,4,2,2,45,0,0
24463,-100,4,2,2,45,0,0
24918,-100,4,2,1,65,0,0
25372,-76.9230769230769,4,2,1,65,0,0
25827,-100,4,2,1,65,0,0
28554,-100,4,2,2,58,0,0
32190,-100,4,2,1,58,0,0
34009,-100,4,2,1,66,0,0
39463,-100,4,2,2,55,0,0
44463,-76.9230769230769,4,2,2,55,0,0
44918,-100,4,2,1,70,0,0
45031,-100,4,2,1,70,0,0
45259,-100,4,2,1,35,0,0
45372,-100,4,2,1,40,0,0
45486,-100,4,2,1,45,0,0
45600,-100,4,2,1,50,0,0
45713,-100,4,2,1,55,0,0
45827,-100,4,2,1,60,0,0
45940,-100,4,2,1,65,0,0
46054,-100,4,2,1,70,0,0
46509,227.272727272727,4,2,1,80,1,1
46509,-83.3333333333333,4,2,1,80,0,1
53895,-83.3333333333333,4,2,1,80,0,0
54008,227.272727272727,4,2,1,85,1,1
54008,-83.3333333333333,4,2,1,85,0,1
64918,231.660231660232,4,2,2,48,1,0
66771,224.719101123595,4,2,1,48,1,0
68568,227.272727272727,4,2,1,60,1,0
68568,-100,4,2,1,60,0,0
75840,-100,4,2,1,65,0,0
81067,-76.9230769230769,4,2,1,65,0,0
81522,-100,4,2,1,65,0,0
84704,-100,4,2,1,70,0,0

[Colours]
Combo1 : 241,219,141
Combo2 : 236,183,83
Combo3 : 155,0,0

[HitObjects]
183,225,617,6,0,L|93:221,1,69.5
340,145,845,1,0,0:0:0:0:
246,127,958,1,0,0:0:0:0:
340,145,1071,1,0,0:0:0:0:
246,127,1185,1,0,0:0:0:0:
451,93,1299,5,6,0:0:0:0:
356,82,1412,1,2,0:0:0:0:
166,143,1639,1,0,0:0:0:0:
285,71,1753,2,0,L|190:53,2,69.5,10|2|0,0:0|0:0|0:0,0:0:0:0:
405,98,2094,6,0,L|406:188,1,69.4999999999999,2|0,0:0|0:0,0:0:0:0:
306,183,2321,1,2,0:0:0:0:
405,167,2434,2,0,L|408:83,1,69.4999999999999,2|0,0:0|0:0,0:0:0:0:
205,84,2662,1,8,0:0:0:0:
183,31,2889,2,2,L|266:20,1,69.4999999999999
109,140,3117,6,0,P|63:78|113:39,1,139,2|0,0:0|0:0,0:0:0:0:
184,22,3458,1,0,0:0:0:0:
96,134,3571,2,0,P|47:86|105:23,1,139,10|0,0:0|0:0,0:0:0:0:
194,45,3912,1,0,0:0:0:0:
24,180,4026,6,0,L|162:137,1,139,2|2,0:0|0:0,0:0:0:0:
63,108,4367,1,0,0:0:0:0:
243,91,4480,2,0,L|157:71,1,69.4999999999999,10|2,0:0|0:0,0:0:0:0:
361,175,4708,1,2,0:0:0:0:
276,155,4821,1,2,0:0:0:0:
486,108,4935,6,0,L|395:106,1,69.4999999999999,14|2,0:0|0:0,0:0:0:0:
211,71,5276,1,0,0:0:0:0:
311,46,5389,1,8,0:0:0:0:
186,142,5503,2,0,L|285:126,1,69.4999999999999,2|0,0:0|0:0,0:0:0:0:
153,80,5730,6,0,L|155:155,1,69.4999999999999,2|0,0:0|0:0,0:0:0:0:
269,155,5958,1,2,0:0:0:0:
154,149,6071,2,0,L|242:140,1,69.4999999999999,2|0,0:0|0:0,0:0:0:0:
447,179,6298,1,2,0:1:0:0:
350,130,6412,1,0,0:0:0:0:
431,98,6526,1,8,0:3:0:0:
311,73,6639,1,0,0:0:0:0:
151,57,6753,6,0,P|75:93|80:168,1,139,10|0,0:1|0:0,0:0:0:0:
167,161,7094,1,0,0:0:0:0:
361,57,7208,2,0,P|437:93|432:168,1,139,2|0,0:0|0:0,0:0:0:0:
345,161,7548,1,0,0:0:0:0:
89,219,7662,6,0,P|129:154|76:136,1,139,2|0,0:0|0:0,0:0:0:0:
189,88,8003,1,0,0:0:0:0:
423,219,8117,2,0,P|351:160|436:136,1,208.500007953644,2|0,0:0|0:0,0:0:0:0:
323,88,8458,1,0,0:0:0:0:
69,205,8571,6,0,L|61:51,1,139,10|8,0:0|0:3,0:0:0:0:
283,64,9026,1,4,0:3:0:0:
97,105,9253,2,0,L|195:86,1,69.5,0|8,0:0|0:3,0:0:0:0:
290,101,9480,6,0,L|149:89,1,139,4|8,0:3|0:3,0:0:0:0:
269,149,9821,2,0,P|359:193|373:268,1,139,4|4,0:3|0:3,0:0:0:0:
261,257,10162,1,8,0:3:0:0:
469,238,10389,6,0,L|476:62,1,139,4|8,0:3|0:3,0:0:0:0:
260,60,10844,2,0,L|345:55,2,69.5,4|8|8,0:3|0:3|0:3,0:0:0:0:
62,175,11298,6,0,L|204:160,1,139,4|0,0:3|0:0,0:0:0:0:
98,106,11639,2,0,L|88:13,1,69.5,4|0,0:3|0:0,0:0:0:0:
207,26,11867,2,0,L|106:25,2,69.5,4|8|0,0:3|0:3|0:0,0:0:0:0:
464,77,12191,6,0,P|478:151|285:205,1,278,6|10,0:0|0:0,0:0:0:0:
90,288,12872,2,0,L|79:123,1,139,2|0,0:0|0:0,0:0:0:0:
280,95,13327,1,0,0:0:0:0:
82,123,13554,1,10,0:0:0:0:
475,186,13782,1,2,0:0:0:0:
477,116,13895,1,0,0:0:0:0:
480,47,14009,5,0,0:0:0:0:
274,102,14237,1,0,0:0:0:0:
480,47,14464,1,8,0:0:0:0:
107,49,14691,2,0,P|204:33|276:188,1,278,2|2,0:0|0:0,0:0:0:0:
72,187,15373,2,0,L|189:157,1,69.5,8|0,0:0|0:0,0:0:0:0:
411,117,15600,6,0,P|469:164|441:206,1,139,2|0,0:0|0:0,0:0:0:0:
227,231,16055,1,2,0:0:0:0:
430,165,16282,1,8,0:0:0:0:
114,143,16509,2,0,P|69:74|127:31,1,139,2|0,0:0|0:0,0:0:0:0:
320,47,16964,2,0,L|326:189,1,139,0|8,0:0|0:0,0:0:0:0:
120,178,17418,6,0,L|214:162,2,69.5,2|0|0,0:0|0:0|0:0,0:0:0:0:
324,83,17873,1,2,0:0:0:0:
124,98,18100,1,8,0:0:0:0:
450,50,18327,2,0,P|513:101|436:193,1,208.5,2|0,0:0|0:0,0:0:0:0:
276,145,18782,2,0,L|264:49,1,69.5
92,96,19009,1,8,0:1:0:0:
210,27,19237,2,0,L|118:11,1,69.5
341,32,19464,6,0,P|421:47|441:235,1,278,2|0,0:0|0:0,0:0:0:0:
120,198,20146,2,0,L|301:172,1,139,2|0,0:0|0:0,0:0:0:0:
53,134,20600,1,2,0:0:0:0:
269,86,20827,2,0,L|356:74,1,69.5,2|0,0:0|0:0,0:0:0:0:
113,234,21055,1,2,0:0:0:0:
103,165,21168,1,0,0:0:0:0:
94,96,21282,5,0,0:0:0:0:
302,75,21509,2,0,L|214:67,1,69.5
416,25,21737,2,0,L|511:17,1,69.5,2|0,0:0|0:0,0:0:0:0:
245,119,21964,2,0,P|228:202|337:222,1,208.5,2|0,0:0|0:0,0:0:0:0:
451,156,22418,2,0,L|464:65,1,69.5
353,47,22646,2,0,L|379:-41,1,69.5,2|0,0:0|0:0,0:0:0:0:
140,67,22873,6,0,P|70:91|52:185,1,139,6|0,0:0|0:0,0:0:0:0:
261,214,23327,1,2,0:0:0:0:
171,210,23441,1,0,0:0:0:0:
283,149,23555,1,0,0:0:0:0:
498,140,23782,2,0,L|240:103,1,208.5,4|0,0:0|0:0,0:0:0:0:
393,66,24237,2,0,L|312:44,1,69.5,8|8,0:3|0:3,0:0:0:0:
95,127,24464,5,4,0:3:0:0:
63,113,24520,1,0,0:0:0:0:
44,85,24577,1,0,0:0:0:0:
43,51,24634,1,0,0:0:0:0:
60,21,24691,1,0,0:0:0:0:
91,6,24748,1,0,0:0:0:0:
125,11,24804,1,0,0:0:0:0:
322,149,24918,6,0,L|85:118,1,208.5,8|0,0:1|0:0,0:0:0:0:
384,69,25373,2,0,P|261:45|100:88,1,271.049987592316,8|0,0:1|0:0,0:0:0:0:
351,177,25827,6,0,L|412:121,1,69.5,8|0,0:1|0:0,0:0:0:0:
287,95,26055,2,0,L|270:6,1,69.5,2|0,0:0|0:0,0:0:0:0:
472,28,26282,2,0,L|390:19,1,69.5,8|0,0:1|0:0,0:0:0:0:
287,95,26509,1,2,0:0:0:0:
402,20,26623,1,0,0:0:0:0:
161,90,26737,6,0,P|89:98|80:179,1,139,14|8,0:0|0:3,0:0:0:0:
262,170,27191,2,0,L|174:163,1,69.5,4|8,0:3|0:3,0:0:0:0:
284,104,27418,2,0,L|376:96,1,69.5
152,92,27646,5,4,0:3:0:0:
60,63,27759,2,0,L|12:6,2,69.5,0|0|8,0:0|0:0|0:3,0:0:0:0:
262,134,28100,2,0,L|345:97,1,69.5,4|8,0:3|0:1,0:0:0:0:
218,77,28327,1,4,0:3:0:0:
322,35,28441,1,0,0:0:0:0:
118,159,28555,6,0,L|20:147,3,69.5,2|2|2|2,0:0|0:0|0:0|0:0,0:0:0:0:
227,98,29009,2,0,L|407:74,1,139,8|0,0:0|0:0,0:0:0:0:
137,180,29464,6,0,P|141:109|217:73,1,139,2|0,0:0|0:0,0:0:0:0:
322,68,29805,2,0,L|320:151,1,69.5,2|0,0:0|0:0,0:0:0:0:
220,186,30032,2,0,L|309:164,1,69.5
483,128,30259,2,0,L|489:40,1,69.5,8|0,0:0|0:0,0:0:0:0:
372,48,30487,6,0,L|449:33,2,69.5,0|2|2,0:0|0:0|0:0,0:0:0:0:
182,138,30827,1,2,0:0:0:0:
276,78,30941,1,2,0:0:0:0:
206,60,31055,1,2,0:0:0:0:
105,87,31168,1,2,0:0:0:0:
220,134,31282,6,0,L|230:47,1,69.5,10|2,0:0|0:0,0:0:0:0:
137,63,31509,2,0,L|121:-12,1,69.5
333,47,31737,2,0,L|435:29,1,69.5,2|0,0:0|0:0,0:0:0:0:
184,180,31964,2,0,L|97:170,1,69.5,2|0,0:0|0:0,0:0:0:0:
329,107,32191,5,8,0:1:0:0:
171,77,32418,2,0,L|180:-12,1,69.5,2|0,0:0|0:0,0:0:0:0:
308,31,32646,2,0,L|159:22,1,139,2|2,0:0|0:0,0:0:0:0:
259,83,32987,1,0,0:0:0:0:
478,100,33100,5,2,0:0:0:0:
255,169,33327,2,0,L|360:152,1,69.5,2|0,0:0|0:0,0:0:0:0:
454,137,33555,2,0,L|357:113,1,69.5,2|0,0:0|0:0,0:0:0:0:
168,130,33782,1,2,0:0:0:0:
451,68,34009,5,10,0:0:0:0:
364,68,34122,1,0,0:0:0:0:
184,56,34237,1,10,0:1:0:0:
273,35,34350,1,0,0:0:0:0:
101,127,34464,1,10,0:0:0:0:
302,98,34691,1,2,0:0:0:0:
209,83,34805,1,2,0:0:0:0:
403,76,34918,6,0,L|401:162,1,69.5,10|0,0:1|0:0,0:0:0:0:
213,179,35146,1,0,0:0:0:0:
444,131,35259,2,0,L|269:108,1,139,2|0,0:0|0:0,0:0:0:0:
412,184,35600,2,0,L|330:172,1,69.5
96,129,35827,5,14,0:0:0:0:
271,93,35941,2,0,L|270:249,1,139,2|0,0:0|0:0,0:0:0:0:
56,255,36282,1,2,0:0:0:0:
228,177,36396,2,0,P|184:129|244:97,1,139,2|0,0:0|0:0,0:0:0:0:
456,85,36737,5,10,0:0:0:0:
281,78,36850,2,0,L|276:237,1,139,2|0,0:0|0:0,0:0:0:0:
497,235,37191,1,10,0:1:0:0:
324,233,37305,2,0,P|373:190|323:149,1,139,2|0,0:0|0:0,0:0:0:0:
39,162,37646,6,0,P|21:76|127:-2,1,208.5,8|0,0:1|0:0,0:0:0:0:
433,29,38100,2,0,L|463:126,2,69.5,8|0|0,0:1|0:0|0:0,0:0:0:0:
62,159,38555,6,0,L|165:141,2,69.5,10|0|0,0:1|0:0|0:0,0:0:0:0:
436,78,39009,1,8,0:1:0:0:
348,55,39123,1,0,0:0:0:0:
232,71,39237,1,0,0:0:0:0:
51,172,39350,1,0,0:0:0:0:
311,164,39464,5,14,0:0:0:0:
228,115,39577,2,0,L|226:34,1,69.5,2|0,0:0|0:0,0:0:0:0:
404,34,39805,2,0,L|334:31,2,69.5,2|2|2,0:0|0:0|0:0,0:0:0:0:
496,50,40146,1,0,0:0:0:0:
309,147,40259,6,0,L|297:55,1,69.5,2|0,0:0|0:0,0:0:0:0:
112,109,40487,1,2,0:0:0:0:
218,74,40600,2,0,L|229:-5,1,69.5,2|0,0:0|0:0,0:0:0:0:
430,92,40827,1,8,0:0:0:0:
238,154,41055,2,0,L|344:138,1,69.5,2|0,0:0|0:0,0:0:0:0:
114,85,41282,6,0,P|43:95|42:169,1,139,2|0,0:0|0:0,0:0:0:0:
259,223,41737,2,0,L|163:202,1,69.5,10|0,0:0|0:0,0:0:0:0:
10,138,41964,1,0,0:0:0:0:
322,118,42191,6,0,L|151:98,1,139,2|0,0:0|0:0,0:0:0:0:
443,62,42532,1,2,0:0:0:0:
320,47,42646,2,0,L|409:40,1,69.5
201,140,42873,2,0,L|301:131,1,69.5
57,151,43100,5,14,0:0:0:0:
161,127,43214,2,0,L|171:35,1,69.5,2|0,0:0|0:0,0:0:0:0:
403,57,43441,1,0,0:0:0:0:
299,68,43555,2,0,L|376:44,2,69.5,2|2|2,0:0|0:0|0:0,0:0:0:0:
110,203,43896,6,0,L|107:109,1,69.5,2|0,0:0|0:0,0:0:0:0:
364,87,44123,1,2,0:0:0:0:
257,85,44237,2,0,L|249:-7,1,69.5,2|0,0:0|0:0,0:0:0:0:
471,102,44464,2,0,P|334:81|227:191,1,271.049987592316,10|0,0:0|0:0,0:0:0:0:
456,206,44918,5,12,0:1:0:0:
359,145,45032,2,0,L|432:134,1,69.5,0|0,0:0|0:1,0:0:0:0:
329,77,45259,1,8,0:1:0:0:
56,206,45373,1,8,0:1:0:0:
164,144,45487,1,8,0:1:0:0:
85,123,45600,1,8,0:1:0:0:
195,72,45714,1,8,0:1:0:0:
465,77,45827,5,8,0:1:0:0:
367,36,45941,1,8,0:1:0:0:
487,17,46055,1,8,0:1:0:0:
249,105,46168,1,8,0:1:0:0:
446,56,46282,1,8,0:1:0:0:
367,36,46395,1,8,0:1:0:0:
143,219,46509,6,0,P|203:153|367:217,1,250.199992364502,14|0,0:0|0:0,0:0:0:0:
237,212,46963,2,0,L|225:97,1,83.3999974548341,10|0,0:1|0:0,0:0:0:0:
99,121,47190,2,0,L|88:16,1,83.3999974548341,2|0,0:0|0:0,0:0:0:0:
217,59,47418,6,0,L|224:-44,1,83.3999974548341,10|0,0:1|0:0,0:0:0:0:
435,66,47645,1,0,0:0:0:0:
236,105,47872,2,0,L|343:81,1,83.3999974548341,10|0,0:1|0:0,0:0:0:0:
109,71,48099,2,0,L|21:79,1,83.3999974548341,10|8,0:0|0:0,0:0:0:0:
300,78,48327,6,0,L|387:63,2,83.3999974548341,14|0|0,0:1|0:0|0:0,0:0:0:0:
94,146,48781,1,8,0:1:0:0:
308,91,49009,2,0,L|186:74,1,83.3999974548341,2|0,0:0|0:0,0:0:0:0:
473,72,49236,6,0,L|484:180,2,83.3999974548341,10|0|0,0:1|0:0|0:0,0:0:0:0:
266,141,49690,1,10,0:1:0:0:
479,69,49918,2,0,L|357:51,1,83.3999974548341,10|8,0:0|0:0,0:0:0:0:
201,84,50145,6,0,L|293:67,2,83.3999974548341,14|0|0,0:1|0:0|0:0,0:0:0:0:
403,152,50599,1,8,0:1:0:0:
191,108,50827,2,0,L|285:93,1,83.3999974548341,2|0,0:0|0:0,0:0:0:0:
51,155,51054,6,0,L|30:46,2,83.3999974548341,10|0|0,0:1|0:0|0:0,0:0:0:0:
266,162,51509,1,8,0:1:0:0:
49,102,51736,1,10,0:0:0:0:
131,67,51849,1,8,0:0:0:0:
416,61,51963,6,0,L|279:49,2,83.3999974548341,14|0|0,0:1|0:0|0:0,0:0:0:0:
216,138,52418,1,8,0:1:0:0:
438,95,52645,2,0,L|333:81,1,83.3999974548341
179,83,52872,6,0,L|270:60,1,83.3999974548341,8|0,0:1|0:0,0:0:0:0:
89,31,53099,2,0,L|6:31,1,83.3999974548341,6|0,0:3|0:0,0:0:0:0:
177,123,53327,2,0,L|183:22,1,83.3999974548341,6|0,0:3|0:0,0:0:0:0:
375,24,53554,1,6,0:3:0:0:
272,18,53668,1,0,0:0:0:0:
455,27,53781,1,6,0:3:0:0:
272,18,53895,1,0,0:0:0:0:
480,76,54008,6,0,P|379:62|364:136,1,166.799994909668,14|8,0:0|3:1,0:0:0:0:
442,130,54348,1,0,0:0:0:0:
240,131,54462,2,0,L|354:98,1,83.3999974548341,10|0,0:0|0:0,0:0:0:0:
205,65,54689,2,0,L|193:-28,1,83.3999974548341,8|0,3:1|0:0,0:0:0:0:
379,33,54917,6,0,L|476:22,1,83.3999974548341,10|0,0:0|0:0,0:0:0:0:
177,133,55144,2,0,L|74:126,1,83.3999974548341,8|0,3:1|0:0,0:0:0:0:
351,64,55371,2,0,L|452:58,1,83.3999974548341,10|0,0:0|0:0,0:0:0:0:
204,98,55598,6,0,L|417:69,1,166.799994909668,10|0,3:1|0:0,0:0:0:0:
249,161,55939,1,0,0:0:0:0:
368,104,56053,2,0,L|383:-9,1,83.3999974548341,8|0,3:1|0:0,0:0:0:0:
147,126,56280,1,10,0:0:0:0:
262,76,56394,1,0,0:0:0:0:
179,66,56508,1,8,3:1:0:0:
96,57,56621,1,0,0:0:0:0:
302,27,56735,6,0,L|396:17,1,83.3999974548341,10|0,0:0|0:0,0:0:0:0:
268,110,56962,2,0,L|356:97,1,83.3999974548341,8|0,3:1|0:0,0:0:0:0:
132,99,57189,2,0,L|25:84,1,83.3999974548341,10|0,0:0|0:0,0:0:0:0:
277,167,57417,6,0,P|186:143|51:243,1,250.199992364502,14|0,3:1|0:0,0:0:0:0:
176,237,57871,2,0,L|192:147,1,83.3999974548341,8|0,3:1|0:0,0:0:0:0:
72,127,58098,2,0,L|60:35,1,83.3999974548341,2|0,0:0|0:0,0:0:0:0:
294,63,58326,6,0,P|181:57|185:199,1,250.199992364502,10|0,3:1|0:0,0:0:0:0:
279,130,58780,2,0,L|370:109,1,83.3999974548341,10|0,3:1|0:0,0:0:0:0:
141,85,59008,2,0,L|28:71,1,83.3999974548341,2|0,0:0|0:0,0:0:0:0:
294,45,59235,2,0,L|406:32,1,83.3999974548341,10|2,3:1|0:0,0:0:0:0:
184,175,59462,5,10,0:0:0:0:
383,112,59689,2,0,L|263:89,1,83.3999974548341,10|0,3:1|0:0,0:0:0:0:
408,32,59917,2,0,L|505:16,1,83.3999974548341,10|0,0:0|0:0,0:0:0:0:
242,93,60144,6,0,P|319:25|456:80,1,250.199992364502,10|0,3:1|0:0,0:0:0:0:
323,119,60598,2,0,L|300:32,1,83.3999974548341,10|0,3:1|0:0,0:0:0:0:
100,118,60826,1,10,0:0:0:0:
210,75,60939,1,8,0:0:0:0:
119,41,61053,1,8,3:1:0:0:
24,75,61167,1,0,0:0:0:0:
288,127,61280,5,14,0:0:0:0:
121,81,61508,2,0,L|222:63,1,83.3999974548341,10|0,3:1|0:0,0:0:0:0:
331,47,61735,2,0,L|209:24,1,83.3999974548341,10|0,0:0|0:0,0:0:0:0:
52,178,61962,6,0,P|202:155|281:237,1,250.199992364502,10|0,3:1|0:0,0:0:0:0:
159,251,62417,2,0,L|148:156,1,83.3999974548341,8|0,3:1|0:0,0:0:0:0:
279,124,62644,2,0,L|291:19,1,83.3999974548341,2|0,0:0|0:0,0:0:0:0:
425,54,62871,2,0,L|318:29,1,83.3999974548341,10|0,0:1|0:0,0:0:0:0:
109,162,63098,5,14,0:0:0:0:
250,103,63326,2,0,L|156:88,1,83.3999974548341,10|0,3:1|0:0,0:0:0:0:
291,50,63553,2,0,L|381:39,1,83.3999974548341,2|0,0:0|0:0,0:0:0:0:
141,187,63780,6,0,P|206:119|389:147,1,250.199992364502,8|0,3:1|0:0,0:0:0:0:
248,179,64235,2,0,L|153:193,1,83.3999974548341,8|0,3:1|0:0,0:0:0:0:
283,222,64462,2,0,L|400:198,1,83.3999974548341,6|4,0:3|0:3,0:0:0:0:
160,120,64689,2,0,L|61:130,1,83.3999974548341,10|0,0:1|0:0,0:0:0:0:
386,88,64918,6,0,L|398:176,2,69.5,6|0|0,0:3|0:0|0:0,0:0:0:0:
229,102,65381,1,4,0:3:0:0:
387,86,65612,1,4,0:3:0:0:
183,167,65844,1,4,0:3:0:0:
387,86,66076,1,4,0:3:0:0:
145,100,66307,1,4,0:3:0:0:
387,86,66539,1,4,0:3:0:0:
67,201,66771,6,0,L|34:121,2,69.5,6|0|4,0:3|0:0|0:3,0:0:0:0:
195,192,67108,1,2,0:0:0:0:
17,163,67220,2,0,L|87:111,2,69.5,6|0|4,0:3|0:0|0:3,0:0:0:0:
142,135,67557,1,2,0:0:0:0:
394,120,67669,6,0,L|402:40,1,69.5,6|0,0:3|0:0,0:0:0:0:
171,52,67894,2,0,L|85:40,1,69.5,6|0,0:3|0:0,0:0:0:0:
286,68,68119,2,0,L|124:57,1,139,6|2,0:3|0:0,0:0:0:0:
243,134,68456,1,2,0:0:0:0:
31,200,68568,6,0,P|113:146|262:159,1,208.5,14|0,0:0|0:0,0:0:0:0:
424,152,69022,2,0,L|433:296,1,139,8|0,0:1|0:0,0:0:0:0:
50,175,69477,5,10,0:0:0:0:
134,162,69590,1,0,0:0:0:0:
311,149,69704,1,2,0:0:0:0:
226,126,69817,1,0,0:0:0:0:
16,93,69932,1,8,0:1:0:0:
314,73,70159,6,0,L|410:62,2,69.5,2|0|0,0:0|0:0|0:0,0:0:0:0:
89,175,70613,2,0,L|183:158,1,69.5,2|0,0:0|0:0,0:0:0:0:
332,123,70841,6,0,L|147:89,1,139,8|2,0:1|0:0,0:0:0:0:
500,95,71295,2,0,L|313:88,2,139,10|10|10,0:0|0:0|0:1,0:0:0:0:
166,170,71977,6,0,L|440:154,1,208.5,2|0,0:0|0:0,0:0:0:0:
276,104,72432,2,0,L|263:20,1,69.5,10|0,0:0|0:0,0:0:0:0:
366,24,72659,2,0,L|386:-48,1,69.5,8|0,0:1|0:0,0:0:0:0:
202,56,72886,6,0,L|50:66,1,139,10|0,0:0|0:0,0:0:0:0:
272,149,73341,2,0,L|171:137,1,69.5,2|0,0:0|0:0,0:0:0:0:
18,119,73568,1,8,0:1:0:0:
340,100,73795,6,0,P|416:110|462:273,1,208.5,10|0,0:0|0:0,0:0:0:0:
356,246,74250,2,0,L|251:252,1,69.5,10|0,0:0|0:0,0:0:0:0:
405,162,74477,2,0,L|483:150,1,69.5,10|0,0:1|0:0,0:0:0:0:
220,100,74704,2,0,L|121:102,1,69.5,2|0,0:0|0:0,0:0:0:0:
333,135,74932,6,0,L|136:127,1,139,10|0,0:0|0:0,0:0:0:0:
295,71,75273,1,0,0:0:0:0:
100,166,75386,1,8,0:1:0:0:
175,120,75500,1,0,0:0:0:0:
44,95,75613,1,0,0:0:0:0:
136,40,75727,1,0,0:0:0:0:
431,74,75841,6,0,P|336:52|259:165,1,208.5,14|0,0:0|0:0,0:0:0:0:
83,250,76295,2,0,L|80:101,1,139,10|0,0:1|0:0,0:0:0:0:
474,107,76750,5,10,0:0:0:0:
389,89,76863,1,0,0:0:0:0:
200,74,76977,1,10,0:0:0:0:
286,60,77090,1,0,0:0:0:0:
476,103,77204,1,10,0:1:0:0:
190,222,77432,1,2,0:0:0:0:
181,152,77545,1,0,0:0:0:0:
173,83,77659,5,0,0:0:0:0:
403,149,77886,2,0,L|309:132,1,69.5,2|0,0:0|0:0,0:0:0:0:
161,114,78114,6,0,L|346:80,1,139,10|2,0:1|0:0,0:0:0:0:
12,95,78568,2,0,L|199:88,2,139,10|0|10,0:0|0:0|0:1,0:0:0:0:
346,170,79250,6,0,L|72:154,1,208.5,2|0,0:0|0:0,0:0:0:0:
236,104,79705,2,0,L|249:20,1,69.5,2|0,0:0|0:0,0:0:0:0:
146,24,79932,2,0,L|126:-48,1,69.5,8|0,0:1|0:0,0:0:0:0:
310,56,80159,6,0,L|462:66,1,139,10|0,0:0|0:0,0:0:0:0:
240,149,80614,2,0,L|341:137,1,69.5,2|0,0:0|0:0,0:0:0:0:
494,119,80841,1,8,0:1:0:0:
145,202,81068,6,0,P|226:158|410:216,1,271.049987592316,2|0,0:0|0:0,0:0:0:0:
279,219,81523,2,0,L|268:108,1,69.5,2|0,0:0|0:0,0:0:0:0:
73,122,81750,1,8,0:1:0:0:
247,70,81977,2,0,L|145:60,1,69.5,2|0,0:0|0:0,0:0:0:0:
392,112,82204,5,10,0:0:0:0:
204,157,82432,2,0,L|305:137,1,69.5,10|0,0:0|0:0,0:0:0:0:
459,114,82659,1,10,0:1:0:0:
358,72,82773,1,0,0:0:0:0:
149,99,82886,1,2,0:0:0:0:
444,75,83113,5,0,0:0:0:0:
260,139,83341,2,0,L|363:130,1,69.5,2|0,0:0|0:0,0:0:0:0:
120,93,83568,2,0,L|26:94,1,69.5,10|0,0:1|0:0,0:0:0:0:
234,57,83795,2,0,L|131:49,1,69.5,2|0,0:0|0:0,0:0:0:0:
387,107,84023,5,10,0:0:0:0:
209,98,84250,2,0,L|302:93,1,69.5,2|0,0:0|0:0,0:0:0:0:
63,138,84477,1,10,0:1:0:0:
411,138,84704,6,0,L|415:297,1,139,2|0,0:0|0:0,0:0:0:0:
188,234,85159,2,0,L|311:217,1,69.5,2|0,0:0|0:0,0:0:0:0:
80,179,85386,2,0,L|77:81,1,69.5,8|0,0:1|0:0,0:0:0:0:
311,62,85613,1,2,0:0:0:0:
207,108,85727,6,0,L|302:87,1,69.5,2|8,0:0|0:1,0:0:0:0:
69,178,85954,1,8,0:1:0:0:
183,147,86068,1,8,0:1:0:0:
95,98,86182,1,8,0:1:0:0:
300,92,86295,1,10,0:0:0:0:
481,63,86409,1,0,0:0:0:0:
265,39,86523,1,0,0:0:0:0:
436,0,86636,1,0,0:0:0:0:
179,154,86750,5,14,0:0:0:0:
256,192,86863,12,0,87545,0:0:0:0:
