osu file format v14

[General]
AudioFilename: audio.mp3
AudioLeadIn: 0
PreviewTime: 46395
Countdown: 0
SampleSet: Soft
StackLeniency: 0.7
Mode: 2
LetterboxInBreaks: 0
WidescreenStoryboard: 1

[Editor]
DistanceSpacing: 1.4
BeatDivisor: 4
GridSize: 32
TimelineZoom: 2.1

[Metadata]
Title:Gift (TV Size)
TitleUnicode:ギフト (TV Size)
Artist:Oishi Masayoshi
ArtistUnicode:オーイシマサヨシ
Creator:-Rustyy
Version:Mochi's Rain
Source:お隣の天使様にいつの間にか駄目人間にされていた件
Tags:male vocals vocalist Project No.9 椎名 真昼 Mahiru Shiina The Angel Next Door Spoils Me Rotten Otonari no Tenshi-sama ni Itsunomanika Dame Ningen ni Sareteita Ken anime opening pop jpop japanese Secre chickenbible Mochi - -Luminate [_-Kukkai-_] Kukkai -Hex-
BeatmapID:4094106
BeatmapSetID:1971609

[Difficulty]
HPDrainRate:5
CircleSize:3.5
OverallDifficulty:9
ApproachRate:9
SliderMultiplier:1.29
SliderTickRate:1

[Events]
//Background and Video events
0,0,"gift.jpg",0,0
//Break Periods
//Storyboard Layer 0 (Background)
//Storyboard Layer 1 (Fail)
//Storyboard Layer 2 (Pass)
//Storyboard Layer 3 (Foreground)
//Storyboard Layer 4 (Overlay)
//Storyboard Sound Samples

[TimingPoints]
618,227.272727272727,4,2,2,48,1,0
1299,227.272727272727,4,2,2,48,1,0
6753,-100,4,2,1,48,0,0
8117,-100,4,2,1,48,0,0
8571,-100,4,2,1,35,0,0
12191,227.272727272727,4,2,2,33,1,0
12191,-100,4,2,2,33,0,0
19009,-100,4,2,2,40,0,0
23327,-100,4,2,2,45,0,0
24463,-100,4,2,2,45,0,0
24918,-100,4,2,1,65,0,0
25372,-100,4,2,1,65,0,0
25827,-100,4,2,1,65,0,0
28554,-100,4,2,2,58,0,0
32190,-100,4,2,1,58,0,0
34009,-100,4,2,1,66,0,0
39463,-100,4,2,2,55,0,0
44463,-100,4,2,2,55,0,0
44918,-100,4,2,1,70,0,0
45031,-100,4,2,1,70,0,0
45259,-100,4,2,1,35,0,0
45372,-100,4,2,1,40,0,0
45486,-100,4,2,1,45,0,0
45600,-100,4,2,1,50,0,0
45713,-100,4,2,1,55,0,0
45827,-100,4,2,1,60,0,0
45940,-100,4,2,1,65,0,0
46054,-100,4,2,1,70,0,0
46509,227.272727272727,4,2,1,80,1,1
46509,-100,4,2,1,80,0,1
53895,-100,4,2,1,80,0,0
54008,227.272727272727,4,2,1,85,1,1
54008,-100,4,2,1,85,0,1
64918,231.660231660232,4,2,2,48,1,0
66771,224.719101123595,4,2,1,48,1,0
68568,227.272727272727,4,2,1,60,1,0
68568,-100,4,2,1,60,0,0
75840,-100,4,2,1,65,0,0
81067,-100,4,2,1,65,0,0
81522,-100,4,2,1,65,0,0
84704,-100,4,2,1,70,0,0

[Colours]
Combo1 : 241,219,141
Combo2 : 236,183,83
Combo3 : 155,0,0

[HitObjects]
334,150,1299,5,6,0:0:0:0:
270,151,1412,1,2,0:0:0:0:
450,73,1639,1,0,0:0:0:0:
269,239,1753,1,10,0:0:0:0:
256,239,1867,1,2,0:0:0:0:
449,279,2094,6,0,L|463:140,1,129,2|2,0:0|0:0,0:0:0:0:
281,62,2435,2,0,L|134:62,1,129,2|8,0:0|0:0,0:0:0:0:
281,106,2889,2,2,L|291:190,1,64.5
106,134,3117,6,0,L|89:265,1,129,2|0,0:0|0:0,0:0:0:0:
270,218,3571,2,0,L|417:218,1,129,10|0,0:0|0:0,0:0:0:0:
399,218,3912,1,0,0:0:0:0:
218,107,4026,6,0,L|84:107,1,129,2|2,0:0|0:0,0:0:0:0:
269,276,4480,1,10,0:0:0:0:
282,278,4594,1,2,0:0:0:0:
165,197,4708,1,2,0:0:0:0:
152,198,4821,1,2,0:0:0:0:
346,88,4935,5,14,0:0:0:0:
410,92,5048,1,2,0:0:0:0:
281,280,5275,1,0,0:0:0:0:
462,284,5389,1,8,0:0:0:0:
475,284,5503,1,2,0:0:0:0:
295,328,5730,6,0,L|277:186,1,129,2|2,0:0|0:0,0:0:0:0:
461,160,6071,2,0,L|478:20,1,129,2|2,0:0|0:1,0:0:0:0:
347,30,6526,1,8,0:3:0:0:
51,50,6753,6,0,L|35:183,1,129,10|0,0:1|0:0,0:0:0:0:
216,91,7207,2,0,L|216:231,1,129,2|0,0:0|0:0,0:0:0:0:
397,195,7662,6,0,L|413:325,1,129,2|0,0:0|0:0,0:0:0:0:
232,164,8116,2,0,L|104:164,1,129,2|0,0:0|0:0,0:0:0:0:
426,28,8571,6,0,L|439:159,1,129,10|8,0:0|0:3,0:0:0:0:
258,75,9026,1,4,0:3:0:0:
451,51,9367,1,8,0:3:0:0:
335,243,9480,5,4,0:3:0:0:
464,243,9708,1,8,0:3:0:0:
477,61,9821,1,4,0:3:0:0:
295,322,10048,1,4,0:3:0:0:
411,319,10161,1,8,0:3:0:0:
113,196,10389,6,0,L|96:64,1,129,4|8,0:3|0:3,0:0:0:0:
278,206,10844,1,4,0:3:0:0:
342,206,10957,1,8,0:3:0:0:
278,206,11071,1,8,0:3:0:0:
97,57,11298,5,4,0:3:0:0:
278,226,11526,1,0,0:0:0:0:
188,159,11639,1,4,0:3:0:0:
317,89,11866,1,4,0:3:0:0:
330,90,11979,1,8,0:3:0:0:
41,36,12191,6,0,L|24:171,1,129,6|0,0:0|0:0,0:0:0:0:
154,270,12645,1,10,0:0:0:0:
335,328,12872,2,0,P|351:235|209:181,1,258,2|0,0:0|0:0,0:0:0:0:
92,106,13554,1,10,0:0:0:0:
273,13,13782,6,0,P|412:77|414:182,1,258,2|0,0:0|0:0,0:0:0:0:
291,188,14463,1,8,0:0:0:0:
110,55,14690,2,0,P|39:153|143:180,1,258,2|2,0:0|0:0,0:0:0:0:
313,186,15372,1,8,0:0:0:0:
132,304,15600,5,2,0:0:0:0:
390,68,16054,2,0,L|390:207,1,129,2|8,0:0|0:0,0:0:0:0:
209,43,16509,2,0,P|89:93|115:212,1,258,2|0,0:0|0:0,0:0:0:0:
413,120,17418,6,0,P|388:237|259:257,1,258,2|2,0:0|0:0,0:0:0:0:
135,249,18100,1,8,0:0:0:0:
425,342,18327,2,0,P|482:223|406:118,1,258,2|0,0:0|0:0,0:0:0:0:
239,83,19009,2,0,L|368:83,1,129,8|0,0:1|0:0,0:0:0:0:
72,139,19463,6,0,P|49:261|156:258,1,258,2|0,0:0|0:0,0:0:0:0:
331,78,20145,2,0,P|435:118|461:253,1,258,2|2,0:0|0:0,0:0:0:0:
332,271,20827,1,2,0:0:0:0:
151,241,21055,5,2,0:0:0:0:
408,56,21509,2,0,L|261:56,1,129,0|2,0:0|0:0,0:0:0:0:
460,159,21963,2,0,P|423:290|312:297,1,258,2|0,0:0|0:0,0:0:0:0:
447,65,22645,1,2,0:0:0:0:
157,111,22872,5,6,0:0:0:0:
416,130,23327,2,0,L|417:281,1,129,2|0,0:0|0:0,0:0:0:0:
119,323,23782,2,0,P|54:204|148:163,1,258,4|8,0:0|0:3,0:0:0:0:
316,58,24463,2,0,P|389:120|389:235,1,193.5,4|0,0:3|0:0,0:0:0:0:
202,225,24918,6,0,L|186:354,1,129,8|0,0:1|0:0,0:0:0:0:
367,226,25372,2,0,L|385:374,1,129,8|0,0:1|0:0,0:0:0:0:
85,81,25827,6,0,L|64:228,1,129,8|2,0:1|0:0,0:0:0:0:
248,107,26282,1,8,0:1:0:0:
119,106,26509,1,2,0:0:0:0:
415,114,26736,6,0,L|431:246,1,129,14|8,0:0|0:3,0:0:0:0:
250,281,27190,1,4,0:3:0:0:
224,281,27304,1,8,0:3:0:0:
405,138,27531,1,0,0:0:0:0:
418,138,27645,5,4,0:3:0:0:
392,81,27759,1,0,0:0:0:0:
328,85,27872,1,0,0:0:0:0:
199,288,28100,1,4,0:3:0:0:
374,280,28214,1,8,0:1:0:0:
387,280,28327,1,4,0:3:0:0:
89,45,28555,5,2,0:0:0:0:
63,86,28668,1,2,0:0:0:0:
93,128,28782,1,2,0:0:0:0:
157,127,28895,1,2,0:0:0:0:
338,200,29009,2,0,L|353:330,1,129,8|0,0:0|0:0,0:0:0:0:
172,160,29463,6,0,L|153:28,1,129,2|0,0:0|0:0,0:0:0:0:
271,46,29804,2,0,L|402:46,1,129,2|0,0:0|0:0,0:0:0:0:
102,135,30259,1,8,0:0:0:0:
282,157,30486,5,0,0:0:0:0:
347,157,30600,1,2,0:0:0:0:
282,157,30713,1,2,0:0:0:0:
165,276,30827,1,2,0:0:0:0:
165,276,30941,1,2,0:0:0:0:
281,341,31054,1,2,0:0:0:0:
281,341,31168,1,2,0:0:0:0:
100,50,31282,5,10,0:0:0:0:
36,48,31395,1,2,0:0:0:0:
217,129,31622,1,0,0:0:0:0:
282,130,31736,1,2,0:0:0:0:
101,200,31963,1,2,0:0:0:0:
397,304,32190,5,8,0:1:0:0:
216,60,32418,1,2,0:0:0:0:
345,61,32645,1,2,0:0:0:0:
474,62,32872,1,2,0:0:0:0:
176,212,33100,5,2,0:0:0:0:
305,215,33327,1,2,0:0:0:0:
176,212,33554,1,2,0:0:0:0:
46,207,33782,1,2,0:0:0:0:
433,283,34009,5,10,0:0:0:0:
446,283,34122,1,0,0:0:0:0:
265,116,34236,2,0,L|199:116,1,64.5,10|0,0:1|0:0,0:0:0:0:
317,49,34463,1,10,0:0:0:0:
188,269,34691,1,2,0:0:0:0:
175,269,34804,1,2,0:0:0:0:
356,220,34918,6,0,L|486:220,1,129,10|0,0:1|0:0,0:0:0:0:
368,178,35259,2,0,P|336:97|423:86,1,193.5,2|0,0:0|0:0,0:0:0:0:
106,267,35827,5,14,0:0:0:0:
42,203,35940,2,0,L|175:203,1,129,2|0,0:0|0:0,0:0:0:0:
367,98,36282,1,2,0:0:0:0:
367,98,36395,2,0,L|226:98,1,129,2|0,0:0|0:0,0:0:0:0:
419,342,36736,5,10,0:0:0:0:
484,266,36850,2,0,L|351:266,1,129,2|0,0:0|0:0,0:0:0:0:
174,148,37191,1,10,0:1:0:0:
238,147,37304,2,0,L|373:147,1,129,2|0,0:0|0:0,0:0:0:0:
153,226,37645,6,0,L|134:356,1,129,8|0,0:1|0:0,0:0:0:0:
315,218,38100,2,0,L|333:84,1,129,8|0,0:1|0:0,0:0:0:0:
152,49,38554,6,0,L|132:184,1,129,10|0,0:1|0:0,0:0:0:0:
314,186,39009,2,0,L|454:186,1,129,8|0,0:1|0:0,0:0:0:0:
128,144,39463,5,14,0:0:0:0:
64,145,39576,1,2,0:0:0:0:
244,67,39803,1,2,0:0:0:0:
63,233,39917,1,2,0:0:0:0:
50,234,40031,1,2,0:0:0:0:
230,297,40258,6,0,L|360:297,1,129,2|2,0:0|0:0,0:0:0:0:
178,211,40599,2,8,L|160:65,1,129,2|8,0:0|0:0,0:0:0:0:
344,270,41055,1,2,0:0:0:0:
49,134,41281,6,0,L|32:265,1,129,2|0,0:0|0:0,0:0:0:0:
213,218,41735,2,0,L|360:218,1,129,10|0,0:0|0:0,0:0:0:0:
277,217,42076,1,0,0:0:0:0:
96,181,42190,6,0,L|79:47,1,129,2|0,0:0|0:0,0:0:0:0:
261,309,42644,1,0,0:0:0:0:
274,311,42758,1,0,0:0:0:0:
157,230,42872,1,2,0:0:0:0:
144,231,42985,1,0,0:0:0:0:
327,87,43100,5,14,0:0:0:0:
391,87,43213,1,2,0:0:0:0:
262,153,43440,1,0,0:0:0:0:
437,162,43554,1,2,0:0:0:0:
492,164,43668,1,2,0:0:0:0:
437,162,43781,1,2,0:0:0:0:
241,314,43895,5,2,0:0:0:0:
424,74,44122,1,2,0:0:0:0:
450,72,44236,1,2,0:0:0:0:
159,328,44464,2,0,L|40:268,1,129,10|0,0:0|0:0,0:0:0:0:
341,130,44919,6,0,L|469:130,1,129,12|0,0:1|0:1,0:0:0:0:
418,62,45260,1,8,0:1:0:0:
225,306,45373,1,8,0:1:0:0:
160,308,45487,1,8,0:1:0:0:
160,308,45601,1,8,0:1:0:0:
225,306,45714,1,8,0:1:0:0:
406,296,45828,5,8,0:1:0:0:
432,297,45940,1,8,0:1:0:0:
236,114,46055,1,8,0:1:0:0:
184,112,46169,1,8,0:1:0:0:
375,80,46281,1,8,0:1:0:0:
427,82,46396,1,8,0:1:0:0:
196,216,46509,6,0,L|178:343,1,129,14|0,0:0|0:0,0:0:0:0:
307,91,46963,1,10,0:1:0:0:
126,94,47190,1,2,0:0:0:0:
424,114,47418,6,0,L|439:241,1,129,10|0,0:1|0:0,0:0:0:0:
259,119,47872,1,10,0:1:0:0:
388,114,48099,1,10,0:0:0:0:
388,114,48213,1,8,0:0:0:0:
194,324,48327,6,0,L|176:185,1,129,14|0,0:1|0:0,0:0:0:0:
358,120,48781,2,0,L|496:120,1,129,8|2,0:1|0:0,0:0:0:0:
189,141,49236,6,0,L|55:141,1,129,10|0,0:1|0:0,0:0:0:0:
240,185,49690,1,10,0:1:0:0:
111,271,49918,1,10,0:0:0:0:
175,270,50031,1,8,0:0:0:0:
369,325,50145,6,0,L|407:190,1,129,14|0,0:1|0:0,0:0:0:0:
224,155,50599,2,0,L|368:155,1,129,8|2,0:1|0:0,0:0:0:0:
55,35,51054,6,0,L|40:170,1,129,10|0,0:1|0:0,0:0:0:0:
222,164,51509,1,8,0:1:0:0:
93,343,51736,2,0,L|93:269,1,64.5,10|8,0:0|0:0,0:0:0:0:
287,331,51963,6,0,L|418:331,1,129,14|0,0:1|0:0,0:0:0:0:
235,216,52418,1,8,0:1:0:0:
106,215,52645,1,0,0:0:0:0:
402,167,52872,5,8,0:1:0:0:
273,169,53099,1,6,0:3:0:0:
402,167,53327,1,6,0:3:0:0:
221,97,53554,1,6,0:3:0:0:
402,56,53781,1,6,0:3:0:0:
106,283,54008,6,0,L|95:354,1,64.5,14|0,0:0|0:0,0:0:0:0:
214,279,54236,2,0,L|281:305,1,64.5,8|0,3:1|0:0,0:0:0:0:
93,54,54463,2,0,L|65:180,1,129,10|8,0:0|3:1,0:0:0:0:
361,76,54917,5,10,0:0:0:0:
232,68,55144,1,8,3:1:0:0:
284,69,55259,1,0,0:0:0:0:
399,222,55371,1,10,0:0:0:0:
347,225,55485,1,0,0:0:0:0:
155,215,55598,6,0,L|132:344,1,129,10|0,3:1|0:0,0:0:0:0:
313,95,56053,2,0,L|397:95,1,64.5,8|0,3:1|0:0,0:0:0:0:
260,149,56281,2,0,L|128:149,1,129,10|8,0:0|3:1,0:0:0:0:
131,149,56622,1,0,0:0:0:0:
312,278,56736,6,0,L|442:278,1,129,10|8,0:0|3:1,0:0:0:0:
260,331,57190,2,0,L|188:331,1,64.5,10|0,0:0|0:0,0:0:0:0:
377,52,57417,6,0,P|422:91|377:110,1,129,14|0,3:1|0:0,0:0:0:0:
198,70,57872,2,0,L|178:134,1,64.5,8|0,3:1|0:0,0:0:0:0:
294,156,58098,2,0,L|315:222,1,64.5,2|0,0:0|0:0,0:0:0:0:
118,244,58326,6,0,P|73:283|118:302,1,129,10|0,3:1|0:0,0:0:0:0:
298,102,58781,2,0,L|370:102,1,64.5,10|0,3:1|0:0,0:0:0:0:
186,143,59007,1,2,0:0:0:0:
57,92,59235,1,10,3:1:0:0:
121,94,59349,1,2,0:0:0:0:
315,249,59463,6,0,L|315:318,1,64.5,10|0,0:0|0:0,0:0:0:0:
198,295,59690,2,0,L|142:248,1,64.5,10|0,3:1|0:0,0:0:0:0:
266,177,59918,2,0,L|320:131,1,64.5,10|0,0:0|0:0,0:0:0:0:
122,28,60145,6,0,L|103:157,1,129,10|0,3:1|0:0,0:0:0:0:
283,299,60599,1,10,3:1:0:0:
103,233,60826,2,0,L|34:232,2,64.5,10|8|8,0:0|0:0|3:1,0:0:0:0:
401,150,61281,6,0,L|410:215,1,64.5,14|0,0:0|0:0,0:0:0:0:
292,166,61507,2,0,L|292:247,1,64.5,10|0,3:1|0:0,0:0:0:0:
175,100,61736,2,0,L|165:168,1,64.5,10|0,0:0|0:0,0:0:0:0:
360,343,61963,6,0,L|378:213,1,129,10|0,3:1|0:0,0:0:0:0:
196,260,62418,2,0,L|184:178,1,64.5,8|0,3:1|0:0,0:0:0:0:
367,106,62644,1,2,0:0:0:0:
393,107,62871,1,10,0:1:0:0:
95,68,63099,6,0,L|85:135,1,64.5,14|0,0:0|0:0,0:0:0:0:
203,98,63327,2,0,L|213:171,1,64.5,10|0,3:1|0:0,0:0:0:0:
95,294,63554,2,0,L|29:294,1,64.5,2|0,0:0|0:0,0:0:0:0:
238,171,63781,6,0,L|369:171,1,129,8|0,3:1|0:0,0:0:0:0:
186,142,64236,2,0,L|176:77,1,64.5,8|0,3:1|0:0,0:0:0:0:
358,88,64463,2,0,L|427:88,2,64.5,6|4|10,0:3|0:3|0:1,0:0:0:0:
53,330,64918,5,6,0:3:0:0:
182,330,65149,1,4,0:3:0:0:
53,254,65381,1,4,0:3:0:0:
181,253,65612,1,4,0:3:0:0:
478,119,65844,5,4,0:3:0:0:
349,121,66076,1,4,0:3:0:0:
478,119,66307,1,4,0:3:0:0:
349,121,66539,1,4,0:3:0:0:
43,114,66771,6,0,L|22:261,1,129,6|4,0:3|0:3,0:0:0:0:
142,297,67108,1,2,0:0:0:0:
322,210,67220,2,0,L|340:78,1,129,6|4,0:3|0:3,0:0:0:0:
222,80,67557,1,2,0:0:0:0:
402,234,67669,6,0,L|415:312,1,64.5,6|0,0:3|0:0,0:0:0:0:
296,240,67894,2,0,L|281:322,1,64.5,6|0,0:3|0:0,0:0:0:0:
466,40,68119,2,0,L|484:170,1,129,6|2,0:3|0:0,0:0:0:0:
165,328,68568,6,0,P|78:265|181:211,1,258,14|8,0:0|0:1,0:0:0:0:
380,72,69477,1,10,0:0:0:0:
251,71,69704,1,2,0:0:0:0:
431,175,69931,1,8,0:1:0:0:
135,167,70158,6,0,L|135:316,1,129,2|8,0:0|0:0,0:0:0:0:
316,92,70613,1,2,0:0:0:0:
187,248,70840,1,8,0:1:0:0:
368,291,71068,1,2,0:0:0:0:
72,104,71295,2,0,L|215:103,2,129,10|10|10,0:0|0:0|0:1,0:0:0:0:
370,138,71977,6,0,P|357:248|209:279,1,258,2|10,0:0|0:0,0:0:0:0:
359,346,72658,1,8,0:1:0:0:
178,75,72886,2,0,L|158:210,1,129,10|0,0:0|0:0,0:0:0:0:
341,102,73340,2,0,L|359:230,1,129,2|8,0:0|0:1,0:0:0:0:
48,207,73795,6,0,L|28:347,1,129,10|0,0:0|0:0,0:0:0:0:
159,327,74249,1,10,0:0:0:0:
340,330,74477,1,10,0:1:0:0:
159,248,74704,1,2,0:0:0:0:
455,107,74931,6,0,L|473:238,1,129,10|0,0:0|0:0,0:0:0:0:
291,322,75386,2,0,L|157:322,1,129,8|0,0:1|0:0,0:0:0:0:
458,200,75840,6,0,P|481:91|360:51,1,258,14|10,0:0|0:1,0:0:0:0:
157,137,76749,1,10,0:0:0:0:
287,136,76977,1,10,0:0:0:0:
106,254,77204,1,10,0:1:0:0:
402,144,77431,6,0,L|402:289,1,129,2|8,0:0|0:0,0:0:0:0:
221,157,77886,1,2,0:0:0:0:
350,161,78113,1,10,0:1:0:0:
170,308,78340,1,2,0:0:0:0:
465,76,78567,2,0,L|322:75,2,129,10|0|10,0:0|0:0|0:1,0:0:0:0:
168,328,79249,6,0,P|67:264|136:158,1,258,2|2,0:0|0:0,0:0:0:0:
302,293,79931,1,8,0:1:0:0:
122,173,80158,2,0,P|129:83|271:67,1,258,10|2,0:0|0:0,0:0:0:0:
91,337,80840,1,8,0:1:0:0:
387,134,81067,6,0,L|406:271,1,129,2|0,0:0|0:0,0:0:0:0:
275,317,81522,1,2,0:0:0:0:
455,317,81749,1,8,0:1:0:0:
326,316,81977,1,2,0:0:0:0:
36,57,82204,5,10,0:0:0:0:
165,52,82431,1,10,0:0:0:0:
36,57,82658,1,10,0:1:0:0:
347,211,82886,6,0,L|367:355,1,129,2|0,0:0|0:0,0:0:0:0:
184,220,83341,1,2,0:0:0:0:
313,217,83568,1,10,0:1:0:0:
132,148,83795,1,2,0:0:0:0:
430,123,84023,5,10,0:0:0:0:
301,123,84250,1,2,0:0:0:0:
172,125,84477,1,10,0:1:0:0:
468,328,84704,6,0,L|468:187,1,129,2|8,0:0|0:0,0:0:0:0:
288,258,85158,1,2,0:0:0:0:
418,121,85386,1,8,0:1:0:0:
122,114,85613,1,2,0:0:0:0:
109,119,85727,1,2,0:0:0:0:
314,208,85840,5,8,0:1:0:0:
366,207,85954,1,8,0:1:0:0:
161,267,86067,1,8,0:1:0:0:
109,265,86181,1,8,0:1:0:0:
329,309,86295,2,0,L|354:162,1,129,10|0,0:0|0:0,0:0:0:0:
55,66,86749,5,14,0:0:0:0:
