osu file format v14

[General]
AudioFilename: audio.mp3
AudioLeadIn: 0
PreviewTime: 127986
Countdown: 0
SampleSet: Soft
StackLeniency: 0.7
Mode: 0
LetterboxInBreaks: 0
WidescreenStoryboard: 1

[Editor]
DistanceSpacing: 0.8
BeatDivisor: 4
GridSize: 4
TimelineZoom: 2.000006

[Metadata]
Title:Yuudachi Houteishiki
TitleUnicode:夕立方程式
Artist:Oikura Sodachi (CV: Inoue Marina)
ArtistUnicode:老倉育 (CV: 井上麻里奈)
Creator:Alexsander
Version:Normal
Source:終物語
Tags:Owarimonogatari op 3 dvd blu-ray lost Full Version Anime Japanese
BeatmapID:1965618
BeatmapSetID:941228

[Difficulty]
HPDrainRate:4
CircleSize:3.7
OverallDifficulty:4
ApproachRate:5.2
SliderMultiplier:1.2
SliderTickRate:1

[Events]
//Background and Video events
0,0,"Sodachi.jpg",0,0
//Break Periods
//Storyboard Layer 0 (Background)
//Storyboard Layer 1 (Fail)
//Storyboard Layer 2 (Pass)
//Storyboard Layer 3 (Foreground)
//Storyboard Sound Samples

[TimingPoints]
1658,468.75,4,2,1,40,1,0
1658,-100,4,2,1,40,0,0
16189,-100,4,2,1,40,0,0
16540,-100,4,2,1,5,0,0
16658,-100,4,2,1,60,0,0
31658,-100,4,2,1,50,0,0
39158,-100,4,2,1,45,0,0
46658,-100,4,2,1,80,0,1
80408,-100,4,2,1,40,0,0
81345,-100,4,2,1,5,0,0
81579,-100,4,2,1,40,0,0
82283,-100,4,2,1,50,0,0
97283,-100,4,2,1,60,0,0
112283,-100,4,2,1,50,0,0
119783,-100,4,2,1,45,0,0
126345,-100,4,2,1,30,0,0
127283,-100,4,2,1,40,0,0
128689,-100,4,2,1,50,0,0
129158,-100,4,2,1,80,0,1
162908,-100,4,2,1,70,0,0
185408,-100,4,2,1,40,0,0
192908,-100,4,2,1,70,0,0
200408,-100,4,2,1,80,0,1
226658,-100,4,2,1,40,0,0
241658,-100,4,2,1,50,0,0
249158,-100,4,2,1,40,0,0
256658,-100,4,2,1,55,0,0
259939,-100,4,2,1,40,0,0
262048,-100,4,2,1,30,0,0
263689,-100,4,2,1,20,0,0
265564,-100,4,2,1,15,0,0
266033,-100,4,2,1,15,0,0
267908,-100,4,2,1,10,0,0
271189,-100,4,2,1,10,0,0
271658,-100,4,2,1,10,0,0

[Colours]
Combo1 : 151,255,151
Combo2 : 254,218,222
Combo3 : 252,183,80

[HitObjects]
89,328,1658,6,0,P|141:299|220:290,1,120,2|0,0:1|0:0,0:0:0:0:
276,231,2595,2,0,L|263:105,1,120,2|0,0:0|0:0,0:0:0:0:
226,81,3298,2,0,B|288:93|288:93|344:70,1,120,2|2,0:0|0:0,0:0:0:0:
490,191,4704,1,0,0:0:0:0:
490,191,4939,2,0,P|457:201|434:222,1,60,0|0,0:0|0:0,0:0:0:0:
403,251,5408,6,0,P|347:231|279:253,1,120,2|2,0:0|0:0,0:0:0:0:
227,318,6345,1,0,0:0:0:0:
227,318,6579,2,0,L|150:317,1,60,2|0,0:0|0:0,0:0:0:0:
123,295,7048,2,0,P|106:247|108:169,1,120,2|0,0:0|0:0,0:0:0:0:
178,115,7986,1,0,0:0:0:0:
264,156,8454,2,0,P|272:122|268:79,2,60,0|0|0,0:0|0:0|0:0,0:0:0:0:
258,204,9158,6,0,L|268:332,1,120,2|0,0:1|0:0,0:0:0:0:
285,368,9861,1,2,0:0:0:0:
370,325,10329,2,0,L|437:307,1,60,0|0,0:0|0:0,0:0:0:0:
475,313,10798,2,0,P|444:270|453:197,1,120,2|2,0:0|0:0,0:0:0:0:
427,111,11736,2,0,L|286:128,1,120,2|0,0:0|0:0,0:0:0:0:
265,148,12439,1,0,0:0:0:0:
265,148,12673,6,0,L|121:134,1,120,0|0,0:0|0:0,0:0:0:0:
56,100,13611,2,0,L|85:30,2,60,0|2|0,0:0|0:0|0:0,0:0:0:0:
36,144,14314,1,0,0:0:0:0:
36,144,14548,2,0,L|81:320,1,180,2|0,0:0|0:0,0:0:0:0:
161,369,15720,1,2,0:0:0:0:
307,244,16658,6,0,P|251:257|179:226,1,120,4|8,3:2|0:0,0:0:0:0:
155,149,17595,1,0,3:0:0:0:
201,65,18064,1,8,0:0:0:0:
201,65,18298,2,0,P|257:52|329:83,1,120,2|2,0:0|0:0,0:0:0:0:
347,107,19001,1,0,0:0:0:0:
423,49,19470,1,0,3:0:0:0:
423,49,19704,2,0,L|440:115,1,60,2|8,0:0|0:0,0:0:0:0:
458,150,20173,6,0,L|444:276,1,120,0|0,0:0|0:0,0:0:0:0:
431,315,20876,1,8,0:0:0:0:
343,274,21345,1,0,3:0:0:0:
343,274,21579,2,0,P|308:279|273:274,1,60,2|8,0:0|0:0,0:0:0:0:
239,256,22048,2,0,B|145:213|153:290|43:242,1,180,2|8,0:0|0:0,0:0:0:0:
7,172,23220,1,0,3:0:0:0:
74,104,23689,1,8,0:0:0:0:
15,28,24158,6,0,P|73:5|136:31,1,120,2|8,3:2|0:0,0:0:0:0:
154,60,24861,1,2,0:0:0:0:
243,26,25329,2,0,P|278:21|313:24,1,60
339,52,25798,2,0,P|402:66|468:35,1,120,2|2,0:0|0:0,0:0:0:0:
486,137,26736,2,0,L|471:258,1,120,2|2,0:0|0:0,0:0:0:0:
457,302,27439,1,8,0:0:0:0:
418,330,27673,6,0,L|279:309,1,120,2|0,0:0|0:0,0:0:0:0:
269,274,28376,2,0,P|297:228|272:154,1,120,8|0,0:0|3:0,0:0:0:0:
231,84,29314,2,0,P|188:106|155:114,1,60,8|2,0:0|0:0,0:0:0:0:
132,127,29783,2,0,B|76:101|73:140|3:109,2,120,0|8|8,3:0|0:0|0:0,0:0:0:0:
202,191,31189,2,0,L|282:190,1,60,0|8,1:0|3:2,0:0:0:0:
308,179,31658,6,0,P|367:163|433:198,1,120,6|8,0:0|0:0,0:0:0:0:
456,216,32361,2,0,L|453:95,1,120,2|0,0:0|3:0,0:0:0:0:
425,56,33064,1,8,0:0:0:0:
382,33,33298,2,0,P|323:15|252:54,1,120,2|0,0:0|0:0,0:0:0:0:
184,87,34236,1,2,0:0:0:0:
96,47,34704,1,2,3:2:0:0:
20,105,35173,6,0,P|43:151|56:225,1,120,2|0,0:0|0:0,0:0:0:0:
25,254,35876,1,8,0:0:0:0:
0,293,36111,2,0,P|58:274|124:295,1,120,2|2,0:0|3:2,0:0:0:0:
204,320,37048,2,0,P|261:334|317:315,1,120,2|0,0:0|0:0,0:0:0:0:
349,278,37751,1,8,0:0:0:0:
326,183,38220,2,0,P|323:145|337:112,2,60,0|0|8,3:0|3:0|0:0,0:0:0:0:
232,207,39158,6,0,L|99:206,1,120,6|0,0:0|0:0,0:0:0:0:
66,221,39861,1,8,0:3:0:0:
66,221,40095,2,0,P|49:166|75:99,1,120,8|0,0:0|0:0,0:0:0:0:
163,97,41033,2,0,P|171:49|161:-1,2,90,8|0|8,0:3|3:0|0:3,0:0:0:0:
186,138,41970,2,0,L|318:136,1,120,8|0,0:0|0:0,0:0:0:0:
384,191,42908,6,0,P|407:258|384:318,1,120,0|0,3:0|0:0,0:0:0:0:
352,326,43611,2,0,L|223:307,2,120,8|0|0,0:3|0:0|3:0,0:0:0:0:
394,303,44783,1,4,0:0:0:0:
461,370,45251,1,12,0:0:0:0:
419,84,46658,6,0,B|364:63|360:104|292:78,1,120,6|8,0:0|0:0,0:0:0:0:
259,105,47361,2,0,P|285:145|293:180,1,60,2|0,0:0|3:0,0:0:0:0:
302,202,47829,2,0,P|276:242|268:277,1,60,2|8,3:2|0:2,0:0:0:0:
272,301,48298,2,0,L|128:292,1,120,2|0,0:0|0:0,0:0:0:0:
79,230,49236,2,0,P|111:187|104:108,1,120,2|0,0:0|3:0,0:0:0:0:
83,83,49939,1,8,0:0:0:0:
170,42,50408,6,0,L|299:52,1,120,6|8,0:0|0:0,0:0:0:0:
325,83,51111,2,0,L|340:154,1,60,2|0,0:0|3:0,0:0:0:0:
362,182,51579,2,0,L|347:253,1,60,2|8,3:2|0:0,0:0:0:0:
315,274,52048,2,0,P|395:259|442:286,1,120,0|0,3:0|0:0,0:0:0:0:
500,211,52986,1,4,0:0:0:0:
500,211,53220,2,0,L|431:186,2,60,0|2|8,3:0|3:2|0:0,0:0:0:0:
493,114,54158,6,0,L|362:66,1,120,6|8,0:0|0:0,0:0:0:0:
332,67,54861,1,2,0:0:0:0:
240,97,55329,1,2,3:2:0:0:
151,59,55798,2,0,P|89:42|26:67,1,120,2|2,0:0|0:0,0:0:0:0:
8,150,56736,2,0,P|34:206|45:276,1,120,2|2,0:0|3:2,0:0:0:0:
34,310,57439,1,8,0:0:0:0:
124,341,57908,6,0,L|260:334,1,120,6|8,0:0|0:0,0:0:0:0:
291,328,58611,1,0,0:0:0:0:
336,332,58845,2,0,P|324:299|321:212,1,120,4|8,0:0|0:0,0:0:0:0:
334,168,59548,2,0,B|279:149|275:184|210:159,1,120,4|8,0:2|3:0,0:0:0:0:
175,135,60251,1,8,0:0:0:0:
117,58,60720,1,0,0:0:0:0:
117,58,60954,2,0,L|48:51,2,60,8|8|8,0:0|0:0|3:0,0:0:0:0:
164,46,61658,6,0,P|228:60|295:65,1,120,6|8,0:0|0:0,0:0:0:0:
329,75,62361,2,0,P|317:109|311:143,1,60,2|0,0:0|3:0,0:0:0:0:
342,169,62829,2,0,P|354:203|360:237,1,60,2|8,3:2|0:0,0:0:0:0:
365,274,63298,2,0,L|226:270,1,120,0|0,3:0|0:0,0:0:0:0:
160,224,64236,1,2,0:0:0:0:
160,224,64470,2,0,L|146:156,2,60,0|2|8,3:0|3:2|0:0,0:0:0:0:
158,320,65408,6,0,P|106:290|37:292,1,120,6|8,0:0|0:0,0:0:0:0:
8,316,66111,2,0,L|9:185,1,120,2|2,0:0|3:2,0:0:0:0:
36,156,66814,1,8,0:0:0:0:
129,133,67283,2,0,B|194:115|193:154|251:141,1,120,6|8,3:2|0:0,0:0:0:0:
292,127,67986,1,2,0:0:0:0:
337,112,68220,2,0,P|346:79|342:44,2,60,0|2|8,3:0|3:2|0:0,0:0:0:0:
342,208,69158,6,0,L|470:212,1,120,6|8,0:0|0:0,0:0:0:0:
507,196,69861,1,2,0:0:0:0:
448,120,70329,1,2,3:2:0:0:
508,47,70798,2,0,P|455:30|389:48,1,120,2|2,0:0|0:0,0:0:0:0:
303,78,71736,2,0,L|171:78,1,120,2|2,0:0|3:2,0:0:0:0:
138,60,72439,1,8,0:0:0:0:
80,137,72908,6,0,P|99:177|113:262,1,120,6|8,0:0|0:0,0:0:0:0:
106,298,73611,1,0,3:0:0:0:
95,344,73845,2,0,P|140:326|216:346,1,120,4|8,0:0|0:0,0:0:0:0:
252,358,74548,2,0,L|261:221,1,120,4|8,0:0|0:3,0:0:0:0:
253,190,75251,1,8,0:0:0:0:
309,112,75720,2,0,L|437:121,1,120,8|8,0:3|0:0,0:0:0:0:
463,153,76423,1,8,0:3:0:0:
493,190,76658,6,0,P|457:243|470:313,1,120,6|8,0:0|0:0,0:0:0:0:
481,340,77361,1,2,0:0:0:0:
393,377,77829,1,2,3:2:0:0:
303,341,78298,2,0,P|242:325|181:354,1,120,0|0,3:0|0:0,0:0:0:0:
149,368,79001,1,8,0:0:0:0:
109,341,79236,2,0,L|96:216,1,120,8|0,0:3|3:0,0:0:0:0:
168,159,80173,2,0,P|201:171|238:175,1,60,8|2,0:0|0:0,0:0:0:0:
225,174,82283,6,0,P|272:151|353:178,1,120,2|0,3:2|3:0,0:0:0:0:
416,216,83220,2,0,L|433:78,1,120,2|0,3:2|3:0,0:0:0:0:
420,49,83923,2,0,P|385:36|360:34,1,60,2|0,0:0|3:0,0:0:0:0:
315,42,84392,2,0,P|257:56|203:32,1,120,2|0,0:0|0:0,0:0:0:0:
130,95,85329,2,0,L|144:159,2,60,0|2|0,0:0|3:2|3:0,0:0:0:0:
86,73,86033,6,0,L|71:214,1,120,2|2,3:2|3:2,0:0:0:0:
80,288,86970,1,0,3:0:0:0:
80,288,87204,2,0,L|146:277,1,60,2|0,0:0|3:0,0:0:0:0:
187,272,87673,2,0,P|233:295|312:303,1,120,2|0,0:0|0:0,0:0:0:0:
346,288,88376,1,0,3:0:0:0:
413,219,88845,1,0,3:0:0:0:
413,219,89079,2,0,P|395:190|385:155,2,60,0|2|0,0:0|3:2|3:0,0:0:0:0:
451,248,89783,6,0,L|444:373,1,120,6|0,3:2|3:0,0:0:0:0:
348,366,90720,2,0,P|314:354|278:349,1,60,2|0,3:2|0:0,0:0:0:0:
242,354,91189,1,0,3:0:0:0:
242,354,91423,2,0,L|221:226,1,120,2|2,0:0|0:0,0:0:0:0:
255,145,92361,2,0,P|323:151|387:135,1,120,2|0,0:0|0:0,0:0:0:0:
411,111,93064,2,0,P|392:81|387:41,1,60,0|0,3:0|3:0,0:0:0:0:
376,10,93533,6,0,L|241:12,1,120,4|0,3:2|3:0,0:0:0:0:
179,69,94470,2,0,P|140:81|110:79,1,60,8|8,0:0|0:3,0:0:0:0:
73,86,94939,2,0,P|43:83|14:90,1,60,8|8,0:0|0:3,0:0:0:0:
18,138,95408,2,0,P|35:191|45:270,1,120,0|8,3:0|0:0,0:0:0:0:
111,323,96345,2,0,P|141:312|183:307,1,60,8|8,3:3|0:3,0:0:0:0:
215,318,96814,2,0,P|245:329|287:334,1,60,8|8,3:3|0:3,0:0:0:0:
320,337,97283,6,0,L|328:206,1,120,6|8,0:0|0:0,0:0:0:0:
288,129,98220,1,2,3:2:0:0:
212,190,98689,1,8,0:0:0:0:
212,190,98923,2,0,P|149:190|92:180,1,120,2|2,0:0|0:0,0:0:0:0:
55,149,99626,1,0,0:0:0:0:
119,78,100095,1,0,3:0:0:0:
119,78,100329,2,0,P|169:86|200:83,1,60,2|8,0:0|0:0,0:0:0:0:
223,70,100798,6,0,P|265:93|362:98,1,120,0|0,0:0|0:0,0:0:0:0:
383,93,101501,1,10,0:0:0:0:
444,167,101970,2,0,L|436:235,1,60,0|2,3:0|0:0,0:0:0:0:
373,298,102673,2,0,B|289:262|291:334|171:288,1,180,2|8,0:0|0:0,0:0:0:0:
111,252,103845,1,0,3:0:0:0:
171,177,104314,1,8,0:0:0:0:
84,134,104783,6,0,L|111:252,1,120,2|8,3:2|0:0,0:0:0:0:
138,290,105486,2,0,L|134:373,2,60,0|2|0,0:0|3:2|0:0,0:0:0:0:
181,269,106189,1,0,0:0:0:0:
225,250,106423,2,0,P|280:230|347:251,1,120,2|2,0:0|0:0,0:0:0:0:
429,215,107361,2,0,L|437:78,1,120,2|2,0:0|0:0,0:0:0:0:
418,50,108064,1,8,0:0:0:0:
376,25,108298,6,0,P|329:50|240:40,1,120
216,37,109001,2,0,P|240:91|253:160,1,120,8|2,0:0|3:2,0:0:0:0:
229,243,109939,1,8,0:0:0:0:
144,199,110408,2,0,B|88:182|88:182|20:205,2,120,0|8|8,3:0|0:0|0:0,0:0:0:0:
229,243,111814,2,0,P|275:241|298:231,1,60,0|8,1:0|3:2,0:0:0:0:
329,213,112283,6,0,P|387:188|467:206,1,120,6|8,0:0|0:0,0:0:0:0:
487,210,112986,2,0,L|473:80,1,120,2|2,0:0|3:2,0:0:0:0:
451,48,113689,1,8,0:0:0:0:
403,51,113923,2,0,P|352:72|272:82,1,120,2|0,0:0|0:0,0:0:0:0:
193,64,114861,1,2,0:0:0:0:
197,159,115329,1,0,3:0:0:0:
160,248,115798,6,0,P|108:259|44:243,1,120
15,205,116501,1,8,0:0:0:0:
5,157,116736,2,0,L|34:20,1,120,2|2,0:0|3:2,0:0:0:0:
123,13,117673,2,0,P|161:45|231:78,1,120,0|0,0:0|0:0,0:0:0:0:
271,81,118376,1,8,0:0:0:0:
254,175,118845,2,0,P|236:216|231:243,2,60,0|0|8,3:0|3:0|0:0,0:0:0:0:
349,166,119783,6,0,L|490:163,1,120,6|2,0:0|0:0,0:0:0:0:
505,195,120486,1,8,0:3:0:0:
505,195,120720,2,0,L|488:331,1,120,8|0,0:0|0:0,0:0:0:0:
399,345,121658,2,0,P|389:297|371:255,2,90,8|0|8,0:3|3:0|0:3,0:0:0:0:
355,365,122595,2,0,L|219:357,1,120,8|0,0:0|0:0,0:0:0:0:
143,330,123533,6,0,P|121:278|156:213,1,120,0|2,3:0|0:0,0:0:0:0:
185,196,124236,2,0,B|132:170|119:211|57:178,2,120,8|0|0,0:3|0:0|3:0,0:0:0:0:
227,218,125408,1,6,0:0:0:0:
274,134,125876,1,12,0:0:0:0:
363,170,126345,6,0,P|451:160|477:64,1,180,2|0,0:0|0:0,0:0:0:0:
452,45,127283,2,0,B|388:28|388:28|307:46|307:46|210:21,1,240,2|0,0:0|0:0,0:0:0:0:
123,27,128689,1,8,0:3:0:0:
48,87,129158,6,0,L|72:214,1,120,6|8,0:0|0:0,0:0:0:0:
74,252,129861,2,0,L|132:241,1,60,2|0,0:0|3:0,0:0:0:0:
163,204,130329,2,0,L|221:193,1,60,2|8,3:2|0:0,0:0:0:0:
270,194,130798,2,0,P|298:248|279:303,1,120,2|0,0:0|0:0,0:0:0:0:
347,369,131736,2,0,L|481:362,1,120,2|0,0:0|3:0,0:0:0:0:
504,332,132439,1,8,0:0:0:0:
450,251,132908,6,0,P|429:198|463:127,1,120,6|8,0:0|0:0,0:0:0:0:
458,93,133611,2,0,P|420:95|393:88,1,60,2|0,0:0|3:0,0:0:0:0:
352,77,134079,2,0,P|314:75|287:82,1,60,2|10,3:2|0:0,0:0:0:0:
260,115,134548,2,0,L|289:259,1,120,0|0,3:0|0:0,0:0:0:0:
239,318,135486,1,4,0:0:0:0:
239,318,135720,2,0,L|302:333,2,60,0|2|8,3:0|3:2|0:0,0:0:0:0:
155,270,136658,6,0,P|126:231|141:148,1,120,6|8,3:2|0:0,0:0:0:0:
160,124,137361,1,2,0:0:0:0:
251,96,137829,1,2,3:2:0:0:
341,129,138298,2,0,L|339:250,1,120,2|2,0:0|0:0,0:0:0:0:
413,310,139236,2,0,P|364:294|303:322,1,120,2|2,0:0|3:2,0:0:0:0:
267,351,139939,1,8,0:0:0:0:
206,276,140408,6,0,P|217:234|204:150,1,120,6|8,0:0|0:0,0:0:0:0:
183,117,141111,1,0,0:0:0:0:
152,79,141345,2,0,P|212:99|285:72,1,120,4|8,0:0|0:0,0:0:0:0:
309,66,142048,2,0,L|445:65,1,120,6|8,0:0|3:0,0:0:0:0:
472,84,142751,1,8,0:0:0:0:
474,180,143220,1,8,3:0:0:0:
474,180,143454,2,0,P|434:169|398:169,2,60,8|8|8,0:0|0:0|3:0,0:0:0:0:
507,215,144158,6,0,P|482:253|482:336,1,120,6|8,0:0|0:0,0:0:0:0:
470,373,144861,2,0,P|436:367|403:363,1,60,2|0,0:0|3:0,0:0:0:0:
363,353,145329,2,0,P|329:359|296:363,1,60,2|8,3:2|0:0,0:0:0:0:
264,334,145798,2,0,P|246:288|262:217,1,120,2|0,3:2|0:0,0:0:0:0:
313,140,146736,1,2,0:0:0:0:
313,140,146970,2,0,L|303:79,2,60,0|2|8,3:0|3:2|0:0,0:0:0:0:
216,145,147908,6,0,L|85:144,1,120,6|8,0:0|0:0,0:0:0:0:
57,173,148611,2,0,P|74:206|79:291,1,120,2|2,0:0|3:2,0:0:0:0:
74,335,149314,1,8,0:0:0:0:
169,342,149783,2,0,L|309:330,1,120,6|8,0:0|0:0,0:0:0:0:
336,330,150486,1,0,3:0:0:0:
382,320,150720,2,0,P|408:293|416:259,2,60,0|2|8,3:0|0:0|0:0,0:0:0:0:
330,238,151658,6,0,L|329:107,1,120,6|8,0:0|0:0,0:0:0:0:
364,85,152361,1,2,0:0:0:0:
437,146,152829,1,2,3:2:0:0:
447,241,153298,2,0,P|400:230|319:241,1,120,2|2,0:2|0:0,0:0:0:0:
261,306,154236,2,0,L|134:299,1,120,2|0,0:0|3:0,0:0:0:0:
97,318,154939,1,8,0:0:0:0:
26,252,155408,6,0,P|39:211|29:122,1,120,6|8,0:0|0:0,0:0:0:0:
26,87,156111,1,0,3:0:0:0:
15,40,156345,2,0,P|78:59|141:38,1,120,4|8,0:0|0:0,0:0:0:0:
176,50,157048,2,0,L|195:184,1,120,6|0,0:0|3:0,0:0:0:0:
219,209,157751,1,8,0:0:0:0:
305,168,158220,2,0,P|355:151|421:163,1,120,8|8,0:3|0:0,0:0:0:0:
464,181,158923,1,8,0:3:0:0:
500,212,159158,6,0,L|481:341,1,120,6|8,0:0|0:0,0:0:0:0:
451,367,159861,1,2,0:0:0:0:
367,323,160329,1,2,3:2:0:0:
274,349,160798,1,0,0:0:0:0:
274,349,161033,2,0,B|217:328|209:365|156:338,1,120,6|8,0:0|0:0,0:0:0:0:
121,306,161736,2,0,P|160:271|171:197,1,120,8|0,0:3|3:0,0:0:0:0:
139,171,162439,1,8,0:0:0:0:
95,151,162673,2,0,L|97:88,1,60,8|6,0:0|0:0,0:0:0:0:
174,40,163376,5,8,3:2:0:0:
174,40,163611,2,0,B|240:15|230:58|316:37,1,120,10|0,0:3|3:0,0:0:0:0:
383,55,164548,2,0,L|369:200,1,120,2|0,3:2|3:0,0:0:0:0:
356,220,165251,1,8,0:0:0:0:
336,263,165486,2,0,P|293:240|211:245,1,120,2|0,0:2|3:0,0:0:0:0:
180,263,166189,1,8,0:0:0:0:
141,234,166423,6,0,P|152:191|143:110,1,120,2|0,3:2|0:0,0:0:0:0:
121,74,167126,1,8,0:0:0:0:
206,30,167595,2,0,P|245:52|278:62,1,60,0|0,3:0|3:0,0:0:0:0:
307,59,168064,1,8,3:2:0:0:
403,60,168533,1,0,3:0:0:0:
403,60,168767,2,0,L|399:130,1,60,2|8,0:0|0:0,0:0:0:0:
388,166,169236,1,8,0:3:0:0:
385,213,169470,2,0,L|398:281,2,60,0|2|8,3:0|3:2|0:0,0:0:0:0:
291,237,170408,6,0,P|253:241|162:225,1,120,6|8,0:0|3:2,0:0:0:0:
126,215,171111,2,0,L|147:336,1,120,10|0,0:3|3:0,0:0:0:0:
241,346,172048,2,0,B|305:328|304:362|367:339,1,120,0|0,3:0|0:0,0:0:0:0:
404,324,172751,1,8,0:0:0:0:
441,294,172986,2,0,P|430:255|429:151,1,120,2|0,0:0|3:0,0:0:0:0:
404,132,173689,1,8,0:0:0:0:
361,104,173923,6,0,L|232:100,1,120,0|0,3:0|0:0,0:0:0:0:
196,114,174626,1,8,0:0:0:0:
167,205,175095,2,0,L|188:265,2,60,0|0|8,3:0|3:0|3:2,0:0:0:0:
129,174,175798,1,2,3:2:0:0:
122,78,176267,1,2,0:0:0:0:
122,78,176501,2,0,L|201:80,1,60,8|0,0:0|3:0,0:0:0:0:
229,91,176970,2,0,L|308:89,1,60,0|8,3:0|0:3,0:0:0:0:
330,65,177439,1,8,0:0:0:0:
417,105,177908,5,6,0:0:0:0:
417,105,178142,2,0,P|406:160|403:184,1,60,2|8,0:0|0:0,0:0:0:0:
419,209,178611,2,0,P|426:283|424:355,1,120,8|0,0:3|3:0,0:0:0:0:
404,371,179314,1,8,0:0:0:0:
404,371,179548,1,0,0:0:0:0:
315,332,180017,1,2,0:0:0:0:
315,332,180251,2,0,P|272:328|234:340,1,60,8|8,0:0|0:3,0:0:0:0:
208,339,180720,2,0,P|165:343|127:331,1,60,0|2,3:0|3:2,0:0:0:0:
120,300,181189,1,10,0:0:0:0:
178,223,181658,6,0,P|212:174|209:108,1,120,6|2,0:1|3:2,0:0:0:0:
183,76,182361,1,0,0:0:0:0:
183,76,182595,2,0,L|187:9,2,60,2|0|2,0:1|3:0|0:1,0:0:0:0:
107,136,183533,2,0,L|40:132,2,60,2|0|2,3:1|3:0|3:1,0:0:0:0:
176,202,184470,1,2,3:1:0:0:
271,188,184939,2,0,P|309:199|335:198,1,60,8|8,0:0|0:0,0:0:0:0:
375,211,185408,6,0,L|365:343,1,120,6|0,0:0|0:0,0:0:0:0:
332,365,186111,1,2,0:0:0:0:
236,377,186579,1,2,0:0:0:0:
161,316,187048,2,0,L|170:196,1,120,6|0,3:2|0:0,0:0:0:0:
232,123,187986,2,0,P|194:105|156:100,2,60,2|0|2,0:0|0:0|0:0,0:0:0:0:
270,151,188689,1,4,3:2:0:0:
342,87,189158,6,0,P|403:71|466:100,1,120,6|0,0:0|0:0,0:0:0:0:
482,129,189861,1,2,0:0:0:0:
506,221,190329,1,2,0:0:0:0:
450,299,190798,2,0,P|389:315|326:286,1,120,0|2,3:0|0:0,0:0:0:0:
307,258,191501,1,0,0:0:0:0:
217,293,191970,2,0,P|172:300|149:296,1,60,8|8,0:0|0:0,0:0:0:0:
111,285,192439,2,0,P|66:278|43:282,1,60,8|8,0:0|0:0,0:0:0:0:
7,298,192908,6,0,P|25:250|20:169,1,120,6|8,0:0|0:0,0:0:0:0:
10,135,193611,1,0,3:0:0:0:
98,97,194079,1,0,3:0:0:0:
188,128,194548,2,0,P|174:172|187:247,1,120,6|10,0:0|0:0,0:0:0:0:
280,259,195486,2,0,L|416:255,1,120,2|0,3:2|3:0,0:0:0:0:
443,276,196189,1,8,0:0:0:0:
496,195,196658,6,0,P|497:133|486:59,1,120,6|8,0:0|0:0,0:0:0:0:
465,34,197361,1,0,3:0:0:0:
423,9,197595,2,0,L|294:19,1,120,6|8,0:0|0:0,0:0:0:0:
261,42,198298,2,0,L|119:29,1,120,6|2,0:0|0:0,0:0:0:0:
93,35,199001,1,2,3:0:0:0:
30,107,199470,2,0,L|43:172,1,60,8|8,0:0|0:0,0:0:0:0:
67,206,199939,2,0,P|108:184|138:180,1,60,8|0,0:0|0:0,0:0:0:0:
167,168,200408,6,0,P|229:183|292:173,1,120,6|8,0:0|0:0,0:0:0:0:
332,177,201111,2,0,L|320:244,1,60,2|0,0:0|3:0,0:0:0:0:
300,279,201579,2,0,L|312:346,1,60,2|8,3:2|0:0,0:0:0:0:
283,377,202048,2,0,L|152:377,1,120,2|0,3:2|0:0,0:0:0:0:
106,298,202986,1,2,0:0:0:0:
106,298,203220,2,0,L|99:229,2,60,0|2|8,3:0|3:2|0:0,0:0:0:0:
191,253,204158,6,0,P|233:233|315:242,1,120,6|8,0:0|0:0,0:0:0:0:
336,273,204861,2,0,L|327:135,1,120,2|2,0:0|3:2,0:0:0:0:
316,106,205564,1,8,0:0:0:0:
238,48,206033,2,0,P|186:70|109:76,1,120,6|8,3:2|0:0,0:0:0:0:
76,86,206736,1,2,0:0:0:0:
29,74,206970,2,0,P|16:42|14:13,2,60,0|0|8,3:0|3:0|0:0,0:0:0:0:
56,166,207908,6,0,P|87:203|100:284,1,120,6|8,0:0|0:0,0:0:0:0:
77,313,208611,1,2,0:0:0:0:
168,342,209079,1,2,3:2:0:0:
257,307,209548,2,0,P|307:291|373:317,1,120,2|2,0:0|0:0,0:0:0:0:
449,261,210486,2,0,L|457:129,1,120,2|2,0:0|3:2,0:0:0:0:
448,93,211189,1,8,0:0:0:0:
364,44,211658,6,0,B|304:25|309:63|235:46,1,120,6|8,0:0|0:0,0:0:0:0:
198,40,212361,1,0,3:0:0:0:
152,24,212595,2,0,P|173:77|180:152,1,120,4|8,0:0|0:0,0:0:0:0:
176,187,213298,2,0,L|305:186,1,120,6|8,0:0|0:3,0:0:0:0:
335,214,214001,1,8,3:0:0:0:
292,300,214470,2,0,L|172:300,1,120,8|8,0:3|0:0,0:0:0:0:
127,319,215173,1,8,0:3:0:0:
93,353,215408,6,0,P|101:307|89:217,1,120,6|8,0:0|0:0,0:0:0:0:
77,189,216111,1,2,0:0:0:0:
172,199,216579,1,2,3:2:0:0:
251,144,217048,2,0,B|311:125|311:125|377:150,1,120,0|0,3:0|0:0,0:0:0:0:
393,183,217751,1,8,0:0:0:0:
393,183,217986,1,2,0:0:0:0:
459,113,218454,1,2,3:2:0:0:
421,24,218923,1,0,3:0:0:0:
421,24,219158,6,0,L|289:33,1,120,6|8,3:2|0:0,0:0:0:0:
257,51,219861,1,2,0:0:0:0:
162,35,220329,2,0,P|172:68|178:108,1,60,2|8,3:2|0:0,0:0:0:0:
168,140,220798,2,0,B|107:122|108:158|25:134,1,120,6|8,0:0|3:0,0:0:0:0:
17,230,221736,2,0,P|49:280|64:349,1,120,2|8,0:0|0:3,0:0:0:0:
94,374,222439,2,0,L|165:369,1,60,8|8,0:0|0:3,0:0:0:0:
199,355,222908,6,0,P|247:335|321:360,1,120,6|8,0:0|0:0,0:0:0:0:
348,381,223611,1,2,0:0:0:0:
432,334,224079,1,2,3:2:0:0:
390,247,224548,1,0,3:0:0:0:
390,247,224783,2,0,P|367:210|359:130,1,120,6|8,0:0|0:0,0:0:0:0:
358,87,225486,2,0,P|313:107|231:103,1,120,8|0,0:3|3:0,0:0:0:0:
151,133,226423,1,8,0:0:0:0:
151,133,226658,6,0,P|178:174|194:253,1,120,6|0,0:0|3:0,0:0:0:0:
143,323,227595,1,2,1:3:0:0:
233,359,228064,1,2,0:0:0:0:
233,359,228298,2,0,P|283:346|358:347,1,120,0|0,3:0|0:0,0:0:0:0:
397,332,229001,1,0,3:0:0:0:
397,235,229470,1,2,1:3:0:0:
338,159,229939,2,0,P|307:175|281:184,1,60,2|2,0:0|0:0,0:0:0:0:
235,176,230408,6,0,L|232:51,1,120,2|0,3:2|3:0,0:0:0:0:
186,40,231111,2,0,P|139:55|120:57,1,60,2|2,0:0|1:3,0:0:0:0:
36,83,231814,1,2,0:0:0:0:
36,83,232048,2,0,P|52:137|56:207,1,120,0|0,3:0|3:0,0:0:0:0:
45,247,232751,1,0,0:0:0:0:
140,257,233220,2,0,P|138:216|147:185,1,60,2|0,1:3|3:0,0:0:0:0:
219,140,233923,1,2,0:0:0:0:
219,140,234158,6,0,P|261:138|348:156,1,120,2|0,0:1|3:0,0:0:0:0:
403,221,235095,1,2,1:3:0:0:
379,314,235564,2,0,L|307:328,1,60,2|2,0:0|3:2,0:0:0:0:
225,339,236267,1,0,0:0:0:0:
225,339,236501,2,0,P|163:342|104:343,1,120,0|2,3:0|1:3,0:0:0:0:
30,282,237439,2,0,L|26:200,1,60,2|2,0:0|0:0,0:0:0:0:
42,176,237908,6,0,L|176:154,1,120,0|0,3:2|3:0,0:0:0:0:
252,183,238845,1,2,1:3:0:0:
324,119,239314,2,0,P|324:79|312:45,1,60,2|0,0:0|3:0,0:0:0:0:
273,44,239783,2,0,L|146:58,2,120,0|0|2,0:0|3:0|1:3,0:0:0:0:
324,119,241189,1,2,0:0:0:0:
408,73,241658,6,0,P|380:115|366:191,1,120,6|0,3:2|3:0,0:0:0:0:
354,229,242361,2,0,L|213:219,1,120,2|0,0:0|0:0,0:0:0:0:
186,216,243064,1,2,0:0:0:0:
138,214,243298,2,0,P|113:281|137:335,1,120,2|0,3:2|0:0,0:0:0:0:
161,358,244001,1,0,3:0:0:0:
254,336,244470,1,0,0:0:0:0:
348,354,244939,2,0,P|381:355|419:345,1,60,2|2,0:0|0:0,0:0:0:0:
449,325,245408,6,0,P|443:284|446:200,1,120,2|0,3:2|3:0,0:0:0:0:
458,159,246111,2,0,L|325:164,1,120,2|0,0:0|0:0,0:0:0:0:
295,140,246814,1,2,0:0:0:0:
248,149,247048,2,0,P|199:141|129:86,1,120,2|0,3:2|0:0,0:0:0:0:
106,69,247751,1,0,3:0:0:0:
106,69,247986,2,0,L|85:247,1,180,2|2,0:0|0:0,0:0:0:0:
139,323,249158,6,0,P|201:334|261:299,1,120,2|0,3:2|3:0,0:0:0:0:
317,241,250095,1,2,1:3:0:0:
231,196,250564,1,0,0:0:0:0:
231,196,250798,2,0,B|219:133|250:133|231:67,1,120,2|0,3:2|0:0,0:0:0:0:
194,49,251501,2,0,L|318:51,1,120,0|2,3:0|1:3,0:0:0:0:
409,61,252439,2,0,L|432:118,1,60,2|2,0:0|0:0,0:0:0:0:
445,162,252908,6,0,P|397:183|316:161,1,120,2|0,3:1|3:0,0:0:0:0:
288,151,253611,1,2,0:0:0:0:
288,151,253845,1,2,1:3:0:0:
203,196,254314,1,2,0:0:0:0:
203,196,254548,2,0,L|216:279,1,60,2|2,3:2|0:1,0:0:0:0:
240,294,255017,1,0,0:0:0:0:
260,337,255251,2,0,P|202:310|132:326,1,120,2|2,3:0|1:3,0:0:0:0:
108,344,255954,1,0,3:0:0:0:
42,281,256423,1,2,0:0:0:0:
42,281,256658,6,0,L|40:147,1,120,2|0,3:2|3:0,0:0:0:0:
53,114,257361,1,2,0:0:0:0:
90,79,257595,2,0,P|148:100|218:98,1,120,2|2,1:0|0:0,0:0:0:0:
252,89,258298,1,0,3:2:0:0:
252,89,258533,1,0,0:0:0:0:
345,68,259001,2,0,P|344:36|354:6,2,60,0|2|2,3:0|0:0|0:1,0:0:0:0:
389,153,259939,2,0,L|381:221,1,60,2|2,0:0|0:0,0:0:0:0:
373,260,260408,6,0,P|316:257|243:295,1,120,2|0,3:1|3:0,0:0:0:0:
230,319,261111,1,2,0:0:0:0:
230,319,261345,1,2,1:2:0:0:
319,354,261814,2,0,L|379:348,1,60,2|2,0:0|3:2,0:0:0:0:
426,344,262283,2,0,P|468:271|425:172,1,180,0|2,0:0|0:0,0:0:0:0:
406,150,263220,1,2,1:3:0:0:
310,158,263689,2,0,P|279:171|238:183,1,60,2|2,0:0|0:0,0:0:0:0:
206,189,264158,6,0,L|199:49,1,120,2|0,3:2|3:0,0:0:0:0:
167,33,264861,2,0,L|101:39,1,60,2|2,0:0|0:1,0:0:0:0:
34,100,265564,2,0,L|39:171,1,60
47,206,266033,2,0,P|121:162|220:205,1,180,2|0,0:0|0:0,0:0:0:0:
225,232,266970,1,2,0:0:0:0:
314,196,267439,2,0,L|381:190,2,60,2|0|2,0:0|0:0|0:1,0:0:0:0:
