osu file format v14

[General]
AudioFilename: audio.mp3
AudioLeadIn: 0
PreviewTime: 127986
Countdown: 0
SampleSet: Soft
StackLeniency: 0.4
Mode: 0
LetterboxInBreaks: 0
WidescreenStoryboard: 0

[Editor]
DistanceSpacing: 2
BeatDivisor: 4
GridSize: 4
TimelineZoom: 2.000006

[Metadata]
Title:Yuudachi Houteishiki
TitleUnicode:夕立方程式
Artist:Oikura Sodachi (CV: Inoue Marina)
ArtistUnicode:老倉育 (CV: 井上麻里奈)
Creator:Alexsander
Version:Insane
Source:終物語
Tags:Owarimonogatari op 3 dvd blu-ray lost Full Version Anime Japanese
BeatmapID:1965617
BeatmapSetID:941228

[Difficulty]
HPDrainRate:5.5
CircleSize:4.1
OverallDifficulty:7.5
ApproachRate:8.2
SliderMultiplier:1.8
SliderTickRate:1

[Events]
//Background and Video events
0,0,"Sodachi.jpg",0,0
//Break Periods
//Storyboard Layer 0 (Background)
//Storyboard Layer 1 (Fail)
//Storyboard Layer 2 (Pass)
//Storyboard Layer 3 (Foreground)
//Storyboard Sound Samples

[TimingPoints]
1658,468.75,4,2,1,40,1,0
1658,-133.333333333333,4,2,1,40,0,0
16189,-200,4,2,1,40,0,0
16540,-200,4,2,1,5,0,0
16658,-117.647058823529,4,2,1,60,0,0
31658,-117.647058823529,4,2,1,50,0,0
39158,-166.666666666667,4,2,1,45,0,0
46658,-100,4,2,1,80,0,1
80408,-200,4,2,1,40,0,0
81345,-200,4,2,1,5,0,0
81579,-200,4,2,1,40,0,0
82283,-133.333333333333,4,2,1,50,0,0
97283,-117.647058823529,4,2,1,60,0,0
112283,-117.647058823529,4,2,1,50,0,0
119783,-166.666666666667,4,2,1,45,0,0
126345,-200,4,2,1,30,0,0
127165,-200,4,2,2,5,0,0
127283,-142.857142857143,4,2,1,40,0,0
128572,-142.857142857143,4,2,2,5,0,0
128689,-125,4,2,1,50,0,0
129040,-125,4,2,2,5,0,0
129158,-100,4,2,1,80,0,1
162908,-100,4,2,1,70,0,0
163259,-100,4,2,2,5,0,0
163376,-100,4,2,1,70,0,0
170759,-100,4,2,2,5,0,0
170876,-100,4,2,1,70,0,0
172634,-100,4,2,2,5,0,0
172751,-100,4,2,1,70,0,0
185408,-142.857142857143,4,2,1,40,0,0
192908,-111.111111111111,4,2,1,70,0,0
200408,-100,4,2,1,80,0,1
219509,-100,4,2,2,5,0,1
219626,-100,4,2,1,80,0,1
226658,-166.666666666667,4,2,1,40,0,0
241658,-133.333333333333,4,2,1,50,0,0
249158,-166.666666666667,4,2,1,40,0,0
256658,-117.647058823529,4,2,1,55,0,0
259939,-166.666666666667,4,2,1,40,0,0
262048,-200,4,2,1,30,0,0
263689,-200,4,2,1,20,0,0
265564,-250,4,2,1,15,0,0
267908,-250,4,2,1,10,0,0

[Colours]
Combo1 : 151,255,151
Combo2 : 254,218,222
Combo3 : 252,183,80

[HitObjects]
86,98,1658,6,0,P|76:136|80:165,1,67.5000025749207,2|0,0:1|0:0,0:0:0:0:
163,143,2126,2,0,P|173:180|191:204,1,67.5000025749207
306,147,2595,2,0,L|220:148,1,67.5000025749207,2|0,0:0|0:0,0:0:0:0:
306,226,3064,1,0,0:0:0:0:
387,117,3298,6,0,P|364:87|332:71,1,67.5000025749207,2|0,0:0|0:0,0:0:0:0:
386,219,3767,2,0,P|439:210|476:129,1,135.000005149842,2|0,0:0|0:0,0:0:0:0:
387,117,4470,1,2,0:0:0:0:
477,143,4704,1,0,0:0:0:0:
386,219,4939,1,0,0:0:0:0:
305,205,5173,1,0,0:0:0:0:
225,293,5408,6,0,P|191:291|156:310,1,67.5000025749208,2|0,0:0|0:0,0:0:0:0:
280,352,5876,2,0,P|314:350|349:369,1,67.5000025749208,2|0,0:0|0:0,0:0:0:0:
423,384,6345,1,0,0:0:0:0:
400,305,6579,2,0,L|400:238,1,67.5000025749208,2|0,0:0|0:0,0:0:0:0:
477,132,7048,6,0,L|477:267,1,135.000005149842,2|0,0:0|0:0,0:0:0:0:
338,258,7751,2,0,P|366:240|400:237,2,67.5000025749208,0|0|2,0:0|0:0|0:0,0:0:0:0:
277,320,8454,1,0,0:0:0:0:
210,272,8689,1,0,0:0:0:0:
237,194,8923,1,0,0:0:0:0:
119,234,9158,6,0,P|67:224|21:161,1,135.000005149842,2|0,0:1|0:0,0:0:0:0:
105,154,9861,2,0,L|97:74,1,67.5000025749208,2|0,0:0|0:0,0:0:0:0:
157,22,10329,1,0,0:0:0:0:
178,105,10564,1,0,0:0:0:0:
283,47,10798,6,0,P|311:24|367:24,1,67.5000025749208,2|0,0:0|0:0,0:0:0:0:
396,126,11267,2,0,P|362:113|334:64,1,67.5000025749208,2|0,0:0|0:0,0:0:0:0:
472,101,11736,2,0,P|477:136|449:185,1,67.5000025749208,2|0,0:0|0:0,0:0:0:0:
388,212,12204,2,0,P|356:201|323:206,2,67.5000025749208
258,273,12908,6,0,L|100:272,1,135.000005149842,2|0,0:0|0:0,0:0:0:0:
67,217,13611,1,0,0:0:0:0:
127,168,13845,1,2,0:0:0:0:
60,129,14079,1,0,0:0:0:0:
126,84,14314,1,0,0:0:0:0:
205,171,14548,6,0,L|359:173,1,135.000005149842,2|0,0:0|0:0,0:0:0:0:
406,224,15251,1,0,0:0:0:0:
322,279,15486,1,0,0:0:0:0:
431,329,15720,1,2,0:0:0:0:
500,235,15954,1,2,0:3:0:0:
509,210,16033,1,2,0:3:0:0:
512,184,16111,1,2,0:3:0:0:
512,155,16189,6,0,P|493:124|493:75,1,67.5,8|0,0:3|0:0,0:0:0:0:
470,79,16658,6,0,L|371:74,1,76.5000014591217,4|0,3:2|0:0,0:0:0:0:
253,173,17126,1,8,0:0:0:0:
290,93,17361,1,0,0:0:0:0:
293,250,17595,2,0,L|192:252,1,76.5000014591217,0|0,3:0|0:0,0:0:0:0:
127,324,18064,1,8,0:0:0:0:
117,181,18298,6,0,P|140:217|135:265,1,76.5000014591217,2|0,0:0|3:0,0:0:0:0:
29,146,18767,2,0,P|74:89|161:102,1,153.000002918243,2|0,0:0|0:0,0:0:0:0:
252,166,19470,1,0,3:0:0:0:
240,83,19704,1,2,0:0:0:0:
336,172,19939,2,0,L|424:165,1,76.5000014591217,8|0,0:0|0:0,0:0:0:0:
262,254,20408,6,0,P|217:237|118:301,1,153.000002918243,0|8,3:0|0:0,0:0:0:0:
205,319,21111,1,0,0:0:0:0:
262,254,21345,1,0,3:0:0:0:
321,355,21579,2,0,P|368:365|408:350,1,76.5000014591217,2|8,0:0|0:0,0:0:0:0:
395,204,22048,6,0,L|394:357,1,153.000002918243,2|0,0:0|0:0,0:0:0:0:
475,281,22751,1,8,0:0:0:0:
321,355,22986,2,0,L|237:352,1,76.5000014591217,2|0,0:0|3:0,0:0:0:0:
112,300,23454,2,0,P|152:289|194:301,2,76.5000014591217,2|8|0,0:0|0:0|0:0,0:0:0:0:
244,352,24158,5,2,3:2:0:0:
244,248,24392,1,0,0:0:0:0:
242,145,24626,1,8,0:0:0:0:
312,195,24861,2,0,L|314:114,1,76.5000014591217,2|2,0:0|3:2,0:0:0:0:
316,269,25329,1,0,0:0:0:0:
385,189,25564,1,8,0:0:0:0:
244,248,25798,6,0,P|206:255|169:247,1,76.5000014591217,2|0,0:0|3:0,0:0:0:0:
276,333,26267,2,0,P|329:340|370:322,1,76.5000014591217,2|8,0:0|0:0,0:0:0:0:
428,231,26736,2,0,L|428:308,1,76.5000014591217,2|0,0:0|3:0,0:0:0:0:
352,254,27204,1,2,0:0:0:0:
504,203,27439,1,8,0:0:0:0:
445,154,27673,1,0,0:0:0:0:
352,254,27908,5,2,3:2:0:0:
428,307,28142,1,0,0:0:0:0:
304,340,28376,2,0,P|270:321|250:285,1,76.5000014591217,8|0,0:0|0:0,0:0:0:0:
262,193,28845,1,0,3:0:0:0:
175,208,29079,1,0,0:0:0:0:
344,171,29314,2,0,P|325:137|289:117,1,76.5000014591217,8|2,0:0|0:0,0:0:0:0:
419,124,29783,5,0,3:0:0:0:
352,248,30017,2,0,L|322:245,3,25.5000004863739,8|8|8|8,0:3|0:3|0:3|0:0,0:0:0:0:
293,118,30486,2,0,L|267:120,3,25.5000004863739,8|8|8|8,0:3|0:3|0:3|0:0,0:0:0:0:
209,219,30954,6,0,L|160:215,1,38.2500007295609,2|0,0:0|0:0,0:0:0:0:
156,364,31189,1,0,1:0:0:0:
168,327,31306,1,8,0:3:0:0:
181,291,31423,1,8,3:2:0:0:
95,165,31658,5,6,0:0:0:0:
97,258,31892,1,0,0:0:0:0:
153,89,32126,1,8,0:0:0:0:
175,168,32361,2,0,P|217:160|277:155,1,76.5000014591217,2|0,0:0|3:0,0:0:0:0:
319,195,32829,1,0,3:0:0:0:
243,74,33064,1,8,0:0:0:0:
152,52,33298,6,0,B|76:26|79:84|-8:52,1,153.000002918243,2|0,0:0|0:0,0:0:0:0:
0,174,34001,1,8,0:0:0:0:
113,153,34236,2,0,P|125:183|117:246,1,76.5000014591217,2|0,0:0|3:0,0:0:0:0:
165,315,34704,2,0,P|190:295|214:236,1,76.5000014591217,2|8,3:2|0:0,0:0:0:0:
230,144,35173,1,2,0:0:0:0:
124,226,35408,6,0,B|204:183|198:258|286:207,1,153.000002918243,2|8,3:2|0:0,0:0:0:0:
396,244,36111,2,0,P|349:263|323:280,1,76.5000014591217,2|0,0:0|3:0,0:0:0:0:
403,156,36579,2,0,P|450:175|476:192,1,76.5000014591217,2|8,3:2|0:0,0:0:0:0:
402,72,37048,6,0,P|344:87|237:80,1,153.000002918243,2|0,0:0|0:0,0:0:0:0:
286,181,37751,2,0,P|239:164|199:162,1,76.5000014591217,8|0,0:0|0:0,0:0:0:0:
147,304,38220,5,0,3:0:0:0:
146,219,38454,1,0,3:0:0:0:
258,265,38689,1,8,0:0:0:0:
140,187,38923,2,0,L|129:142,1,38.2500007295609,2|2,0:0|0:0,0:0:0:0:
129,122,39158,6,0,B|209:63|211:138|294:73,1,161.999995056153,6|8,0:0|0:3,0:0:0:0:
377,27,40095,1,8,0:0:0:0:
377,113,40329,2,0,L|338:95,2,26.9999991760254
472,120,40798,1,0,3:0:0:0:
399,248,41033,6,0,P|354:236|304:235,2,80.9999975280763,8|0|8,0:3|3:0|0:3,0:0:0:0:
399,248,41970,2,0,L|395:355,1,107.999996704102,8|0,0:0|0:0,0:0:0:0:
471,300,42673,1,0,3:0:0:0:
322,299,42908,6,0,B|221:297|270:366|160:356,1,161.999995056153,0|8,3:0|0:3,0:0:0:0:
118,239,43845,2,0,P|159:248|188:292,1,80.9999975280763,8|0,0:0|0:0,0:0:0:0:
188,286,44314,1,0,0:0:0:0:
133,163,44548,1,0,3:0:0:0:
67,299,44783,5,4,0:0:0:0:
19,144,45017,1,8,0:3:0:0:
15,117,45134,1,8,0:3:0:0:
12,90,45251,1,12,0:0:0:0:
12,90,46189,6,0,L|63:97,1,26.9999991760254
103,138,46423,2,0,L|154:131,1,26.9999991760254
206,178,46658,6,0,B|262:161|262:161|316:167|316:167|387:142,1,180,6|8,0:0|0:0,0:0:0:0:
271,328,47361,2,0,L|270:235,1,90,2|0,0:0|3:0,0:0:0:0:
316,77,47829,2,0,L|315:170,1,90,2|8,3:2|0:2,0:2:0:0:
129,211,48298,6,0,P|208:179|270:238,1,180,2|0,0:0|0:0,0:0:0:0:
183,350,49001,2,0,L|196:241,1,90,8|2,0:0|0:0,0:0:0:0:
139,117,49470,1,0,3:0:0:0:
129,211,49704,1,0,3:0:0:0:
270,238,49939,2,0,P|317:230|364:217,1,90,8|2,0:0|0:0,0:0:0:0:
183,350,50408,6,0,P|115:308|4:280,1,180,6|8,0:0|0:0,0:0:0:0:
117,179,51111,2,0,P|73:201|20:204,1,90,2|0,0:0|3:0,0:0:0:0:
189,112,51579,2,0,P|145:90|92:87,1,90,2|8,3:2|0:0,0:0:0:0:
117,179,52048,1,0,3:0:0:0:
284,76,52283,6,0,L|282:200,1,90,6|0,0:0|0:0,0:0:0:0:
350,285,52751,1,8,0:0:0:0:
449,121,52986,2,0,B|406:110|406:110|359:126,1,90,4|0,0:0|3:0,0:0:0:0:
486,188,53455,1,2,3:2:0:0:
457,42,53689,1,8,0:0:0:0:
362,124,53924,1,0,3:0:0:0:
181,17,54158,6,0,B|131:57|131:57|97:123|151:191,1,180,6|8,0:0|0:0,0:0:0:0:
282,108,54861,2,0,P|244:119|181:98,1,90,2|0,0:0|3:0,0:0:0:0:
49,168,55329,2,0,P|91:155|135:167,1,90,2|8,3:2|0:0,0:0:0:0:
108,323,55798,6,0,L|89:197,1,90,2|0,0:0|3:0,0:0:0:0:
282,108,56267,2,0,L|263:234,1,90,2|8,0:0|0:0,0:0:0:0:
369,321,56736,2,0,P|325:297|277:292,1,90,2|0,0:0|3:0,0:0:0:0:
110,324,57204,1,2,3:2:0:0:
200,299,57439,1,8,0:0:0:0:
290,272,57673,1,2,3:2:0:0:
22,348,57908,6,0,P|21:264|7:142,1,180,6|8,0:0|0:0,0:0:0:0:
44,40,58611,1,0,0:0:0:0:
205,150,58845,2,0,P|237:122|291:120,1,90,4|0,0:0|3:0,0:0:0:0:
207,253,59314,1,8,0:0:0:0:
431,202,59548,6,0,P|399:174|345:172,1,90,4|0,0:2|3:0,0:0:0:0:
327,253,60017,2,0,L|371:253,2,45,8|8|8,3:0|0:0|0:0,0:0:0:0:
292,105,60486,1,2,0:0:0:0:
208,156,60720,1,8,3:0:0:0:
208,156,60837,1,8,3:0:0:0:
208,156,60954,1,8,0:0:0:0:
71,53,61189,1,8,0:0:0:0:
110,139,61423,1,8,3:0:0:0:
120,163,61540,1,8,3:0:0:0:
123,189,61658,6,0,B|94:245|94:245|94:293|94:293|58:364,1,180,6|8,0:0|0:0,0:0:0:0:
179,264,62361,2,0,L|275:265,1,90,2|0,0:0|3:0,0:0:0:0:
126,168,62829,2,0,L|222:169,1,90,2|8,3:2|0:0,0:0:0:0:
376,137,63298,1,0,3:0:0:0:
340,59,63533,6,0,P|293:126|343:217,1,180,2|8,3:2|0:0,0:0:0:0:
495,161,64236,1,2,0:0:0:0:
407,224,64470,1,0,3:0:0:0:
319,287,64704,1,2,3:2:0:0:
376,137,64939,1,8,0:0:0:0:
444,307,65173,1,0,3:0:0:0:
407,224,65408,6,0,B|370:201|333:220|333:220|302:265|238:254,1,180,6|8,0:0|0:0,0:0:0:0:
133,138,66111,2,0,P|178:154|204:204,1,90,2|0,0:0|3:0,0:0:0:0:
45,217,66579,1,2,3:2:0:0:
128,117,66814,1,8,0:0:0:0:
200,187,67048,1,0,3:0:0:0:
342,68,67283,6,0,P|378:31|506:-1,1,180,6|8,3:2|0:0,0:0:0:0:
377,141,67986,1,2,0:0:0:0:
264,43,68220,1,0,3:0:0:0:
128,117,68454,1,2,3:2:0:0:
255,141,68689,1,8,0:0:0:0:
255,141,68806,1,8,0:0:0:0:
255,141,68923,1,8,0:0:0:0:
210,221,69158,6,0,L|24:214,1,180,6|8,0:0|0:0,0:0:0:0:
128,117,69861,2,0,L|30:117,1,90,2|0,0:0|3:0,0:0:0:0:
120,218,70329,2,0,L|210:221,1,90,2|8,3:2|0:0,0:0:0:0:
294,91,70798,6,0,P|277:137|290:177,1,90,2|0,0:0|3:0,0:0:0:0:
382,274,71267,2,0,P|399:228|386:188,1,90,2|8,0:0|0:0,0:0:0:0:
460,325,71736,1,2,0:0:0:0:
382,274,71970,1,0,3:0:0:0:
319,343,72205,1,2,3:2:0:0:
185,237,72439,1,8,0:0:0:0:
297,99,72673,1,0,3:0:0:0:
204,133,72908,6,0,B|221:168|256:187|256:187|265:224|265:224|295:238|311:269,1,180,6|8,0:0|0:0,0:0:0:0:
299,357,73611,1,0,3:0:0:0:
185,237,73845,2,0,L|85:242,1,90,4|0,0:0|3:0,0:0:0:0:
230,308,74314,1,8,0:0:0:0:
366,184,74548,6,0,B|413:177|413:177|465:197,1,90,4|0,0:0|0:0,0:0:0:0:
499,259,75017,1,8,0:3:0:0:
494,119,75251,2,0,L|498:74,2,45,8|8|8,0:0|3:0|3:0,0:0:0:0:
378,256,75720,1,8,0:3:0:0:
372,220,75837,1,8,0:3:0:0:
366,184,75954,1,8,0:3:0:0:
410,97,76189,1,8,0:0:0:0:
268,178,76423,1,8,0:3:0:0:
234,190,76540,1,8,0:3:0:0:
198,192,76658,6,0,P|111:164|45:232,1,180,6|8,0:0|0:0,0:0:0:0:
195,301,77361,2,0,P|153:281|124:223,1,90,2|0,0:0|3:0,0:0:0:0:
193,108,77829,2,0,P|151:128|122:186,1,90,2|8,3:2|0:0,0:0:0:0:
215,208,78298,1,0,3:0:0:0:
97,65,78533,6,0,P|50:25|6:10,1,90,6|0,0:0|0:0,0:0:0:0:
127,163,79001,1,8,0:0:0:0:
182,14,79236,1,8,0:3:0:0:
182,14,79353,1,8,0:3:0:0:
182,14,79470,1,8,0:3:0:0:
51,135,79704,1,0,3:0:0:0:
164,250,79939,1,8,0:0:0:0:
203,240,80056,1,8,0:0:0:0:
242,249,80173,1,8,0:0:0:0:
273,274,80290,1,8,0:0:0:0:
290,310,80408,6,0,L|289:132,1,180,2|0,0:0|0:0,0:0:0:0:
279,49,81579,2,0,L|225:43,2,45,2|0|2,0:0|0:0|0:0,0:0:0:0:
138,86,82283,6,0,P|105:93|74:108,1,67.5000025749208,2|0,3:2|0:0,0:0:0:0:
193,156,82751,2,0,P|226:163|257:178,1,67.5000025749208,0|0,3:0|0:0,0:0:0:0:
197,304,83220,2,0,L|202:218,1,67.5000025749208,2|0,3:2|0:0,0:0:0:0:
237,380,83689,1,0,3:0:0:0:
115,318,83923,6,0,P|77:308|41:302,1,67.5000025749208,2|0,0:0|3:0,0:0:0:0:
200,236,84392,2,0,P|238:226|343:217,1,135.000005149842,2|0,0:0|0:0,0:0:0:0:
408,276,85095,2,0,L|392:348,1,67.5000025749208,0|0,3:0|0:0,0:0:0:0:
495,275,85564,1,2,3:2:0:0:
460,197,85798,1,0,3:0:0:0:
333,216,86033,6,0,L|261:240,1,67.5000025749208,2|0,3:2|0:0,0:0:0:0:
207,135,86501,2,0,L|279:159,1,67.5000025749208,2|0,3:2|0:0,0:0:0:0:
268,237,86970,1,0,3:0:0:0:
139,183,87204,2,0,P|96:180|63:194,1,67.5000025749208,2|0,0:0|3:0,0:0:0:0:
271,156,87673,6,0,L|428:151,1,135.000005149842,2|0,0:0|0:0,0:0:0:0:
512,230,88376,2,0,L|511:151,1,67.5000025749208,0|0,3:0|0:0,0:0:0:0:
410,230,88845,2,0,L|412:311,1,67.5000025749208,0|0,3:0|0:0,0:0:0:0:
325,267,89314,1,2,3:2:0:0:
264,354,89548,1,0,3:0:0:0:
124,285,89783,6,0,P|88:295|56:324,1,67.5000025749208,6|0,3:2|0:0,0:0:0:0:
204,382,90251,2,0,P|240:372|272:343,1,67.5000025749208,0|0,3:0|0:0,0:0:0:0:
219,208,90720,1,2,3:2:0:0:
202,306,90954,1,0,0:0:0:0:
142,203,91189,1,0,3:0:0:0:
298,198,91423,6,0,P|339:197|376:193,1,67.5000025749208,2|0,0:0|3:0,0:0:0:0:
217,109,91892,2,0,L|223:197,1,67.5000025749208,2|0,0:0|3:0,0:0:0:0:
136,83,92361,2,0,P|95:82|58:78,1,67.5000025749208,2|0,0:0|3:0,0:0:0:0:
207,31,92829,1,0,0:0:0:0:
292,88,93064,1,0,3:0:0:0:
392,33,93298,1,0,3:0:0:0:
499,144,93533,5,4,3:2:0:0:
428,112,93767,1,8,0:3:0:0:
301,202,94001,1,0,3:0:0:0:
418,248,94236,1,8,0:3:0:0:
228,306,94470,1,8,0:0:0:0:
345,265,94704,1,8,0:3:0:0:
203,200,94939,1,8,0:0:0:0:
370,146,95173,2,0,L|390:203,1,33.7500012874604,8|8,0:3|0:3,0:0:0:0:
438,256,95408,6,0,L|426:300,3,33.7500012874604,0|8|8|8,3:0|0:3|0:0|0:3,0:0:0:0:
345,323,95876,2,0,L|353:290,3,33.7500012874604,8|8|8|8,0:0|0:3|0:0|0:3,0:0:0:0:
290,228,96345,5,8,3:3:0:0:
253,219,96462,1,8,0:3:0:0:
223,232,96579,1,8,0:3:0:0:
204,260,96697,1,8,0:3:0:0:
210,301,96814,5,8,3:3:0:0:
177,278,96931,1,8,0:3:0:0:
144,255,97048,1,8,0:3:0:0:
114,227,97165,1,8,0:3:0:0:
92,203,97283,6,0,L|116:357,1,153.000002918243,6|8,0:0|0:0,0:0:0:0:
30,306,97986,1,0,0:0:0:0:
202,368,98220,2,0,P|239:360|276:349,1,76.5000014591217,2|0,3:2|0:0,0:0:0:0:
338,289,98689,1,8,0:0:0:0:
206,205,98923,6,0,L|223:307,1,76.5000014591217,2|0,0:0|3:0,0:0:0:0:
286,129,99392,2,0,P|233:169|150:126,1,153.000002918243,2|0,0:0|0:0,0:0:0:0:
218,88,100095,1,0,3:0:0:0:
329,209,100329,1,2,0:0:0:0:
392,154,100564,1,8,0:0:0:0:
271,270,100798,1,0,0:0:0:0:
157,214,101033,6,0,P|110:207|76:218,1,76.5000014591217,2|0,3:2|0:0,0:0:0:0:
122,309,101501,2,0,P|169:302|203:313,1,76.5000014591217,10|0,0:0|0:0,0:0:0:0:
254,372,101970,1,0,3:0:0:0:
299,269,102204,2,0,L|292:179,1,76.5000014591217,2|8,0:0|0:0,0:0:0:0:
148,124,102673,6,0,P|217:86|284:119,1,153.000002918243,2|0,0:0|0:0,0:0:0:0:
377,203,103376,1,8,0:0:0:0:
449,158,103611,2,0,P|472:113|473:85,1,76.5000014591217,2|0,0:0|3:0,0:0:0:0:
335,24,104079,2,0,L|417:56,2,76.5000014591217,2|8|2,0:0|0:0|0:0,0:0:0:0:
240,187,104783,5,2,3:2:0:0:
288,105,105017,1,0,0:0:0:0:
335,24,105251,1,8,0:0:0:0:
250,30,105486,1,0,0:0:0:0:
320,178,105720,2,0,L|419:180,1,76.5000014591217,2|0,3:2|0:0,0:0:0:0:
286,260,106189,1,8,0:0:0:0:
165,207,106423,6,0,P|137:175|130:138,1,76.5000014591217,2|0,0:0|3:0,0:0:0:0:
91,270,106892,2,0,L|4:267,1,76.5000014591217,2|8,0:0|0:0,0:0:0:0:
189,289,107361,2,0,P|217:321|224:358,1,76.5000014591217,2|0,0:0|3:0,0:0:0:0:
256,229,107829,1,2,0:0:0:0:
224,353,108064,1,8,0:0:0:0:
307,311,108298,1,0,0:0:0:0:
388,269,108533,6,0,L|384:112,1,153.000002918243,2|8,3:2|0:0,0:0:0:0:
332,37,109236,1,0,0:0:0:0:
267,99,109470,1,2,3:2:0:0:
172,44,109704,1,0,0:0:0:0:
280,111,109939,1,8,0:0:0:0:
209,160,110173,1,0,0:0:0:0:
362,199,110408,5,0,3:0:0:0:
281,244,110642,2,0,L|240:223,3,25.5000004863739,8|8|8|8,0:3|0:3|0:3|0:0,0:0:0:0:
316,329,111111,2,0,L|275:350,3,25.5000004863739,8|8|8|8,0:3|0:3|0:3|0:0,0:0:0:0:
390,224,111579,6,0,L|362:199,1,38.2500007295609,2|0,0:0|0:0,0:0:0:0:
474,271,111814,1,0,1:0:0:0:
443,294,111931,1,8,0:3:0:0:
413,317,112048,1,8,3:2:0:0:
457,178,112283,5,6,0:0:0:0:
422,90,112517,1,0,0:0:0:0:
279,146,112751,1,8,0:0:0:0:
339,85,112986,2,0,L|334:1,1,76.5000014591217,2|0,0:0|3:0,0:0:0:0:
422,90,113454,1,2,3:2:0:0:
279,146,113689,1,8,0:0:0:0:
346,191,113923,6,0,P|314:242|234:306,1,153.000002918243,2|0,0:0|0:0,0:0:0:0:
138,356,114626,1,8,0:0:0:0:
63,266,114861,2,0,P|48:220|20:191,1,76.5000014591217,2|0,0:0|3:0,0:0:0:0:
104,145,115329,2,0,P|119:191|147:220,1,76.5000014591217,0|8,3:0|0:0,0:0:0:0:
167,63,115798,5,0,0:0:0:0:
184,144,116033,2,0,B|264:165|249:106|340:135,1,153.000002918243,2|8,3:2|0:0,0:0:0:0:
314,278,116736,2,0,L|295:195,1,76.5000014591217,2|0,0:0|3:0,0:0:0:0:
349,58,117204,2,0,L|330:141,1,76.5000014591217,2|8,3:2|0:0,0:0:0:0:
381,202,117673,1,0,0:0:0:0:
339,51,117908,5,0,3:0:0:0:
261,78,118142,1,0,0:0:0:0:
182,84,118376,1,8,0:0:0:0:
102,65,118611,1,0,0:0:0:0:
91,223,118845,1,0,3:0:0:0:
128,147,119079,1,0,3:0:0:0:
133,300,119314,1,8,0:0:0:0:
184,218,119548,2,0,P|213:204|245:196,1,38.2500007295609,2|0,0:0|0:0,0:0:0:0:
245,194,119783,6,0,P|283:208|339:222,1,80.9999975280763,6|0,0:0|0:0,0:0:0:0:
343,224,120251,2,0,L|350:283,1,53.9999983520508,2|8,0:0|0:3,0:0:0:0:
364,111,120720,1,8,0:0:0:0:
438,186,120954,2,0,L|409:181,2,26.9999991760254
385,25,121423,1,0,3:0:0:0:
364,111,121658,6,0,P|322:117|258:117,2,80.9999975280763,8|0|8,0:3|3:0|0:3,0:0:0:0:
364,111,122595,2,0,L|409:197,2,80.9999975280763,8|2|0,0:0|0:0|3:0,0:0:0:0:
318,205,123533,6,0,P|280:235|235:252,1,80.9999975280763,0|0,3:0|0:0,0:0:0:0:
216,241,124001,2,0,P|179:227|162:225,1,53.9999983520508,2|8,0:0|0:3,0:0:0:0:
67,317,124470,2,0,P|90:280|92:232,1,80.9999975280763,8|0,0:0|0:0,0:0:0:0:
83,234,124939,1,0,0:0:0:0:
106,381,125173,1,0,3:0:0:0:
216,241,125408,5,6,0:0:0:0:
291,352,125642,1,8,0:3:0:0:
298,325,125759,1,8,0:3:0:0:
305,299,125876,1,12,0:0:0:0:
389,367,126111,1,2,0:0:0:0:
400,249,126345,6,0,L|402:86,1,157.5,2|0,0:0|0:0,0:0:0:0:
404,78,127283,6,0,B|333:93|293:38|293:38|218:96|218:96|194:22|107:49,1,346.49998942566,2|0,0:0|0:0,0:0:0:0:
97,56,128689,6,0,P|122:110|94:171,1,108,8|0,0:3|0:0,0:0:0:0:
95,183,129158,6,0,B|197:147|161:228|270:209,1,180,6|8,0:0|0:0,0:0:0:0:
381,290,129861,2,0,P|341:284|286:303,1,90,2|0,0:0|3:0,0:0:0:0:
462,206,130329,2,0,P|422:212|367:193,1,90,2|8,3:2|0:0,0:0:0:0:
199,46,130798,6,0,B|212:105|212:105|248:147|248:147|264:213,1,180,2|0,0:0|0:0,0:0:0:0:
287,71,131501,2,0,L|391:73,1,90,8|2,0:0|0:0,0:0:0:0:
180,182,131970,1,0,3:0:0:0:
285,206,132204,1,0,3:0:0:0:
147,278,132439,1,8,0:0:0:0:
85,135,132673,1,2,0:0:0:0:
285,206,132908,6,0,P|356:217|488:209,1,180,6|8,0:0|0:0,0:0:0:0:
489,77,133611,2,0,P|442:95|399:100,1,90,2|0,0:0|3:0,0:0:0:0:
272,133,134079,2,0,P|296:119|314:113,1,45,2|0,3:2|0:0,0:0:0:0:
188,106,134314,2,0,P|188:133|184:152,1,45,10|0,0:0|0:0,0:0:0:0:
254,45,134548,2,0,P|229:31|215:18,1,45,0|0,3:0|0:0,0:0:0:0:
98,103,134783,6,0,L|188:106,1,90,6|0,0:0|0:0,0:0:0:0:
59,187,135251,1,8,0:0:0:0:
235,246,135486,2,0,L|145:243,1,90,4|0,0:0|3:0,0:0:0:0:
272,167,135954,1,2,3:2:0:0:
286,330,136189,1,8,0:0:0:0:
356,279,136423,1,0,3:0:0:0:
400,282,136540,1,0,3:0:0:0:
437,306,136658,6,0,P|439:255|453:214,1,90,6|0,3:2|0:0,0:0:0:0:
370,355,137126,1,8,0:0:0:0:
337,204,137361,2,0,P|309:160|277:132,1,90,2|0,0:0|3:0,0:0:0:0:
298,0,137829,2,0,P|270:43|238:71,1,90,2|8,3:2|0:0,0:0:0:0:
105,159,138298,6,0,L|198:142,1,90,2|0,0:0|3:0,0:0:0:0:
98,269,138767,2,0,L|5:252,1,90,2|8,0:0|0:0,0:0:0:0:
230,348,139236,2,0,P|269:317|324:312,1,90,2|0,0:0|3:0,0:0:0:0:
452,231,139704,1,2,3:2:0:0:
325,231,139939,1,8,0:0:0:0:
199,231,140173,1,2,3:2:0:0:
129,186,140408,6,0,B|162:234|162:234|172:287|172:287|211:344,1,180,6|8,0:0|0:0,0:0:0:0:
92,264,141111,1,0,0:0:0:0:
284,360,141345,2,0,P|326:331|369:317,1,90,4|0,0:0|0:0,0:0:0:0:
464,306,141814,1,8,0:0:0:0:
266,195,142048,6,0,P|308:224|351:238,1,90,6|0,0:0|0:0,0:0:0:0:
341,135,142517,2,0,L|322:87,2,45,8|8|8,3:0|0:0|0:0,0:0:0:0:
184,222,142986,1,2,0:0:0:0:
344,236,143220,1,8,3:0:0:0:
353,270,143337,1,8,3:0:0:0:
348,305,143454,1,8,0:0:0:0:
413,187,143689,1,8,0:0:0:0:
253,218,143923,1,8,3:0:0:0:
219,227,144040,1,8,3:0:0:0:
184,222,144158,6,0,P|143:135|191:71,1,180,6|8,0:0|0:0,0:0:0:0:
56,150,144861,2,0,P|110:135|155:144,1,90,2|0,0:0|3:0,0:0:0:0:
278,148,145329,2,0,P|332:163|377:154,1,90,2|8,3:2|0:0,0:0:0:0:
341,285,145798,2,0,P|318:300|299:321,1,45,2|0,3:2|0:0,0:0:0:0:
298,327,146033,6,0,L|279:149,1,180,2|8,3:2|0:0,0:0:0:0:
206,220,146736,1,2,0:0:0:0:
67,65,146970,1,0,3:0:0:0:
162,125,147204,1,2,3:2:0:0:
278,149,147439,1,8,0:0:0:0:
206,220,147673,1,2,3:2:0:0:
382,115,147908,6,0,B|418:221|345:203|383:312,1,180,6|8,0:0|0:0,0:0:0:0:
250,358,148611,2,0,P|213:330|155:326,1,90,2|0,0:0|3:0,0:0:0:0:
28,341,149079,1,2,3:2:0:0:
163,307,149314,1,8,0:0:0:0:
250,358,149548,1,2,3:2:0:0:
69,261,149783,6,0,L|71:172,1,90,6|0,0:0|0:0,0:0:0:0:
125,63,150251,1,8,0:0:0:0:
148,218,150486,1,0,3:0:0:0:
265,193,150720,1,0,3:0:0:0:
366,246,150954,1,2,0:0:0:0:
344,159,151189,1,8,0:0:0:0:
344,159,151306,1,8,0:0:0:0:
344,159,151423,1,8,0:0:0:0:
398,85,151658,6,0,B|335:73|335:73|284:92|284:92|197:71,1,180,6|8,0:0|0:0,0:0:0:0:
109,188,152361,2,0,L|121:282,1,90,2|0,0:0|3:0,0:0:0:0:
235,166,152829,2,0,L|223:76,1,90,2|8,3:2|0:0,0:0:0:0:
388,244,153298,6,0,P|333:234|293:236,1,90,2|0,0:2|3:0,0:0:0:0:
120,277,153767,2,0,P|175:267|215:269,1,90,2|8,0:0|0:0,0:0:0:0:
47,300,154236,1,2,0:0:0:0:
92,208,154470,1,0,3:0:0:0:
35,121,154704,1,0,3:0:0:0:
196,189,154939,1,8,0:0:0:0:
360,131,155173,1,2,0:0:0:0:
266,115,155408,6,0,B|254:216|332:181|310:295,1,180,6|8,0:0|0:0,0:0:0:0:
210,265,156111,1,0,3:0:0:0:
360,131,156345,2,0,P|420:132|460:156,1,90,4|8,0:0|0:3,0:0:0:0:
388,221,156814,1,8,0:0:0:0:
266,115,157048,6,0,P|224:131|179:128,1,90,6|0,0:0|0:0,0:0:0:0:
55,69,157517,1,0,3:0:0:0:
82,165,157751,2,0,L|73:231,2,45,8|8|0,0:0|3:0|3:0,0:0:0:0:
20,289,158220,1,8,0:3:0:0:
55,294,158337,1,8,0:3:0:0:
91,299,158454,1,8,0:3:0:0:
179,384,158689,1,8,0:0:0:0:
266,242,158923,1,8,0:3:0:0:
299,222,159040,1,8,0:3:0:0:
337,232,159158,6,0,P|361:152|288:83,1,180,6|8,0:0|0:0,0:0:0:0:
114,118,159861,2,0,P|158:116|198:136,1,90,2|0,0:0|3:0,0:0:0:0:
361,148,160329,2,0,P|316:146|276:166,1,90,2|8,3:2|0:0,0:0:0:0:
165,234,160798,1,0,3:0:0:0:
337,232,161033,6,0,L|342:332,1,90,6|0,0:2|0:0,0:0:0:0:
422,270,161501,1,8,0:0:0:0:
261,209,161736,1,8,0:3:0:0:
261,209,161853,1,8,0:3:0:0:
261,209,161970,1,8,0:3:0:0:
347,340,162204,1,0,3:0:0:0:
481,190,162439,1,8,0:0:0:0:
498,153,162556,1,8,0:0:0:0:
500,113,162673,1,8,0:0:0:0:
486,76,162790,1,8,0:0:0:0:
451,55,162908,6,0,P|384:77|310:48,1,135,6|0,0:0|0:0,0:0:0:0:
306,47,163376,1,8,3:2:0:0:
215,162,163611,2,0,L|405:158,1,180,10|0,0:3|3:0,0:0:0:0:
303,239,164314,1,8,0:0:0:0:
160,105,164548,6,0,P|115:94|67:108,2,90,2|0|0,3:2|3:0|3:0,0:0:0:0:
38,172,165251,1,8,0:0:0:0:
186,179,165486,2,0,P|238:123|192:36,1,180,2|0,0:2|3:0,0:0:0:0:
160,105,166189,1,8,0:0:0:0:
322,77,166423,5,2,3:2:0:0:
322,90,166658,2,0,P|301:155|293:283,1,180,6|8,0:0|0:0,0:0:0:0:
330,364,167361,1,0,0:0:0:0:
188,295,167595,1,0,3:0:0:0:
291,265,167829,1,0,3:0:0:0:
395,236,168064,2,0,P|443:231|484:239,1,90,8|2,3:2|0:0,0:0:0:0:
291,265,168533,1,0,3:0:0:0:
328,196,168767,5,2,0:0:0:0:
277,339,169001,1,8,0:0:0:0:
176,177,169236,1,8,0:3:0:0:
291,265,169470,1,0,3:0:0:0:
115,354,169704,1,2,3:2:0:0:
183,306,169939,1,8,0:0:0:0:
183,306,170056,1,8,0:0:0:0:
183,306,170173,1,8,0:0:0:0:
248,351,170408,6,0,L|384:337,1,135,6|0,0:0|0:0,0:0:0:0:
405,342,170876,1,8,3:2:0:0:
309,266,171111,2,0,P|302:213|330:86,1,180,10|0,0:3|3:0,0:0:0:0:
240,103,171814,1,8,0:0:0:0:
390,147,172048,5,0,3:0:0:0:
303,188,172283,2,0,L|137:185,1,135,8|0,3:2|0:0,0:0:0:0:
152,194,172751,1,8,0:0:0:0:
299,280,172986,2,0,B|409:266|342:208|476:194,1,180,2|0,0:0|3:0,0:0:0:0:
444,282,173689,1,8,0:0:0:0:
231,237,173923,1,0,3:0:0:0:
228,220,174158,6,0,P|238:152|228:25,1,180,6|8,3:2|0:0,0:0:0:0:
322,169,174861,2,0,P|362:137|402:125,1,90,2|0,0:0|3:0,0:0:0:0:
293,285,175329,1,0,3:0:0:0:
229,221,175564,1,8,3:2:0:0:
165,157,175798,2,0,P|119:151|72:169,1,90,2|0,3:2|3:0,0:0:0:0:
229,221,176267,5,2,0:0:0:0:
162,75,176501,1,8,0:0:0:0:
123,227,176736,1,0,3:0:0:0:
251,77,176970,1,0,3:0:0:0:
317,238,177204,1,8,0:3:0:0:
169,88,177439,2,0,P|162:49|162:23,1,45,8|8,0:0|0:0,0:0:0:0:
318,115,177673,2,0,P|325:76|325:50,1,45,8|8,0:3|0:0,0:0:0:0:
229,221,177908,5,6,0:0:0:0:
343,317,178142,1,2,0:0:0:0:
317,238,178376,1,8,0:0:0:0:
174,309,178611,1,8,0:3:0:0:
174,309,178728,1,8,0:3:0:0:
174,309,178845,2,0,L|268:293,1,90,8|0,0:3|3:0,0:0:0:0:
379,192,179314,2,0,L|180:233,1,180,8|0,0:0|3:0,0:0:0:0:
108,151,180017,5,2,0:0:0:0:
280,187,180251,1,8,0:0:0:0:
103,235,180486,1,8,0:3:0:0:
250,111,180720,1,0,3:0:0:0:
40,158,180954,5,2,3:2:0:0:
202,228,181189,1,10,0:0:0:0:
345,123,181423,1,2,3:2:0:0:
294,202,181658,6,0,P|304:233|309:265,1,45,6|0,0:1|0:0,0:0:0:0:
227,138,181892,1,2,0:0:0:0:
149,273,182126,1,2,3:2:0:0:
210,218,182361,1,0,0:0:0:0:
210,218,182478,1,0,0:0:0:0:
210,218,182595,6,0,P|181:199|160:192,3,30,2|0|0|0,0:1|0:0|0:0|3:0,0:0:0:0:
126,278,183064,6,0,L|132:331,3,30,2|0|0|0,0:1|0:0|0:0|3:0,0:0:0:0:
224,344,183533,6,0,L|215:286,3,30,2|0|0|0,3:1|0:0|0:0|3:0,0:0:0:0:
324,306,184001,6,0,P|299:316|277:320,3,30,2|0|0|0,3:1|0:0|0:0|0:0,0:0:0:0:
300,216,184470,6,0,P|325:206|354:201,3,30,2|0|0|0,3:1|0:0|0:0|3:0,0:0:0:0:
298,102,184939,5,8,0:0:0:0:
257,102,185056,1,8,0:0:0:0:
217,103,185173,1,8,0:0:0:0:
176,104,185290,1,8,0:0:0:0:
133,107,185408,6,0,B|86:103|86:103|45:114|45:114|-6:111,1,125.999996154785,6|0,0:0|0:0,0:0:0:0:
16,200,186111,2,0,P|45:229|60:257,1,62.9999980773926,2|0,0:0|0:0,0:0:0:0:
107,310,186579,2,0,P|83:331|66:357,1,62.9999980773926,2|0,0:0|0:0,0:0:0:0:
195,354,187048,6,0,L|181:223,1,125.999996154785,6|0,3:2|0:0,0:0:0:0:
237,164,187751,1,0,0:0:0:0:
296,239,187986,1,2,0:0:0:0:
378,194,188220,1,0,0:0:0:0:
435,269,188454,1,2,0:0:0:0:
361,286,188689,2,0,L|380:360,1,62.9999980773926,4|2,3:2|0:0,0:0:0:0:
502,339,189158,6,0,L|377:346,1,125.999996154785,6|0,0:0|0:0,0:0:0:0:
243,314,189861,2,0,L|305:310,1,62.9999980773926,2|0,0:0|0:0,0:0:0:0:
203,236,190329,2,0,L|141:240,1,62.9999980773926,2|0,0:0|0:0,0:0:0:0:
243,314,190798,1,0,3:0:0:0:
285,182,191033,5,2,0:0:0:0:
283,167,191267,1,2,0:0:0:0:
339,256,191501,1,0,0:0:0:0:
212,129,191736,1,8,0:0:0:0:
181,123,191853,1,8,0:0:0:0:
150,125,191970,1,8,0:0:0:0:
120,136,192087,1,8,0:0:0:0:
95,155,192204,1,8,0:0:0:0:
238,53,192439,1,8,0:0:0:0:
269,59,192556,1,8,0:0:0:0:
300,57,192673,1,8,0:0:0:0:
330,46,192790,1,8,0:0:0:0:
357,31,192908,6,0,P|347:76|343:126,1,80.9999975280763,6|0,0:0|3:0,0:0:0:0:
491,146,193376,2,0,P|446:156|396:160,1,80.9999975280763,8|0,0:0|3:0,0:0:0:0:
260,136,193845,2,0,P|215:126|165:122,1,80.9999975280763,8|0,0:0|3:0,0:0:0:0:
276,218,194314,1,8,0:0:0:0:
115,175,194548,6,0,P|105:130|101:80,1,80.9999975280763,6|0,0:0|3:0,0:0:0:0:
51,272,195017,2,0,P|96:262|146:258,1,80.9999975280763,10|0,0:0|3:0,0:0:0:0:
255,137,195486,2,0,P|192:184|114:174,1,161.999995056153,2|0,3:2|3:0,0:0:0:0:
212,263,196189,2,0,P|257:273|307:277,1,80.9999975280763,8|0,0:0|0:0,0:0:0:0:
420,200,196658,5,6,0:0:0:0:
416,181,196892,1,0,3:0:0:0:
342,68,197126,5,8,0:0:0:0:
338,87,197360,1,0,3:0:0:0:
199,7,197595,6,0,L|168:122,1,80.9999975280763,6|0,0:0|3:0,0:0:0:0:
100,90,198064,1,8,0:0:0:0:
234,147,198298,6,0,L|203:262,1,80.9999975280763,6|0,0:0|3:0,0:0:0:0:
235,297,198767,1,2,0:0:0:0:
141,198,199001,1,2,3:0:0:0:
141,198,199118,1,2,3:0:0:0:
141,198,199236,1,2,3:0:0:0:
288,91,199470,5,8,0:0:0:0:
325,76,199587,1,8,0:0:0:0:
365,80,199704,1,8,0:0:0:0:
400,100,199821,1,8,0:0:0:0:
418,135,199939,5,8,3:2:0:0:
416,170,200056,1,8,3:2:0:0:
414,207,200173,1,8,3:2:0:0:
413,242,200290,1,8,3:2:0:0:
412,282,200408,6,0,B|379:285|354:261|354:261|306:307|233:278,1,180,6|8,0:0|0:0,0:0:0:0:
260,125,201111,2,0,P|286:165|283:222,1,90,2|0,0:0|3:0,0:0:0:0:
132,147,201579,2,0,P|178:156|216:199,1,90,2|8,3:2|0:0,0:0:0:0:
373,77,202048,6,0,L|176:73,1,180,2|0,3:2|0:0,0:0:0:0:
34,164,202751,1,8,0:0:0:0:
135,232,202986,1,2,0:0:0:0:
84,77,203220,1,0,3:0:0:0:
132,147,203454,1,2,3:2:0:0:
281,76,203689,1,8,0:0:0:0:
348,227,203923,1,0,3:0:0:0:
421,193,204158,6,0,P|363:149|270:205,1,180,6|8,0:0|0:0,0:0:0:0:
124,230,204861,2,0,P|176:220|217:242,1,90,2|0,0:0|3:0,0:0:0:0:
56,276,205329,1,2,3:2:0:0:
104,141,205564,1,8,0:0:0:0:
10,115,205798,1,0,3:0:0:0:
212,152,206033,6,0,P|184:211|164:329,1,180,6|8,3:2|0:0,0:0:0:0:
286,159,206736,1,2,0:0:0:0:
147,252,206970,1,0,3:0:0:0:
39,126,207204,1,0,3:0:0:0:
84,199,207439,1,8,0:0:0:0:
84,199,207556,1,8,0:0:0:0:
84,199,207673,1,8,0:0:0:0:
54,273,207908,6,0,B|163:289|115:215|247:239,1,180,6|8,0:0|0:0,0:0:0:0:
371,201,208611,2,0,P|314:182|267:184,1,90,2|0,0:0|3:0,0:0:0:0:
144,138,209079,2,0,P|201:119|248:121,1,90,2|8,3:2|0:0,0:0:0:0:
313,266,209548,6,0,B|323:314|323:314|310:360,1,90,2|0,0:0|3:0,0:0:0:0:
142,225,210017,2,0,B|132:177|132:177|145:131,1,90,2|8,0:0|0:0,0:0:0:0:
280,30,210486,1,2,0:0:0:0:
371,87,210720,1,0,3:0:0:0:
474,57,210954,1,2,3:2:0:0:
349,184,211189,1,8,0:0:0:0:
209,74,211423,1,0,3:0:0:0:
143,137,211658,6,0,B|112:193|112:193|107:267|183:308,1,180,6|8,0:0|0:0,0:0:0:0:
240,343,212361,1,0,3:0:0:0:
404,241,212595,2,0,P|366:258|309:252,1,90,4|0,0:0|3:0,0:0:0:0:
447,318,213064,1,8,0:0:0:0:
349,178,213298,6,0,P|304:174|263:192,1,90,6|0,0:0|3:0,0:0:0:0:
168,295,213767,1,8,0:3:0:0:
163,153,214001,2,0,L|177:208,2,45,8|0|8,3:0|3:0|3:0,0:0:0:0:
23,201,214470,1,8,0:3:0:0:
58,199,214587,1,8,0:3:0:0:
94,198,214704,1,8,0:3:0:0:
168,295,214939,1,8,0:0:0:0:
244,125,215173,1,8,0:3:0:0:
277,109,215290,1,8,0:3:0:0:
312,118,215408,6,0,B|356:124|381:96|381:96|415:157|487:152,1,180,6|8,0:0|0:0,0:0:0:0:
298,216,216111,2,0,L|203:213,1,90,2|0,0:0|3:0,0:0:0:0:
301,316,216579,2,0,L|390:318,1,90,2|8,3:2|0:0,0:0:0:0:
298,216,217048,1,0,3:0:0:0:
158,313,217283,6,0,P|112:323|61:300,1,90,6|0,0:0|0:0,0:0:0:0:
208,213,217751,1,8,0:0:0:0:
149,144,217986,2,0,P|128:186|121:236,1,90,2|0,0:0|3:0,0:0:0:0:
295,173,218454,2,0,P|274:131|267:81,1,90,2|8,3:2|0:0,0:0:0:0:
392,250,218923,1,0,3:0:0:0:
392,250,219040,1,0,3:0:0:0:
392,250,219158,6,0,P|345:296|270:289,1,135,6|0,3:2|0:0,0:0:0:0:
256,286,219626,1,8,0:0:0:0:
106,372,219861,2,0,P|150:354|210:367,1,90,2|0,0:0|3:0,0:0:0:0:
60,267,220329,1,2,3:2:0:0:
218,218,220564,1,8,0:0:0:0:
12,157,220798,6,0,B|65:122|116:157|116:157|156:170|199:141,1,180,6|8,0:0|3:0,0:0:0:0:
182,150,221384,1,8,3:0:0:0:
182,150,221501,1,8,3:0:0:0:
144,78,221736,1,2,0:0:0:0:
264,208,221970,1,8,0:3:0:0:
294,227,222087,1,8,0:3:0:0:
328,236,222204,1,8,0:3:0:0:
194,261,222439,1,8,0:0:0:0:
330,155,222673,1,8,0:3:0:0:
360,135,222790,1,8,0:3:0:0:
394,126,222908,6,0,B|340:110|340:110|286:117|286:117|196:89,1,180,6|8,0:0|0:0,0:0:0:0:
62,133,223611,2,0,B|109:128|109:128|159:149,1,90,2|0,0:0|3:0,0:0:0:0:
255,25,224079,2,0,B|208:20|208:20|158:41,1,90,2|8,3:2|0:0,0:0:0:0:
62,133,224548,1,0,3:0:0:0:
216,266,224783,6,0,P|232:227|218:172,1,90,6|0,0:0|0:0,0:0:0:0:
283,322,225251,1,8,0:0:0:0:
154,214,225486,1,8,0:3:0:0:
154,214,225603,1,8,0:3:0:0:
154,214,225720,1,8,0:3:0:0:
307,238,225954,1,0,3:0:0:0:
93,286,226189,1,8,0:0:0:0:
65,256,226306,1,8,0:0:0:0:
54,217,226423,1,8,0:0:0:0:
60,178,226540,1,8,0:0:0:0:
82,144,226658,6,0,L|199:153,1,107.999996704102,6|0,0:0|3:0,0:0:0:0:
218,231,227361,1,2,0:0:0:0:
297,144,227595,2,0,L|189:151,1,107.999996704102,2|2,1:3|0:0,0:0:0:0:
132,228,228298,6,0,P|104:216|26:225,1,107.999996704102,0|0,3:0|0:0,0:0:0:0:
79,297,229001,1,0,3:0:0:0:
189,151,229470,1,2,1:3:0:0:
189,151,229939,5,2,0:0:0:0:
272,154,230173,1,2,0:0:0:0:
355,154,230408,2,0,P|347:113|352:40,1,107.999996704102,2|0,3:2|3:0,0:0:0:0:
424,102,231111,1,2,0:0:0:0:
268,101,231345,1,2,1:3:0:0:
268,101,231814,1,2,0:0:0:0:
355,154,232048,1,0,3:0:0:0:
247,198,232283,6,0,P|195:210|144:191,2,107.999996704102,2|0|2,0:1|3:0|1:3,0:0:0:0:
324,216,233454,2,0,L|394:219,1,53.9999983520508,0|0,3:0|0:0,0:0:0:0:
430,282,233923,6,0,L|388:298,1,26.9999991760254,2|0,0:0|0:0,0:0:0:0:
378,304,234158,2,0,L|263:295,1,107.999996704102,2|0,0:1|3:0,0:0:0:0:
225,220,234861,1,2,0:0:0:0:
93,233,235095,1,2,1:3:0:0:
93,233,235564,1,2,0:0:0:0:
155,308,235798,6,0,P|205:309|279:320,1,107.999996704102,2|0,3:2|0:0,0:0:0:0:
320,377,236501,1,0,3:0:0:0:
277,242,236970,1,2,1:3:0:0:
277,242,237439,5,2,0:0:0:0:
305,169,237673,1,2,0:0:0:0:
239,131,237908,2,0,P|221:81|250:25,1,107.999996704102,0|0,3:2|3:0,0:0:0:0:
149,82,238611,1,2,0:0:0:0:
301,82,238845,1,2,1:3:0:0:
301,82,239314,5,2,0:0:0:0:
229,147,239548,1,0,3:0:0:0:
344,161,239783,2,0,P|393:158|450:184,2,107.999996704102,2|0|2,0:1|3:0|1:3,0:0:0:0:
181,155,240954,5,0,3:0:0:0:
120,201,241189,1,2,0:0:0:0:
43,205,241423,1,2,0:0:0:0:
186,256,241658,6,0,P|214:279|232:312,1,67.5000025749208,6|0,3:2|0:0,0:0:0:0:
154,323,242126,1,0,3:0:0:0:
304,310,242361,2,0,L|441:310,1,135.000005149842,2|0,0:0|0:0,0:0:0:0:
499,266,243064,1,2,0:0:0:0:
421,203,243298,6,0,P|397:148|428:74,1,135.000005149842,2|0,3:2|0:0,0:0:0:0:
475,142,244001,1,0,3:0:0:0:
340,67,244236,2,0,P|278:42|217:66,1,135.000005149842,2|0,0:0|0:0,0:0:0:0:
171,163,244939,1,2,0:0:0:0:
174,252,245173,1,2,0:0:0:0:
174,333,245408,6,0,P|139:315|90:304,1,67.5000025749208,2|0,3:2|0:0,0:0:0:0:
243,285,245876,1,0,3:0:0:0:
296,341,246111,2,0,P|335:322|426:307,1,135.000005149842,2|0,0:0|0:0,0:0:0:0:
490,349,246814,1,2,0:0:0:0:
440,234,247048,6,0,L|284:231,1,135.000005149842,2|0,3:2|0:0,0:0:0:0:
193,250,247751,1,0,3:0:0:0:
241,183,247986,1,2,0:0:0:0:
137,130,248220,2,0,P|98:110|61:105,1,67.5000025749208,2|0,0:1|3:0,0:0:0:0:
193,70,248689,2,0,P|232:50|269:45,1,67.5000025749208,2|0,0:0|0:0,0:0:0:0:
350,100,249158,6,0,P|329:154|330:226,1,107.999996704102,2|0,3:2|3:0,0:0:0:0:
393,252,249861,1,2,0:0:0:0:
262,253,250095,1,2,1:3:0:0:
262,253,250564,1,0,0:0:0:0:
172,274,250798,6,0,P|132:250|59:238,1,107.999996704102,2|0,3:2|0:0,0:0:0:0:
13,309,251501,1,0,3:0:0:0:
72,237,251736,1,2,0:0:0:0:
138,353,251970,1,2,1:3:0:0:
138,353,252439,5,2,0:0:0:0:
215,362,252673,1,2,0:0:0:0:
296,374,252908,2,0,P|305:335|309:265,1,107.999996704102,2|0,3:1|3:0,0:0:0:0:
257,206,253611,1,2,0:0:0:0:
387,289,253845,1,2,1:3:0:0:
387,289,254314,1,2,0:0:0:0:
303,347,254548,6,0,P|254:336|192:327,1,107.999996704102,2|0,3:2|0:0,0:0:0:0:
87,326,255251,1,2,3:0:0:0:
305,284,255720,5,2,1:3:0:0:
190,226,255954,1,0,3:0:0:0:
295,182,256189,1,2,0:0:0:0:
137,133,256423,1,2,0:0:0:0:
338,105,256658,6,0,P|402:119|443:209,1,153.000002918243,2|0,3:2|3:0,0:0:0:0:
395,294,257361,1,2,0:0:0:0:
362,214,257595,2,0,P|390:246|403:289,1,76.5000014591217,2|0,1:0|0:0,0:0:0:0:
333,366,258064,1,2,0:0:0:0:
208,327,258298,6,0,B|137:286|132:351|48:311,1,153.000002918243,0|0,3:2|0:0,0:0:0:0:
5,207,259001,1,0,3:0:0:0:
100,247,259236,1,2,0:0:0:0:
189,149,259470,2,0,P|222:172|262:185,1,76.5000014591217,2|0,0:1|0:0,0:0:0:0:
364,161,259939,5,2,0:0:0:0:
413,221,260173,1,2,0:0:0:0:
394,295,260408,1,2,3:1:0:0:
394,295,260876,1,0,3:0:0:0:
328,340,261111,2,0,P|288:329|260:328,1,53.9999983520508,2|2,0:0|1:2,0:0:0:0:
275,327,261814,1,2,0:0:0:0:
219,271,262048,6,0,P|232:237|226:167,1,90,2|0,3:2|0:0,0:0:0:0:
193,121,262751,1,0,3:0:0:0:
248,66,262986,2,0,L|311:69,1,45,2|2,0:0|1:3,0:0:0:0:
293,148,263454,1,0,3:0:0:0:
353,231,263689,5,2,0:0:0:0:
424,205,263923,1,2,0:0:0:0:
495,239,264158,2,0,P|498:193|501:150,1,90,2|0,3:2|3:0,0:0:0:0:
457,92,264861,1,2,0:0:0:0:
387,126,265095,1,2,0:1:0:0:
387,126,265564,5,0,0:0:0:0:
312,129,265798,1,0,0:0:0:0:
237,128,266033,1,2,0:0:0:0:
237,128,266501,5,0,0:0:0:0:
250,165,266736,1,0,0:0:0:0:
262,194,266970,1,2,0:0:0:0:
370,225,267439,6,0,L|384:268,1,36,2|0,0:0|0:0,0:0:0:0:
362,290,267908,1,2,0:1:0:0:
