osu file format v14

[General]
AudioFilename: audio.mp3
AudioLeadIn: 0
PreviewTime: 127986
Countdown: 0
SampleSet: Soft
StackLeniency: 0.7
Mode: 0
LetterboxInBreaks: 0
WidescreenStoryboard: 1

[Editor]
DistanceSpacing: 1.1
BeatDivisor: 4
GridSize: 4
TimelineZoom: 2.000006

[Metadata]
Title:Yuudachi Houteishiki
TitleUnicode:夕立方程式
Artist:Oikura Sodachi (CV: Inoue Marina)
ArtistUnicode:老倉育 (CV: 井上麻里奈)
Creator:Alexsander
Version:Hard
Source:終物語
Tags:Owarimonogatari op 3 dvd blu-ray lost Full Version Anime Japanese
BeatmapID:1965616
BeatmapSetID:941228

[Difficulty]
HPDrainRate:5
CircleSize:4
OverallDifficulty:6
ApproachRate:7.2
SliderMultiplier:1.6
SliderTickRate:1

[Events]
//Background and Video events
0,0,"Sodachi.jpg",0,0
//Break Periods
//Storyboard Layer 0 (Background)
//Storyboard Layer 1 (Fail)
//Storyboard Layer 2 (Pass)
//Storyboard Layer 3 (Foreground)
//Storyboard Sound Samples

[TimingPoints]
1658,468.75,4,2,1,40,1,0
1658,-133.333333333333,4,2,1,40,0,0
16189,-133.333333333333,4,2,1,40,0,0
16540,-200,4,2,1,5,0,0
16658,-111.111111111111,4,2,1,60,0,0
31658,-111.111111111111,4,2,1,50,0,0
39158,-133.333333333333,4,2,1,45,0,0
46658,-100,4,2,1,80,0,1
80408,-166.666666666667,4,2,1,40,0,0
81345,-166.666666666667,4,2,1,5,0,0
81579,-166.666666666667,4,2,1,40,0,0
82283,-133.333333333333,4,2,1,50,0,0
97283,-111.111111111111,4,2,1,60,0,0
112283,-111.111111111111,4,2,1,50,0,0
119783,-133.333333333333,4,2,1,45,0,0
126111,-166.666666666667,4,2,1,45,0,0
126345,-166.666666666667,4,2,1,30,0,0
127283,-133.333333333333,4,2,1,40,0,0
128689,-133.333333333333,4,2,1,50,0,0
129158,-100,4,2,1,80,0,1
162908,-100,4,2,1,70,0,0
185408,-153.846153846154,4,2,1,40,0,0
192908,-111.111111111111,4,2,1,70,0,0
200408,-100,4,2,1,80,0,1
226658,-166.666666666667,4,2,1,40,0,0
241658,-133.333333333333,4,2,1,50,0,0
249158,-166.666666666667,4,2,1,40,0,0
256658,-117.647058823529,4,2,1,55,0,0
259939,-166.666666666667,4,2,1,40,0,0
262048,-200,4,2,1,30,0,0
263689,-200,4,2,1,20,0,0
265564,-200,4,2,1,15,0,0
266033,-250,4,2,1,15,0,0
267908,-250,4,2,1,10,0,0
271189,-333.333333333333,4,2,1,10,0,0
271658,-333.333333333333,4,2,1,10,0,0

[Colours]
Combo1 : 151,255,151
Combo2 : 254,218,222
Combo3 : 252,183,80

[HitObjects]
64,114,1658,6,0,P|90:164|95:193,1,60.0000022888184,2|0,0:1|0:0,0:0:0:0:
174,175,2126,2,0,P|157:228|140:252,1,60.0000022888184,0|0,0:0|0:0,0:0:0:0:
121,308,2595,2,0,L|268:309,1,120.000004577637,2|0,0:0|0:0,0:0:0:0:
324,297,3298,6,0,P|330:269|324:225,1,60.0000022888184,2|0,0:0|0:0,0:0:0:0:
390,181,3767,2,0,P|352:157|267:176,1,120.000004577637,2|0,0:0|0:0,0:0:0:0:
128,98,4704,2,0,L|49:98,2,60.0000022888184,0|0|0,0:0|0:0|0:0,0:0:0:0:
126,13,5408,6,0,L|204:12,1,60.0000022888184,2|0,0:0|0:0,0:0:0:0:
255,58,5876,2,0,P|245:100|250:136,1,60.0000022888184,2|0,0:0|0:0,0:0:0:0:
291,187,6345,1,0,0:0:0:0:
291,187,6579,2,0,L|364:185,1,60.0000022888184,2|0,0:0|0:0,0:0:0:0:
280,275,7048,6,0,L|421:271,1,120.000004577637,2|0,0:0|0:0,0:0:0:0:
423,352,7751,2,0,P|383:344|355:350,1,60.0000022888184,0|0,0:0|0:0,0:0:0:0:
282,364,8220,1,2,0:0:0:0:
204,332,8454,2,0,P|164:324|136:330,2,60.0000022888184,0|0|0,0:0|0:0|0:0,0:0:0:0:
280,275,9158,6,0,L|274:139,1,120.000004577637,2|0,0:1|0:0,0:0:0:0:
243,76,9861,2,0,B|178:59|175:101|102:75,1,120.000004577637,2|0,0:0|0:0,0:0:0:0:
51,39,10564,1,0,0:0:0:0:
6,124,10798,6,0,L|22:201,1,60.0000022888184,2|0,0:0|0:0,0:0:0:0:
99,177,11267,2,0,L|83:254,1,60.0000022888184,2|0,0:0|0:0,0:0:0:0:
86,319,11736,2,0,P|119:307|161:304,1,60.0000022888184,2|0,0:0|0:0,0:0:0:0:
223,328,12204,2,0,P|256:324|288:312,2,60.0000022888184,0|0|0,0:0|0:0|0:0,0:0:0:0:
207,234,12908,6,0,L|207:107,1,120.000004577637,2|0,0:0|0:0,0:0:0:0:
244,38,13611,1,0,0:0:0:0:
314,87,13845,2,0,P|357:90|393:77,1,60.0000022888184,2|0,0:0|0:0,0:0:0:0:
456,57,14314,1,0,0:0:0:0:
456,57,14548,6,0,P|418:99|429:180,1,120.000004577637,2|0,0:0|0:0,0:0:0:0:
403,253,15251,2,0,P|370:238|329:237,1,60.0000022888184,0|0,0:0|0:0,0:0:0:0:
267,263,15720,1,2,0:0:0:0:
223,193,15954,2,0,L|217:160,2,20.0000007629395,2|2|2,0:3|0:3|0:3,0:0:0:0:
209,204,16189,6,0,L|101:194,1,90.0000034332277,8|0,0:3|0:0,0:0:0:0:
84,169,16658,6,0,P|57:96|103:32,1,143.999995605469,4|8,3:2|0:0,0:0:0:0:
168,12,17361,1,0,0:0:0:0:
240,59,17595,2,0,P|275:69|316:60,1,71.9999978027344,0|0,3:0|0:0,0:0:0:0:
374,5,18064,1,8,0:0:0:0:
391,90,18298,6,0,P|384:135|382:170,1,71.9999978027344,2|0,0:0|3:0,0:0:0:0:
365,246,18767,2,0,P|325:222|220:205,1,143.999995605469,2|0,0:0|0:0,0:0:0:0:
161,257,19470,1,0,3:0:0:0:
120,180,19704,2,0,P|136:141|178:109,2,71.9999978027344,2|8|0,0:0|0:0|0:0,0:0:0:0:
161,257,20408,6,0,P|210:299|291:334,1,143.999995605469,0|8,3:0|0:0,0:0:0:0:
367,342,21111,1,0,0:0:0:0:
355,256,21345,1,0,3:0:0:0:
393,179,21579,2,0,P|429:162|475:160,1,71.9999978027344,2|8,0:0|0:0,0:0:0:0:
387,89,22048,6,0,L|218:92,1,143.999995605469,2|0,0:0|0:0,0:0:0:0:
159,114,22751,1,8,0:0:0:0:
159,114,22986,2,0,B|177:185|128:189|165:264,1,143.999995605469,2|2,0:0|0:0,0:0:0:0:
221,316,23689,1,8,0:0:0:0:
221,316,23923,1,0,0:0:0:0:
315,352,24158,6,0,B|363:364|363:364|461:335,1,143.999995605469,2|8,3:2|0:0,0:0:0:0:
506,268,24861,2,0,P|465:209|488:131,1,143.999995605469,2|0,0:0|0:0,0:0:0:0:
428,71,25564,1,8,0:0:0:0:
337,117,25798,6,0,P|286:120|260:110,1,71.9999978027344,2|0,0:0|3:0,0:0:0:0:
213,182,26267,2,0,L|242:251,1,71.9999978027344,2|8,0:0|0:0,0:0:0:0:
249,334,26736,2,0,P|192:310|102:304,1,143.999995605469,2|2,0:0|0:0,0:0:0:0:
28,329,27439,1,8,0:0:0:0:
28,329,27673,1,0,0:0:0:0:
12,230,27908,6,0,L|20:78,1,143.999995605469,2|8,3:2|0:0,0:0:0:0:
93,137,28611,1,0,0:0:0:0:
172,99,28845,2,0,P|212:89|249:98,1,71.9999978027344,0|0,3:0|0:0,0:0:0:0:
280,171,29314,1,8,0:0:0:0:
280,171,29548,6,0,L|273:251,1,71.9999978027344,2|0,0:0|3:0,0:0:0:0:
224,314,30017,1,8,0:3:0:0:
224,314,30251,1,8,0:0:0:0:
297,359,30486,1,8,0:3:0:0:
297,359,30720,2,0,L|380:357,1,71.9999978027344,8|2,0:0|0:0,0:0:0:0:
448,323,31189,1,0,1:0:0:0:
448,323,31306,1,8,0:3:0:0:
448,323,31423,1,8,3:2:0:0:
381,242,31658,6,0,P|357:203|391:116,1,143.999995605469,6|8,0:0|0:0,0:0:0:0:
466,78,32361,2,0,P|428:45|388:36,1,71.9999978027344,2|0,0:0|3:0,0:0:0:0:
323,58,32829,1,0,3:0:0:0:
242,27,33064,1,8,0:0:0:0:
163,82,33298,6,0,P|182:134|193:241,1,143.999995605469,2|0,0:0|0:0,0:0:0:0:
23,253,34236,2,0,P|45:223|78:209,1,71.9999978027344,2|0,0:0|3:0,0:0:0:0:
98,126,34704,2,0,P|65:111|44:82,1,71.9999978027344,2|8,3:2|0:0,0:0:0:0:
93,11,35173,1,2,0:0:0:0:
163,82,35408,6,0,L|319:84,1,143.999995605469,2|8,3:2|0:0,0:0:0:0:
380,129,36111,2,0,P|361:168|364:211,1,71.9999978027344,2|0,0:0|3:0,0:0:0:0:
458,110,36579,2,0,P|433:74|394:55,1,71.9999978027344,2|8,3:2|0:0,0:0:0:0:
306,83,37048,6,0,L|163:82,1,143.999995605469,2|0,0:0|0:0,0:0:0:0:
101,142,37751,2,0,L|123:215,1,71.9999978027344,8|0,0:0|0:0,0:0:0:0:
177,277,38220,1,0,3:0:0:0:
259,251,38454,1,0,3:0:0:0:
337,287,38689,2,0,P|379:294|421:283,1,71.9999978027344,8|2,0:0|0:0,0:0:0:0:
432,373,39158,6,0,L|290:370,1,120.000004577637,6|0,0:0|0:0,0:0:0:0:
234,336,39861,1,8,0:3:0:0:
234,336,40095,2,0,L|93:344,1,120.000004577637,8|0,0:0|0:0,0:0:0:0:
36,309,40798,1,0,3:0:0:0:
102,236,41033,6,0,P|124:202|126:137,2,90.0000034332277,8|0|8,0:3|3:0|0:3,0:0:0:0:
49,170,41970,2,0,P|27:136|28:43,1,120.000004577637,8|0,0:0|0:0,0:0:0:0:
113,27,42673,1,0,3:0:0:0:
113,27,42908,6,0,L|253:32,1,120.000004577637,0|0,3:0|0:0,0:0:0:0:
306,71,43611,1,8,0:3:0:0:
257,139,43845,2,0,P|231:168|222:194,1,60.0000022888184,8|0,0:0|0:0,0:0:0:0:
236,270,44314,2,0,P|262:299|271:325,1,60.0000022888184,0|0,0:0|3:0,0:0:0:0:
195,381,44783,5,4,0:0:0:0:
115,355,45017,1,8,0:3:0:0:
115,355,45134,1,8,0:3:0:0:
115,355,45251,1,12,0:0:0:0:
281,67,46658,6,0,P|239:142|275:205,1,160,6|8,0:0|0:0,0:0:0:0:
199,254,47361,2,0,L|114:249,1,80,2|0,0:0|3:0,0:0:0:0:
88,166,47829,2,0,L|167:170,1,80,2|8,3:2|0:2,0:0:0:0:
270,201,48298,6,0,P|334:243|404:212,1,160,2|0,0:0|0:0,0:0:0:0:
425,125,49001,1,8,0:0:0:0:
349,76,49236,2,0,L|342:162,1,80,2|0,0:0|3:0,0:0:0:0:
270,201,49704,1,0,3:0:0:0:
203,142,49939,1,8,0:0:0:0:
128,188,50173,1,2,0:0:0:0:
32,146,50408,6,0,B|-4:225|63:222|25:323,1,160,6|8,0:0|0:0,0:0:0:0:
96,362,51111,2,0,P|133:327|157:284,1,80,2|0,0:0|3:0,0:0:0:0:
233,280,51579,2,0,P|196:245|172:202,1,80,2|8,3:2|0:0,0:0:0:0:
189,132,52048,1,0,3:0:0:0:
271,197,52283,6,0,B|331:187|331:187|375:204|375:204|446:190,1,160,6|8,0:0|0:0,0:0:0:0:
502,238,52986,1,4,0:0:0:0:
501,325,53220,1,0,3:0:0:0:
424,367,53454,1,2,3:2:0:0:
341,336,53689,2,0,L|254:337,1,80,8|0,0:0|3:0,0:0:0:0:
159,314,54158,6,0,B|119:268|119:268|135:157,1,160,6|8,0:0|0:0,0:0:0:0:
136,81,54861,2,0,L|36:73,1,80,2|0,0:0|3:0,0:0:0:0:
54,163,55329,2,0,L|133:169,1,80,2|8,3:2|0:0,0:0:0:0:
203,222,55798,6,0,P|245:238|289:225,1,80,2|0,0:0|3:0,0:0:0:0:
292,144,56267,2,0,P|251:127|207:140,1,80,2|8,0:0|0:0,0:0:0:0:
352,199,56736,2,0,L|529:191,1,160,2|2,0:0|3:2,0:0:0:0:
482,274,57439,1,8,0:0:0:0:
506,358,57673,1,2,3:2:0:0:
405,376,57908,6,0,P|332:351|246:312,1,160,6|8,0:0|0:0,0:0:0:0:
179,272,58611,1,0,0:0:0:0:
241,209,58845,2,0,P|263:164|274:126,1,80,4|0,0:0|3:0,0:0:0:0:
239,54,59314,1,8,0:0:0:0:
148,102,59548,6,0,B|194:179|117:180|170:268,1,160,4|8,0:2|3:0,0:0:0:0:
253,289,60251,2,0,P|288:277|340:279,1,80,8|2,0:0|0:0,0:0:0:0:
425,304,60720,2,0,L|411:363,2,40,8|8|8,3:0|3:0|0:0,0:0:0:0:
461,220,61189,1,8,0:0:0:0:
450,125,61423,1,8,3:0:0:0:
450,125,61540,1,8,3:0:0:0:
450,125,61658,6,0,B|397:119|397:119|351:130|351:130|284:121,1,160,6|8,0:0|0:0,0:0:0:0:
204,134,62361,2,0,P|222:182|228:226,1,80,2|0,0:0|3:0,0:0:0:0:
287,274,62829,2,0,P|305:226|311:182,1,80,2|8,3:2|0:0,0:0:0:0:
364,314,63298,6,0,P|308:360|221:331,1,160,0|0,3:0|0:0,0:0:0:0:
170,273,64001,1,8,0:0:0:0:
106,333,64236,1,2,0:0:0:0:
106,333,64470,2,0,P|64:343|19:324,2,80,0|2|8,3:0|3:2|0:0,0:0:0:0:
170,273,65173,1,0,3:0:0:0:
67,259,65408,6,0,P|32:183|90:111,1,160,6|8,0:0|0:0,0:0:0:0:
151,93,66111,2,0,P|189:115|241:130,1,80,2|0,0:0|3:0,0:0:0:0:
308,107,66579,1,2,3:2:0:0:
395,115,66814,1,8,0:0:0:0:
453,206,67048,1,0,3:0:0:0:
453,206,67283,6,0,P|443:255|429:380,1,160,6|8,3:2|0:0,0:0:0:0:
346,336,67986,1,2,0:0:0:0:
346,336,68220,2,0,P|298:320|260:325,1,80,0|2,3:0|3:2,0:0:0:0:
182,336,68689,2,0,P|151:348|132:348,2,40,8|8|8,0:0|0:0|0:0,0:0:0:0:
211,233,69158,6,0,P|142:206|58:245,1,160,6|8,0:0|0:0,0:0:0:0:
11,166,69861,2,0,P|31:130|40:90,1,80,2|0,0:0|3:0,0:0:0:0:
96,25,70329,2,0,P|116:61|125:101,1,80,2|8,3:2|0:0,0:0:0:0:
211,114,70798,6,0,L|298:112,1,80,2|0,0:0|3:0,0:0:0:0:
290,200,71267,2,0,L|210:201,1,80,2|8,0:0|0:0,0:0:0:0:
290,292,71736,2,0,P|361:258|377:171,1,160,2|2,0:0|3:2,0:0:0:0:
349,101,72439,1,8,0:0:0:0:
387,22,72673,1,0,3:0:0:0:
276,38,72908,6,0,B|223:45|223:45|179:35|179:35|103:44,1,160,6|8,0:0|0:0,0:0:0:0:
41,86,73611,1,0,3:0:0:0:
96,154,73845,2,0,P|125:190|130:237,1,80,4|0,0:0|3:0,0:0:0:0:
90,300,74314,1,8,0:0:0:0:
194,294,74548,6,0,L|374:288,1,160,4|8,0:0|0:3,0:0:0:0:
433,326,75251,2,0,L|422:366,2,40,8|8|8,0:0|3:0|3:0,0:0:0:0:
353,288,75720,2,0,L|342:248,2,40,8|8|8,0:3|0:3|0:3,0:0:0:0:
430,246,76189,1,8,0:0:0:0:
378,174,76423,1,8,0:3:0:0:
378,174,76540,1,8,0:3:0:0:
378,174,76658,6,0,B|284:149|314:218|194:186,1,160,6|8,0:0|0:0,0:0:0:0:
135,192,77361,2,0,L|136:283,1,80,2|0,0:0|3:0,0:0:0:0:
224,272,77829,2,0,L|223:192,1,80,2|8,3:2|0:0,0:0:0:0:
251,108,78298,1,0,3:0:0:0:
335,170,78533,6,0,P|414:189|474:147,1,160,6|8,0:0|0:0,0:0:0:0:
504,229,79236,2,0,P|495:281|476:337,1,80,8|8,0:3|0:3,0:0:0:0:
405,338,79704,2,0,P|357:329|310:333,1,80,0|8,3:0|0:0,0:0:0:0:
241,355,80173,1,8,0:0:0:0:
241,355,80290,1,8,0:0:0:0:
241,355,80408,6,0,P|202:309|162:283,1,95.9999970703126,2|0,0:0|0:0,0:0:0:0:
35,210,81579,2,0,L|18:154,2,47.9999985351563,2|0|2,0:0|0:0|0:0,0:0:0:0:
105,166,82283,6,0,L|177:172,1,60.0000022888184,2|0,3:2|0:0,0:0:0:0:
241,205,82751,2,0,L|313:199,1,60.0000022888184,0|0,3:0|0:0,0:0:0:0:
373,157,83220,2,0,P|338:201|367:270,1,120.000004577637,2|0,3:2|3:0,0:0:0:0:
430,291,83923,6,0,L|507:289,1,60.0000022888184,2|0,0:0|3:0,0:0:0:0:
460,368,84392,2,0,L|333:371,1,120.000004577637,2|0,0:0|0:0,0:0:0:0:
265,331,85095,2,0,L|186:343,1,60.0000022888184,0|0,3:0|0:0,0:0:0:0:
125,313,85564,1,2,3:2:0:0:
125,313,85798,1,0,3:0:0:0:
177,235,86033,6,0,P|193:199|207:158,1,60.0000022888184,2|0,3:2|0:0,0:0:0:0:
192,96,86501,2,0,P|177:59|158:20,1,60.0000022888184,2|0,3:2|0:0,0:0:0:0:
107,98,86970,1,0,3:0:0:0:
107,98,87204,2,0,L|24:97,1,60.0000022888184,2|0,0:0|3:0,0:0:0:0:
80,178,87673,6,0,L|216:179,1,120.000004577637,2|0,0:0|0:0,0:0:0:0:
275,142,88376,2,0,L|281:73,1,60.0000022888184,0|0,3:0|0:0,0:0:0:0:
211,32,88845,2,0,L|205:101,1,60.0000022888184,0|0,3:0|0:0,0:0:0:0:
199,179,89314,1,2,3:2:0:0:
199,179,89548,1,0,3:0:0:0:
287,225,89783,6,0,P|339:190|350:118,1,120.000004577637,6|0,3:2|3:0,0:0:0:0:
337,54,90486,1,0,0:0:0:0:
420,57,90720,2,0,P|455:71|486:76,1,60.0000022888184,2|0,3:2|0:0,0:0:0:0:
505,154,91189,1,0,3:0:0:0:
452,218,91423,6,0,P|436:257|436:281,1,60.0000022888184,2|0,0:0|3:0,0:0:0:0:
399,350,91892,2,0,L|333:343,1,60.0000022888184,2|0,0:0|3:0,0:0:0:0:
272,292,92361,2,0,P|304:244|295:171,1,120.000004577637,2|0,0:0|0:0,0:0:0:0:
239,126,93064,1,0,3:0:0:0:
159,153,93298,1,0,3:0:0:0:
65,137,93533,6,0,P|74:169|78:210,1,60.0000022888184,4|8,3:2|0:3,0:0:0:0:
32,266,94001,1,0,3:0:0:0:
32,266,94236,1,8,0:3:0:0:
100,313,94470,2,0,L|163:315,1,60.0000022888184,8|8,0:0|0:3,0:0:0:0:
235,351,94939,1,8,0:0:0:0:
235,351,95173,1,8,0:3:0:0:
298,286,95408,6,0,P|314:250|320:203,1,60.0000022888184,0|8,3:0|0:0,0:0:0:0:
234,232,95876,2,0,P|218:196|212:149,1,60.0000022888184,8|8,0:0|0:0,0:0:0:0:
249,99,96345,1,8,3:3:0:0:
188,40,96579,1,8,0:3:0:0:
188,40,96697,1,8,0:3:0:0:
188,40,96814,2,0,L|142:47,3,30.0000011444092,8|8|8|8,3:3|0:3|0:3|0:3,0:0:0:0:
118,62,97283,6,0,B|143:108|143:108|129:225,1,143.999995605469,6|8,0:0|0:0,0:0:0:0:
92,276,97986,1,0,0:0:0:0:
150,339,98220,2,0,L|233:337,1,71.9999978027344,2|0,3:2|0:0,0:0:0:0:
296,381,98689,1,8,0:0:0:0:
302,297,98923,6,0,P|307:258|325:230,1,71.9999978027344,2|0,0:0|3:0,0:0:0:0:
407,207,99392,2,0,P|362:152|283:157,1,143.999995605469,2|0,0:0|0:0,0:0:0:0:
216,189,100095,1,0,3:0:0:0:
162,123,100329,2,0,P|154:89|165:47,2,71.9999978027344,2|8|0,0:0|0:0|0:0,0:0:0:0:
214,193,101033,6,0,L|52:200,1,143.999995605469,2|10,3:2|0:0,0:0:0:0:
21,271,101736,1,0,0:0:0:0:
56,349,101970,1,0,3:0:0:0:
140,329,102204,2,0,P|183:320|218:330,1,71.9999978027344,2|8,0:0|0:0,0:0:0:0:
306,356,102673,6,0,L|308:193,1,143.999995605469,2|0,0:0|0:0,0:0:0:0:
267,135,103376,1,8,0:0:0:0:
267,135,103611,2,0,B|216:118|216:118|117:141,1,143.999995605469,2|2,0:0|0:0,0:0:0:0:
81,211,104314,1,8,0:0:0:0:
81,211,104548,1,2,0:0:0:0:
168,259,104783,6,0,B|314:257,1,143.999995605469,2|8,3:2|0:0,0:0:0:0:
388,298,105486,1,0,0:0:0:0:
424,220,105720,1,2,3:2:0:0:
378,146,105954,1,0,0:0:0:0:
407,64,106189,1,8,0:0:0:0:
308,70,106423,6,0,L|229:75,1,71.9999978027344,2|0,0:0|3:0,0:0:0:0:
193,150,106892,2,0,L|222:219,1,71.9999978027344,2|8,0:0|0:0,0:0:0:0:
268,288,107361,2,0,P|204:290|144:243,1,143.999995605469,2|2,0:0|0:0,0:0:0:0:
100,167,108064,1,8,0:0:0:0:
100,167,108298,1,0,0:0:0:0:
193,150,108533,6,0,L|285:159,1,71.9999978027344,2|0,3:2|0:0,0:0:0:0:
327,215,109001,1,8,0:0:0:0:
413,212,109236,1,0,0:0:0:0:
472,152,109470,2,0,L|471:74,1,71.9999978027344,2|0,3:2|0:0,0:0:0:0:
393,33,109939,1,8,0:0:0:0:
393,33,110173,6,0,L|313:26,1,71.9999978027344,0|0,0:0|3:0,0:0:0:0:
248,73,110642,1,8,0:3:0:0:
248,73,110876,1,8,0:0:0:0:
171,32,111111,1,8,0:3:0:0:
171,32,111345,2,0,P|128:28|90:45,1,71.9999978027344,8|2,0:0|0:0,0:0:0:0:
45,103,111814,1,0,1:0:0:0:
45,103,111931,1,8,0:3:0:0:
45,103,112048,1,8,3:2:0:0:
141,120,112283,6,0,P|165:159|131:246,1,143.999995605469,6|8,0:0|0:0,0:0:0:0:
62,295,112986,2,0,P|94:309|119:334,1,71.9999978027344,2|0,0:0|3:0,0:0:0:0:
195,375,113454,1,2,3:2:0:0:
279,354,113689,1,8,0:0:0:0:
363,371,113923,6,0,P|393:312|407:225,1,143.999995605469,2|0,0:0|0:0,0:0:0:0:
311,91,114861,2,0,P|327:131|332:171,1,71.9999978027344,2|0,0:0|3:0,0:0:0:0:
246,147,115329,2,0,P|212:134|176:130,1,71.9999978027344,0|8,3:0|0:0,0:0:0:0:
91,149,115798,1,0,0:0:0:0:
139,233,116033,6,0,L|295:235,1,143.999995605469,2|8,3:2|0:0,0:0:0:0:
366,256,116736,2,0,L|361:339,1,71.9999978027344,2|0,0:0|3:0,0:0:0:0:
445,253,117204,2,0,L|449:181,1,71.9999978027344,2|8,3:2|0:0,0:0:0:0:
394,114,117673,6,0,L|251:113,1,143.999995605469,0|0,0:0|0:0,0:0:0:0:
164,125,118376,2,0,L|186:198,1,71.9999978027344,8|0,0:0|0:0,0:0:0:0:
190,280,118845,1,0,3:0:0:0:
107,256,119079,1,0,3:0:0:0:
37,307,119314,2,0,P|30:349|41:391,1,71.9999978027344,8|2,0:0|0:0,0:0:0:0:
119,373,119783,6,0,L|261:370,1,120.000004577637,6|2,0:0|0:0,0:0:0:0:
323,371,120486,1,8,0:3:0:0:
323,371,120720,2,0,P|346:309|356:242,1,120.000004577637,8|0,0:0|0:0,0:0:0:0:
292,199,121423,1,0,3:0:0:0:
216,257,121658,6,0,P|182:279|117:281,2,90.0000034332277,8|0|8,0:3|3:0|0:3,0:0:0:0:
150,204,122595,2,0,P|128:170|129:77,1,120.000004577637,8|0,0:0|0:0,0:0:0:0:
193,44,123298,1,0,3:0:0:0:
193,44,123533,6,0,L|333:49,1,120.000004577637,0|2,3:0|0:0,0:0:0:0:
380,98,124236,1,8,0:3:0:0:
303,131,124470,2,0,P|277:160|268:186,1,60.0000022888184,8|0,0:0|0:0,0:0:0:0:
266,263,124939,2,0,P|237:289|211:298,1,60.0000022888184,0|0,0:0|3:0,0:0:0:0:
128,261,125408,5,6,0:0:0:0:
102,181,125642,1,8,0:3:0:0:
102,181,125759,1,8,0:3:0:0:
102,181,125876,1,12,0:0:0:0:
192,148,126111,5,2,0:0:0:0:
192,148,126345,2,0,P|267:165|334:137,1,143.999995605469,2|0,0:0|0:0,0:0:0:0:
370,69,127283,2,0,B|424:118|400:187|400:187|320:249|368:349,1,300.000011444092,2|0,0:0|0:0,0:0:0:0:
282,363,128689,2,0,L|196:351,1,60.0000022888184,8|0,0:3|0:0,0:0:0:0:
118,351,129158,6,0,P|76:276|112:213,1,160,6|8,0:0|0:0,0:0:0:0:
190,205,129861,2,0,P|229:212|275:195,1,80,2|0,0:0|3:0,0:0:0:0:
303,119,130329,2,0,P|264:112|218:129,1,80,2|8,3:2|0:0,0:0:0:0:
354,192,130798,6,0,P|396:128|365:58,1,160,2|0,0:0|0:0,0:0:0:0:
286,16,131501,1,8,0:0:0:0:
200,38,131736,2,0,P|157:46|114:31,1,80,2|0,0:0|3:0,0:0:0:0:
41,2,132204,1,0,3:0:0:0:
60,87,132439,1,8,0:0:0:0:
33,170,132673,1,2,0:0:0:0:
75,266,132908,6,0,B|154:302|151:235|252:273,1,160,6|8,0:0|0:0,0:0:0:0:
314,295,133611,2,0,L|330:200,1,80,2|0,0:0|3:0,0:0:0:0:
385,149,134079,2,0,L|369:54,1,80,2|10,3:2|0:0,0:0:0:0:
441,15,134548,1,0,3:0:0:0:
479,115,134783,6,0,B|507:282,1,160,6|8,0:0|0:0,0:0:0:0:
443,335,135486,2,0,P|406:357|356:363,1,80,4|0,0:0|3:0,0:0:0:0:
282,361,135954,1,2,3:2:0:0:
219,298,136189,2,0,L|220:211,1,80,8|0,0:0|3:0,0:0:0:0:
145,144,136658,6,0,B|191:104|191:104|302:120,1,160,6|8,3:2|0:0,0:0:0:0:
375,135,137361,2,0,L|389:217,1,80,2|0,0:0|3:0,0:0:0:0:
456,269,137829,2,0,L|462:348,1,80,2|8,3:2|0:0,0:0:0:0:
377,373,138298,6,0,P|338:351|297:335,1,80,2|0,0:0|3:0,0:0:0:0:
217,340,138767,2,0,P|239:301|255:260,1,80,2|8,0:0|0:0,0:0:0:0:
223,185,139236,2,0,B|314:163|301:242|396:214,1,160,2|2,0:0|3:2,0:0:0:0:
461,212,139939,1,8,0:0:0:0:
488,130,140173,1,2,3:2:0:0:
395,85,140408,6,0,P|322:60|236:21,1,160,6|8,0:0|0:0,0:0:0:0:
162,0,141111,1,0,0:0:0:0:
99,62,141345,2,0,P|121:107|132:145,1,80,4|0,0:0|0:0,0:0:0:0:
120,223,141814,1,8,0:0:0:0:
204,284,142048,6,0,B|263:271|263:271|305:281|305:281|367:271,1,160,6|8,0:0|3:0,0:0:0:0:
420,207,142751,2,0,P|408:172|410:120,1,80,8|2,0:0|0:0,0:0:0:0:
345,67,143220,2,0,L|286:81,2,40,8|8|8,3:0|3:0|0:0,0:0:0:0:
415,14,143689,1,8,0:0:0:0:
501,66,143923,1,8,3:0:0:0:
501,66,144040,1,8,3:0:0:0:
501,66,144158,6,0,B|497:232,1,160,6|8,0:0|0:0,0:0:0:0:
445,297,144861,2,0,P|397:315|353:321,1,80,2|0,0:0|3:0,0:0:0:0:
284,295,145329,2,0,P|236:277|192:271,1,80,2|8,3:2|0:0,0:0:0:0:
107,298,145798,6,0,P|61:242|90:155,1,160,2|0,3:2|0:0,0:0:0:0:
167,142,146501,1,8,0:0:0:0:
115,70,146736,1,2,0:0:0:0:
115,70,146970,2,0,P|73:60|28:79,2,80,0|2|8,3:0|3:2|0:0,0:0:0:0:
167,142,147673,1,2,3:2:0:0:
258,89,147908,6,0,P|334:54|406:112,1,160,6|8,0:0|0:0,0:0:0:0:
327,146,148611,2,0,P|305:184|290:236,1,80,2|0,0:0|3:0,0:0:0:0:
302,305,149079,1,2,3:2:0:0:
379,347,149314,1,8,0:0:0:0:
472,301,149548,1,2,3:2:0:0:
472,301,149783,6,0,P|462:252|448:127,1,160,6|8,0:0|0:0,0:0:0:0:
387,79,150486,1,0,3:0:0:0:
387,79,150720,2,0,P|339:63|301:68,1,80,0|2,3:0|0:0,0:0:0:0:
224,81,151189,2,0,P|193:93|174:93,2,40,8|8|8,0:0|0:0|0:0,0:0:0:0:
266,170,151658,6,0,P|197:143|113:182,1,160,6|8,0:0|0:0,0:0:0:0:
78,251,152361,2,0,P|84:293|107:327,1,80,2|0,0:0|3:0,0:0:0:0:
190,337,152829,2,0,P|184:295|161:261,1,80,2|8,3:2|0:0,0:0:0:0:
246,234,153298,6,0,L|333:232,1,80,2|0,0:2|3:0,0:0:0:0:
369,309,153767,2,0,L|289:310,1,80,2|8,0:0|0:0,0:0:0:0:
412,379,154236,2,0,P|449:308|402:237,1,160,2|0,0:0|3:0,0:0:0:0:
325,232,154939,1,8,0:0:0:0:
240,254,155173,1,2,0:0:0:0:
142,215,155408,6,0,B|135:162|135:162|145:118|145:118|136:42,1,160,6|8,0:0|0:0,0:0:0:0:
207,3,156111,1,0,3:0:0:0:
264,69,156345,2,0,P|310:77|357:68,1,80,4|8,0:0|0:3,0:0:0:0:
427,46,156814,1,8,0:0:0:0:
477,136,157048,6,0,L|466:320,1,160,6|0,0:0|3:0,0:0:0:0:
383,322,157751,2,0,L|372:362,2,40,8|8|0,0:0|3:0|3:0,0:0:0:0:
313,267,158220,2,0,L|302:227,2,40,8|8|8,0:3|0:3|0:3,0:0:0:0:
255,333,158689,1,8,0:0:0:0:
184,280,158923,1,8,0:3:0:0:
184,280,159040,1,8,0:3:0:0:
184,280,159158,6,0,B|156:111,1,160,6|8,0:0|0:0,0:0:0:0:
198,43,159861,2,0,L|278:49,1,80,2|0,0:0|3:0,0:0:0:0:
237,128,160329,2,0,L|157:122,1,80,2|8,3:2|0:0,0:0:0:0:
76,157,160798,1,0,3:0:0:0:
163,212,161033,6,0,P|206:276|186:351,1,160,6|8,0:2|0:0,0:0:0:0:
274,363,161736,2,0,P|299:339|346:323,1,80,8|8,0:3|0:3,0:0:0:0:
396,255,162204,2,0,P|360:240|331:206,1,80,0|8,3:0|0:0,0:0:0:0:
301,127,162673,1,8,0:0:0:0:
301,127,162790,1,8,0:0:0:0:
301,127,162908,6,0,P|256:153|134:165,1,160,6|8,0:0|3:2,0:0:0:0:
71,128,163611,2,0,P|133:178|123:263,1,160,10|0,0:3|3:0,0:0:0:0:
89,330,164314,1,8,0:0:0:0:
89,330,164548,6,0,P|57:305|17:291,2,80,2|0|0,3:2|3:0|3:0,0:0:0:0:
167,369,165251,1,8,0:0:0:0:
227,304,165486,2,0,P|270:271|387:259,1,160,2|0,0:2|3:0,0:0:0:0:
457,278,166189,1,8,0:0:0:0:
493,197,166423,1,2,3:2:0:0:
418,124,166658,6,0,B|338:99|341:162|245:135,1,160,6|8,0:0|0:0,0:0:0:0:
176,118,167361,1,0,0:0:0:0:
100,163,167595,1,0,3:0:0:0:
100,163,167829,1,0,3:0:0:0:
137,242,168064,2,0,L|136:325,1,80,8|2,3:2|0:0,0:0:0:0:
222,235,168533,6,0,L|224:50,1,160,0|8,3:0|0:0,0:0:0:0:
286,12,169236,1,8,0:3:0:0:
364,51,169470,2,0,P|403:76|448:86,1,80,0|2,3:0|3:2,0:0:0:0:
458,169,169939,2,0,L|443:225,2,40,8|8|8,0:0|0:0|0:0,0:0:0:0:
467,285,170408,6,0,P|396:272|375:175,1,160,6|8,0:0|3:2,0:0:0:0:
395,112,171111,2,0,B|309:90|325:157|225:129,1,160,10|0,0:3|3:0,0:0:0:0:
182,66,171814,1,8,0:0:0:0:
182,66,172048,6,0,P|136:127|170:195,1,160,0|0,3:0|0:0,0:0:0:0:
245,241,172751,1,8,0:0:0:0:
333,241,172986,2,0,B|415:193|423:269|511:212,1,160,2|0,0:0|3:0,0:0:0:0:
507,139,173689,1,8,0:0:0:0:
424,72,173923,6,0,B|372:64|372:64|321:72|321:72|256:62,1,160,0|0,3:0|0:0,0:0:0:0:
194,115,174626,2,0,P|208:159|209:208,1,80,8|2,0:0|0:0,0:0:0:0:
123,178,175095,2,0,P|126:217|139:255,1,80,0|0,3:0|3:0,0:0:0:0:
201,317,175564,1,8,3:2:0:0:
201,317,175798,1,2,3:2:0:0:
123,358,176033,1,0,3:0:0:0:
47,313,176267,6,0,L|46:220,1,80,2|8,0:0|0:0,0:0:0:0:
119,184,176736,1,0,3:0:0:0:
204,210,176970,2,0,P|252:216|300:205,1,80,0|8,3:0|0:3,0:0:0:0:
368,231,177439,2,0,L|365:284,2,40,8|8|8,0:0|0:0|0:3,0:0:0:0:
398,148,177908,5,6,0:0:0:0:
331,90,178142,2,0,P|299:55|284:16,1,80,2|8,0:0|0:0,0:0:0:0:
374,23,178611,2,0,L|468:25,1,80,8|8,0:3|0:3,0:0:0:0:
494,102,179079,2,0,P|462:137|447:176,1,80,0|8,3:0|0:0,0:0:0:0:
454,254,179548,1,0,0:0:0:0:
454,254,179783,1,0,3:0:0:0:
383,306,180017,5,2,0:0:0:0:
299,278,180251,2,0,P|256:264|212:276,1,80,8|8,0:0|0:3,0:0:0:0:
146,315,180720,2,0,P|103:329|59:317,1,80,0|2,3:0|3:2,0:0:0:0:
4,263,181189,1,10,0:0:0:0:
52,189,181423,1,2,3:2:0:0:
26,86,181658,6,0,B|123:75|99:135|206:109,1,160,6|2,0:1|3:2,0:0:0:0:
245,55,182361,1,0,0:0:0:0:
301,122,182595,1,2,0:1:0:0:
353,51,182829,1,0,3:0:0:0:
397,128,183064,2,0,P|435:141|487:138,1,80,2|0,0:1|0:0,0:0:0:0:
471,228,183533,6,0,L|456:326,1,80,2|0,3:1|3:0,0:0:0:0:
379,345,184001,2,0,P|332:329|291:326,1,80,2|0,3:1|0:0,0:0:0:0:
215,341,184470,2,0,L|192:263,1,80,2|0,3:1|3:0,0:0:0:0:
193,176,184939,1,8,0:0:0:0:
143,103,185173,1,8,0:0:0:0:
143,103,185290,1,8,0:0:0:0:
143,103,185408,6,0,P|87:93|25:94,1,103.999995239258,6|0,0:0|0:0,0:0:0:0:
35,171,186111,2,0,L|46:235,1,51.999997619629,2|0,0:0|0:0,0:0:0:0:
102,275,186579,2,0,L|91:339,1,51.999997619629,2|0,0:0|0:0,0:0:0:0:
164,357,187048,6,0,P|206:335|280:337,1,103.999995239258,6|0,3:2|0:0,0:0:0:0:
404,267,187986,2,0,L|389:207,2,51.999997619629,2|0|2,0:0|0:0|0:0,0:0:0:0:
328,285,188689,2,0,L|313:225,1,51.999997619629,4|2,3:2|0:0,0:0:0:0:
275,167,189158,6,0,P|236:154|169:176,1,103.999995239258,6|0,0:0|0:0,0:0:0:0:
127,230,189861,1,2,0:0:0:0:
29,108,190329,1,2,0:0:0:0:
169,40,190798,1,0,3:0:0:0:
236,79,191033,6,0,P|264:99|301:111,1,51.999997619629,2|2,0:0|0:0,0:0:0:0:
357,98,191501,1,0,0:0:0:0:
403,172,191736,1,8,0:0:0:0:
403,172,191853,1,8,0:0:0:0:
403,172,191970,2,0,L|393:240,1,51.999997619629,8|8,0:0|0:0,0:0:0:0:
359,292,192439,1,8,0:0:0:0:
286,264,192673,1,8,0:0:0:0:
286,264,192790,1,8,0:0:0:0:
286,264,192908,6,0,P|208:255|150:307,1,143.999995605469,6|8,0:0|0:0,0:0:0:0:
95,232,193611,2,0,P|122:193|129:164,1,71.9999978027344,0|8,3:0|0:0,0:0:0:0:
42,161,194079,2,0,P|15:122|8:93,1,71.9999978027344,0|8,3:0|0:0,0:0:0:0:
88,31,194548,6,0,P|133:56|161:58,1,71.9999978027344,6|0,0:0|3:0,0:0:0:0:
224,106,195017,2,0,P|273:91|294:73,1,71.9999978027344,10|0,0:0|3:0,0:0:0:0:
373,95,195486,2,0,P|355:133|354:246,1,143.999995605469,2|0,3:2|3:0,0:0:0:0:
389,311,196189,1,8,0:0:0:0:
324,368,196423,1,0,0:0:0:0:
230,327,196658,6,0,B|155:300|159:350|85:324,1,143.999995605469,6|8,0:0|0:0,0:0:0:0:
14,281,197361,1,0,3:0:0:0:
66,212,197595,2,0,P|83:172|81:130,1,71.9999978027344,6|0,0:0|3:0,0:0:0:0:
62,60,198064,1,8,0:0:0:0:
159,91,198298,6,0,P|197:110|302:121,1,143.999995605469,6|2,0:0|0:0,0:0:0:0:
305,207,199001,2,0,P|277:207|226:217,1,71.9999978027344,2|2,3:0|3:0,0:0:0:0:
200,294,199470,1,8,0:0:0:0:
277,346,199704,1,8,0:0:0:0:
277,346,199822,1,8,0:0:0:0:
277,346,199939,2,0,L|322:347,3,35.9999989013672,8|8|8|8,3:2|3:2|3:2|3:2,0:0:0:0:
355,359,200408,6,0,B|370:307|370:307|367:260|367:260|387:196,1,160,6|8,0:0|0:0,0:0:0:0:
447,141,201111,2,0,P|465:189|471:233,1,80,2|0,0:0|3:0,0:0:0:0:
384,203,201579,2,0,P|336:185|292:179,1,80,2|8,3:2|0:0,0:0:0:0:
219,235,202048,6,0,P|163:281|76:252,1,160,2|0,3:2|0:0,0:0:0:0:
29,191,202751,1,8,0:0:0:0:
59,108,202986,1,2,0:0:0:0:
59,108,203220,2,0,L|44:22,2,80,0|2|8,3:0|3:2|0:0,0:0:0:0:
122,169,203923,1,0,3:0:0:0:
207,105,204158,6,0,P|283:70|355:128,1,160,6|8,0:0|0:0,0:0:0:0:
378,186,204861,2,0,P|416:208|468:223,1,80,2|0,0:0|3:0,0:0:0:0:
508,154,205329,1,2,3:2:0:0:
441,96,205564,1,8,0:0:0:0:
512,19,205798,1,0,3:0:0:0:
512,19,206033,6,0,P|445:23|336:29,1,160,6|8,3:2|0:0,0:0:0:0:
266,47,206736,1,2,0:0:0:0:
266,47,206970,2,0,P|218:31|180:36,1,80,0|0,3:0|3:0,0:0:0:0:
114,81,207439,2,0,P|83:93|64:93,2,40,8|8|8,0:0|0:0|0:0,0:0:0:0:
210,119,207908,6,0,P|237:188|198:272,1,160,6|8,0:0|0:0,0:0:0:0:
139,321,208611,2,0,P|120:286|124:246,1,80,2|0,0:0|3:0,0:0:0:0:
70,177,209079,2,0,P|89:142|85:102,1,80,2|8,3:2|0:0,0:0:0:0:
161,57,209548,6,0,L|248:55,1,80,2|0,0:0|3:0,0:0:0:0:
313,105,210017,2,0,L|393:104,1,80,2|8,0:0|0:0,0:0:0:0:
249,157,210486,2,0,L|64:159,1,160,2|2,0:0|3:2,0:0:0:0:
34,228,211189,1,8,0:0:0:0:
91,294,211423,1,0,3:0:0:0:
0,345,211658,6,0,B|53:338|53:338|97:348|97:348|173:339,1,160,6|8,0:0|0:0,0:0:0:0:
245,326,212361,1,0,3:0:0:0:
243,236,212595,2,0,L|249:148,1,80,4|0,0:0|3:0,0:0:0:0:
209,76,213064,1,8,0:0:0:0:
312,93,213298,6,0,L|492:87,1,160,6|8,0:0|0:3,0:0:0:0:
496,172,214001,2,0,L|485:212,2,40,8|0|8,3:0|3:0|3:0,0:0:0:0:
471,87,214470,2,0,L|460:47,2,40,8|8|8,0:3|0:3|0:3,0:0:0:0:
424,161,214939,1,8,0:0:0:0:
341,190,215173,1,8,0:3:0:0:
341,190,215290,1,8,0:3:0:0:
341,190,215408,6,0,P|259:195|170:176,1,160,6|8,0:0|0:0,0:0:0:0:
97,156,216111,2,0,L|98:247,1,80,2|0,0:0|3:0,0:0:0:0:
183,260,216579,2,0,L|182:180,1,80,2|8,3:2|0:0,0:0:0:0:
217,99,217048,1,0,3:0:0:0:
306,167,217283,6,0,P|385:186|445:144,1,160,6|8,0:0|0:0,0:0:0:0:
493,217,217986,2,0,P|484:269|465:325,1,80,2|0,0:0|3:0,0:0:0:0:
407,348,218454,2,0,P|359:339|312:343,1,80,2|8,3:2|0:0,0:0:0:0:
241,355,218923,1,0,3:0:0:0:
241,355,219040,1,0,3:0:0:0:
241,355,219158,6,0,P|240:274|244:185,1,160,6|8,3:2|0:0,0:0:0:0:
293,122,219861,1,2,0:0:0:0:
248,46,220095,1,0,3:0:0:0:
164,73,220329,2,0,P|111:71|77:58,1,80,2|8,3:2|0:0,0:0:0:0:
20,144,220798,6,0,P|48:189|83:305,1,160,6|8,0:0|3:0,0:0:0:0:
66,377,221501,1,8,3:0:0:0:
147,344,221736,1,2,0:0:0:0:
228,377,221970,2,0,L|277:377,2,40,8|8|8,0:3|0:3|0:3,0:0:0:0:
245,290,222439,1,8,0:0:0:0:
332,325,222673,1,8,0:3:0:0:
332,325,222790,1,8,0:3:0:0:
332,325,222908,6,0,P|385:296|398:200,1,160,6|8,0:0|0:0,0:0:0:0:
320,165,223611,2,0,P|280:154|240:113,1,80,2|0,0:0|3:0,0:0:0:0:
323,80,224079,2,0,P|363:69|403:28,1,80,2|8,3:2|0:0,0:0:0:0:
467,0,224548,1,0,3:0:0:0:
488,102,224783,6,0,L|484:266,1,160,6|8,0:0|0:0,0:0:0:0:
418,321,225486,2,0,P|373:302|341:300,1,80,8|8,0:3|0:3,0:0:0:0:
284,233,225954,2,0,P|329:214|361:212,1,80,0|8,3:0|0:0,0:0:0:0:
257,317,226423,1,8,0:0:0:0:
257,317,226540,1,8,0:0:0:0:
257,317,226658,6,0,L|162:308,1,95.9999970703126,6|0,0:0|3:0,0:0:0:0:
84,312,227361,1,2,0:0:0:0:
32,254,227595,2,0,P|45:210|46:145,1,95.9999970703126,2|2,1:3|0:0,0:0:0:0:
17,89,228298,6,0,P|51:109|126:115,1,95.9999970703126,0|0,3:0|0:0,0:0:0:0:
181,101,229001,1,0,3:0:0:0:
244,240,229470,1,2,1:3:0:0:
334,116,229939,2,0,P|333:150|342:172,1,47.9999985351563,2|2,0:0|0:0,0:0:0:0:
383,224,230408,6,0,L|384:338,1,95.9999970703126,2|0,3:2|3:0,0:0:0:0:
335,380,231111,1,2,0:0:0:0:
288,319,231345,2,0,P|244:300|186:312,1,95.9999970703126,2|2,1:3|0:0,0:0:0:0:
187,384,232048,1,0,3:0:0:0:
117,331,232283,6,0,L|13:329,2,95.9999970703126,2|0|2,0:1|3:0|1:3,0:0:0:0:
197,306,233454,2,0,L|186:251,1,47.9999985351563,0|0,3:0|0:0,0:0:0:0:
113,225,233923,1,2,0:0:0:0:
113,225,234158,6,0,L|126:122,1,95.9999970703126,2|0,0:1|3:0,0:0:0:0:
167,65,234861,1,2,0:0:0:0:
227,112,235095,2,0,P|262:131|335:117,1,95.9999970703126,2|2,1:3|0:0,0:0:0:0:
393,122,235798,6,0,L|403:233,1,95.9999970703126,2|0,3:2|0:0,0:0:0:0:
464,261,236501,1,0,3:0:0:0:
368,381,236970,1,2,1:3:0:0:
242,292,237439,2,0,P|213:317|201:341,1,47.9999985351563,2|2,0:0|0:0,0:0:0:0:
133,343,237908,6,0,L|34:331,1,95.9999970703126,0|0,3:2|3:0,0:0:0:0:
11,261,238611,1,2,0:0:0:0:
68,209,238845,2,0,P|91:167|81:111,1,95.9999970703126,2|2,1:3|0:0,0:0:0:0:
28,69,239548,1,0,3:0:0:0:
91,24,239783,6,0,B|139:10|138:36|188:21,2,95.9999970703126,0|0|2,0:0|3:0|1:3,0:0:0:0:
28,69,240954,1,0,3:0:0:0:
100,204,241423,1,2,0:0:0:0:
100,204,241658,6,0,P|135:190|167:185,1,60.0000022888184,6|0,3:2|0:0,0:0:0:0:
228,229,242126,1,0,3:0:0:0:
228,229,242361,2,0,P|252:208|338:205,1,120.000004577637,2|0,0:0|0:0,0:0:0:0:
417,225,243064,1,2,0:0:0:0:
417,225,243298,6,0,P|401:177|432:88,1,120.000004577637,2|0,3:2|0:0,0:0:0:0:
470,46,244001,1,0,3:0:0:0:
308,93,244470,1,0,0:0:0:0:
152,28,244939,1,2,0:0:0:0:
200,96,245173,1,2,0:0:0:0:
147,162,245408,6,0,P|145:202|153:227,1,60.0000022888184,2|0,3:2|0:0,0:0:0:0:
212,277,245876,1,0,3:0:0:0:
212,277,246111,2,0,P|155:258|93:277,1,120.000004577637,2|0,0:0|0:0,0:0:0:0:
30,223,246814,1,2,0:0:0:0:
30,223,247048,6,0,L|43:95,1,120.000004577637,2|0,3:2|0:0,0:0:0:0:
97,40,247751,1,0,3:0:0:0:
200,172,248220,1,2,0:1:0:0:
330,65,248689,1,2,0:0:0:0:
395,117,248923,1,0,0:0:0:0:
356,190,249158,6,0,P|335:243|338:297,1,95.9999970703126,2|0,3:2|3:0,0:0:0:0:
373,347,249861,1,2,0:0:0:0:
302,377,250095,1,2,1:3:0:0:
455,362,250564,1,0,0:0:0:0:
505,304,250798,6,0,L|507:196,1,95.9999970703126,2|0,3:2|0:0,0:0:0:0:
452,153,251501,1,0,3:0:0:0:
377,170,251736,1,2,0:0:0:0:
320,231,251970,1,2,1:3:0:0:
183,159,252439,1,2,0:0:0:0:
112,128,252673,1,2,0:0:0:0:
51,180,252908,6,0,P|71:226|74:280,1,95.9999970703126,2|0,3:1|3:0,0:0:0:0:
26,331,253611,1,2,0:0:0:0:
88,375,253845,1,2,1:3:0:0:
211,283,254314,1,2,0:0:0:0:
264,337,254548,6,0,P|308:345|368:325,1,95.9999970703126,2|0,3:2|0:0,0:0:0:0:
406,273,255251,1,2,3:0:0:0:
291,170,255720,1,2,1:3:0:0:
353,126,255954,2,0,P|377:109|398:82,1,47.9999985351563,0|2,3:0|0:0,0:0:0:0:
457,130,256423,1,2,0:0:0:0:
457,130,256658,6,0,L|452:269,1,136.000002593994,2|0,3:2|3:0,0:0:0:0:
415,331,257361,1,2,0:0:0:0:
346,300,257595,2,0,P|292:283|217:320,1,136.000002593994,2|2,1:0|0:0,0:0:0:0:
166,263,258298,6,0,L|166:109,1,136.000002593994,0|0,3:2|0:0,0:0:0:0:
193,57,259001,1,0,3:0:0:0:
256,96,259236,1,2,0:0:0:0:
325,69,259470,1,2,0:1:0:0:
383,157,259939,5,2,0:0:0:0:
336,217,260173,1,2,0:0:0:0:
381,278,260408,2,0,P|328:273|286:288,1,95.9999970703126,2|0,3:1|3:0,0:0:0:0:
218,318,261111,2,0,L|114:317,1,95.9999970703126,2|0,0:0|0:0,0:0:0:0:
51,285,261814,1,2,0:0:0:0:
51,285,262048,6,0,L|58:150,1,120,2|0,3:2|3:0,0:0:0:0:
115,114,262986,2,0,P|142:126|163:129,1,40,2|2,0:0|1:3,0:0:0:0:
275,163,263689,1,2,0:0:0:0:
275,163,263923,1,2,0:0:0:0:
335,113,264158,6,0,P|395:108|449:143,1,120,2|2,3:2|0:0,0:0:0:0:
478,211,265095,1,2,0:1:0:0:
411,313,265564,5,0,0:0:0:0:
339,307,265798,1,0,0:0:0:0:
268,320,266033,1,2,0:0:0:0:
160,278,266501,5,0,0:0:0:0:
161,220,266736,1,0,0:0:0:0:
163,162,266970,1,2,0:0:0:0:
234,57,267439,6,0,P|254:74|298:94,1,64,2|2,0:0|0:1,0:0:0:0:
