osu file format v14

[General]
AudioFilename: audio.mp3
AudioLeadIn: 0
PreviewTime: 60733
Countdown: 0
SampleSet: Soft
StackLeniency: 0.7
Mode: 0
LetterboxInBreaks: 0
WidescreenStoryboard: 0

[Editor]
DistanceSpacing: 0.8
BeatDivisor: 4
GridSize: 16
TimelineZoom: 2.799999

[Metadata]
Title:Radio Happy
TitleUnicode:Radio Happy
Artist:Ohtsuki Yui (CV: Yamashita Nanami)
ArtistUnicode:大槻唯 (CV: 山下七海)
Creator:Nagi Hisakawa
Version:MASTER+
Source:アイドルマスター シンデレラガールズ スターライトステージ
Tags:idolm@ster imas im@s video game pop electronic japanese cyndere lewdski lewski hinsvar xlolicore- idolmaster cinderella girls starlight stage master 041 impurepug resona
BeatmapID:1900187
BeatmapSetID:910620

[Difficulty]
HPDrainRate:6
CircleSize:3
OverallDifficulty:9
ApproachRate:9.3
SliderMultiplier:2.6
SliderTickRate:1

[Events]
//Background and Video events
0,0,"yui_luminelick.jpg",0,0
Video,-3000,"radio_happy.mp4"
//Break Periods
//Storyboard Layer 0 (Background)
//Storyboard Layer 1 (Fail)
//Storyboard Layer 2 (Pass)
//Storyboard Layer 3 (Foreground)
//Storyboard Layer 4 (Overlay)
//Storyboard Sound Samples

[TimingPoints]
790,454.545454545455,4,2,1,50,1,0
790,-100,4,2,1,50,0,0
2380,-100,4,2,1,5,0,0
2608,-100,4,2,1,50,0,0
9880,-90.9090909090909,4,2,1,55,0,0
10221,-90.9090909090909,4,2,1,5,0,0
10335,-83.3333333333333,4,2,1,60,0,0
10676,-90.9090909090909,4,2,1,5,0,0
10790,-76.9230769230769,4,2,1,65,0,0
11130,-90.9090909090909,4,2,1,5,0,0
11244,-71.4285714285714,4,2,1,70,0,0
11585,-90.9090909090909,4,2,1,5,0,0
11699,-66.6666666666667,4,2,1,75,0,0
12040,-90.9090909090909,4,2,1,5,0,0
12153,-62.5,4,2,1,80,0,0
12494,-90.9090909090909,4,2,1,5,0,0
12608,-58.8235294117647,4,2,1,80,0,0
13062,-55.5555555555556,4,2,1,80,0,0
13290,-58.8235294117647,4,2,1,80,0,0
13517,-166.666666666667,4,2,1,50,0,0
13971,-142.857142857143,4,2,1,55,0,0
14426,-125,4,2,1,60,0,0
14880,-111.111111111111,4,2,1,65,0,0
15335,-100,4,2,1,70,0,0
15790,-111.111111111111,4,2,1,65,0,0
16244,-125,4,2,1,60,0,0
16699,-100,4,2,1,60,0,0
20335,-50,4,2,1,60,0,0
20790,-100,4,2,1,70,0,0
46244,-125,4,2,1,60,0,0
53517,-111.111111111111,4,2,1,65,0,0
55335,-100,4,2,1,70,0,0
57153,-90.9090909090909,4,2,1,80,0,0
58971,-100,4,2,1,70,0,0
60335,-166.666666666667,4,2,1,80,0,0
60790,-50,4,2,1,90,0,1
89880,-66.6666666666667,4,2,1,80,0,0
109880,-66.6666666666667,4,2,1,60,0,0
111699,-83.3333333333333,4,2,1,70,0,0
113517,-76.9230769230769,4,2,1,75,0,0
115335,-71.4285714285714,4,2,1,80,0,0
119824,-100,4,2,1,80,0,0
120790,-100,4,2,1,15,0,0
127153,-100,4,2,1,5,0,0

[Colours]
Combo1 : 251,202,55
Combo2 : 177,75,81
Combo3 : 21,72,191
Combo4 : 226,52,65

[HitObjects]
256,192,790,6,0,L|256:224,1,32.5,0|0,0:0|0:0,0:0:0:0:
256,192,1244,12,0,2380,0:0:0:0:
435,350,2608,6,0,P|497:249|457:90,1,260,2|0,0:0|0:0,0:0:0:0:
317,249,3517,1,2,0:0:0:0:
327,269,3971,1,2,0:0:0:0:
336,290,4426,6,0,B|206:223|210:368|58:264,1,260,2|0,0:0|0:0,0:0:0:0:
27,119,5335,1,2,0:0:0:0:
113,78,5449,1,2,0:0:0:0:
253,194,5676,1,2,0:0:0:0:
155,169,5790,1,2,0:0:0:0:
389,112,6017,1,2,0:0:0:0:
401,96,6244,6,0,L|406:364,1,260,2|0,0:0|0:0,0:0:0:0:
170,265,7153,1,2,0:0:0:0:
180,250,7608,1,2,0:0:0:0:
189,237,8062,6,0,B|295:237|295:237|338:256|338:256|463:259,1,260,2|0,0:0|0:0,0:0:0:0:
461,63,8971,1,2,0:0:0:0:
492,153,9085,1,2,0:0:0:0:
348,29,9312,1,2,0:0:0:0:
292,113,9426,1,2,0:0:0:0:
358,303,9653,1,2,0:0:0:0:
376,284,9880,6,0,P|275:267|167:350,1,214.500006546021,2|0,0:0|0:0,0:0:0:0:
102,363,10335,2,0,P|22:287|2:156,1,233.999992858887,2|0,0:0|0:0,0:0:0:0:
53,89,10790,6,0,L|321:104,1,253.499988395691,2|0,0:0|0:0,0:0:0:0:
382,190,11244,2,0,L|83:206,1,272.999991668701,2|0,0:0|0:0,0:0:0:0:
31,172,11699,6,0,P|111:291|191:179,1,292.50001115799,2|0,0:0|0:0,0:0:0:0:
159,117,12153,2,0,P|239:-2|319:110,1,312,2|0,0:0|0:0,0:0:0:0:
246,161,12608,5,2,0:0:0:0:
246,161,12721,2,0,P|236:218|249:277,1,110.50000210762,2|0,0:0|0:0,0:0:0:0:
428,271,12949,1,2,0:0:0:0:
428,271,13062,2,0,P|383:233|325:215,1,116.999996429443,2|0,0:0|0:0,0:0:0:0:
239,376,13290,2,0,P|293:356|338:314,1,110.50000210762,2|0,0:0|0:0,0:0:0:0:
328,215,13517,6,0,L|232:208,1,77.999997619629,2|0,0:0|0:0,0:0:0:0:
118,78,13971,2,0,L|240:87,1,90.9999972229005,2|0,0:0|0:0,0:0:0:0:
342,245,14426,2,0,L|198:234,1,104,2|0,0:0|0:0,0:0:0:0:
102,52,14880,2,0,L|218:61,1,116.999996429443,2|0,0:0|0:0,0:0:0:0:
418,188,15335,6,0,P|427:252|408:314,1,130,2|0,0:0|0:0,0:0:0:0:
307,367,15790,2,0,P|352:330|408:314,1,116.999996429443,2|0,0:0|0:0,0:0:0:0:
496,364,16244,2,0,P|447:347|408:314,1,104,2|0,0:0|0:0,0:0:0:0:
338,229,16699,5,10,0:0:0:0:
346,242,17153,2,0,B|219:196|228:311|65:238,1,260,0|8,3:0|0:0,0:0:0:0:
117,0,17835,6,0,P|123:35|144:80,1,65,2|0,3:2|0:0,0:0:0:0:
29,78,18062,2,0,P|65:129|161:168,1,130,2|0,0:0|0:0,0:0:0:0:
214,109,18403,2,0,L|388:101,1,130,2|0,0:0|0:0,0:0:0:0:
459,222,18744,2,0,L|261:211,1,195,2|0,0:0|0:0,0:0:0:0:
165,208,19199,5,2,0:0:0:0:
310,33,19426,1,10,0:0:0:0:
328,278,19653,1,2,0:0:0:0:
91,151,19880,2,0,P|59:241|86:333,1,195,2|0,0:0|0:0,0:0:0:0:
62,116,20335,6,0,P|27:239|64:361,1,260,2|0,0:0|0:0,0:0:0:0:
380,302,20790,2,0,P|255:270|99:300,1,260,2|8,0:0|0:0,0:0:0:0:
140,121,21471,2,0,P|158:160|156:210,1,65,2|0,0:0|0:0,0:0:0:0:
248,281,21699,2,0,P|299:223|318:143,1,130,2|0,0:0|0:0,0:0:0:0:
355,98,22040,2,0,P|358:169|412:240,1,130,2|0,0:0|0:0,0:0:0:0:
481,285,22380,2,0,P|397:252|415:381,1,260,2|2,0:0|0:0,0:0:0:0:
478,180,23062,6,0,L|482:73,1,65,10|0,0:0|0:0,0:0:0:0:
455,31,23290,2,0,L|454:112,1,65,0|0,0:0|0:0,0:0:0:0:
34,180,23517,2,0,L|30:73,1,65,2|0,0:0|0:0,0:0:0:0:
57,31,23744,2,0,L|58:112,1,65,0|0,0:0|0:0,0:0:0:0:
256,248,23971,2,0,L|256:89,1,130,10|0,0:0|0:0,0:0:0:0:
64,281,24426,6,0,P|108:266|168:271,1,97.5,2|0,0:0|0:0,0:0:0:0:
169,291,24653,2,0,B|283:306,1,97.5
285,289,24880,1,2,1:0:0:0:
368,213,25108,6,0,L|426:217,1,32.5,2|2,0:0|0:0,0:0:0:0:
496,204,25278,1,2,0:0:0:0:
496,204,25335,2,0,B|433:218|433:218|354:211,1,130,2|0,0:0|0:0,0:0:0:0:
306,275,25676,2,0,P|249:243|185:233,1,130,2|0,0:0|0:0,0:0:0:0:
112,184,25960,1,2,0:0:0:0:
112,184,26017,2,0,B|213:191|213:191|310:163,1,195,2|0,0:0|0:0,0:0:0:0:
220,98,26471,6,0,P|205:183|229:270,1,130,2|8,0:0|0:0,0:0:0:0:
344,326,26926,1,2,0:0:0:0:
136,358,27153,1,2,0:0:0:0:
290,186,27380,1,2,0:0:0:0:
162,209,27608,2,0,L|298:200,1,130,10|0,0:0|0:0,0:0:0:0:
104,43,28062,6,0,P|74:79|66:136,1,65,2|0,0:0|0:0,0:0:0:0:
167,179,28290,2,0,P|170:138|160:107,1,65,2|0,0:0|0:0,0:0:0:0:
72,232,28517,2,0,P|96:258|148:280,1,65,10|0,0:0|0:0,0:0:0:0:
312,165,28744,2,0,P|282:146|231:134,1,65,2|0,0:0|0:0,0:0:0:0:
395,278,28971,5,2,0:0:0:0:
395,278,29085,1,0,0:0:0:0:
395,278,29199,2,0,L|396:173,1,65,0|0,0:0|0:0,0:0:0:0:
432,17,29426,6,0,P|454:40|474:69,1,65,10|0,0:0|0:0,0:0:0:0:
328,150,29653,2,0,P|344:123|368:99,1,65,2|0,3:0|0:0,0:0:0:0:
512,179,29880,2,0,P|470:184|426:166,1,65,2|0,0:0|0:0,0:0:0:0:
280,69,30108,5,2,3:2:0:0:
190,44,30221,2,0,L|199:145,1,65,0|2,3:0|0:0,0:0:0:0:
113,155,30449,1,0,3:0:0:0:
213,127,30562,2,0,L|203:231,1,65,2|0,3:2|0:0,0:0:0:0:
119,301,30790,5,2,3:2:0:0:
207,153,30903,1,0,3:0:0:0:
225,323,31017,1,2,3:2:0:0:
113,196,31130,1,0,3:0:0:0:
278,235,31244,2,0,P|379:252|461:198,1,195,2|0,3:2|0:0,0:0:0:0:
471,109,31699,6,0,B|427:166|427:166|431:325,1,195,0|0,1:0|0:0,0:0:0:0:
339,314,32153,1,10,0:0:0:0:
339,314,32267,2,0,P|254:296|199:306,1,130,2|0,0:0|0:0,0:0:0:0:
105,215,32608,1,2,0:0:0:0:
105,215,32721,2,0,P|169:220|231:202,1,130,2|0,0:0|0:0,0:0:0:0:
198,41,33062,2,0,L|187:121,1,65,10|0,0:0|0:0,0:0:0:0:
334,171,33290,2,0,L|326:62,1,65,2|0,3:0|0:0,0:0:0:0:
315,11,33517,5,0,0:0:0:0:
302,17,33744,2,0,L|180:32,1,65
49,88,33971,1,10,0:0:0:0:
100,178,34085,1,2,0:0:0:0:
151,74,34199,1,2,0:0:0:0:
30,88,34312,1,2,0:0:0:0:
94,197,34426,5,2,0:0:0:0:
211,188,34540,2,0,P|247:173|301:175,1,65,2|0,0:0|3:2,0:0:0:0:
400,186,34767,1,2,3:2:0:0:
400,186,34880,2,0,L|388:270,1,65,2|0,3:2|3:0,0:0:0:0:
287,358,35108,2,0,L|287:232,1,65,2|0,3:0|3:0,0:0:0:0:
288,185,35335,6,0,B|234:178|234:178|212:186|212:186|145:178,1,130,4|0,2:0|0:0,0:0:0:0:
18,118,35790,2,0,P|25:147|24:188,1,65,10|0,0:0|0:0,0:0:0:0:
75,343,36017,2,0,P|75:310|82:278,1,65,2|0,3:2|0:0,0:0:0:0:
255,281,36244,2,0,B|221:293|221:293|157:296,1,65,2|0,0:0|0:0,0:0:0:0:
275,157,36471,2,0,B|311:151|311:151|363:165,1,65,2|0,0:0|0:0,0:0:0:0:
362,351,36699,2,0,L|368:233,1,65,10|0,0:0|0:0,0:0:0:0:
253,77,36926,2,0,L|258:174,1,65,2|0,3:2|0:0,0:0:0:0:
398,113,37608,6,0,L|303:101,1,65,10|0,0:0|0:0,0:0:0:0:
253,60,37835,1,2,3:2:0:0:
322,10,37949,1,0,3:2:0:0:
216,141,38062,5,2,3:2:0:0:
141,66,38176,1,0,3:2:0:0:
226,13,38290,1,2,3:2:0:0:
260,163,38403,1,0,3:2:0:0:
95,233,38517,6,0,L|109:81,1,130,6|0,3:2|0:0,0:0:0:0:
283,326,38971,2,0,B|146:359|146:359|23:319,1,260,4|8,3:2|0:0,0:0:0:0:
129,185,39653,2,0,P|132:226|125:276,1,65,2|0,3:2|0:0,0:0:0:0:
27,204,39880,2,0,P|30:136|76:53,1,130,2|0,0:0|0:0,0:0:0:0:
152,81,40221,2,0,P|219:123|316:113,1,130,2|0,0:0|0:0,0:0:0:0:
367,77,40562,1,2,3:2:0:0:
380,67,41017,6,0,L|376:180,1,65,2|0,0:0|0:0,0:0:0:0:
483,212,41244,2,0,L|477:120,1,65,10|0,0:0|0:0,0:0:0:0:
332,217,41471,2,0,L|326:299,1,65,2|0,3:2|0:0,0:0:0:0:
497,327,41699,2,0,P|439:309|380:308,1,65,2|0,0:0|0:0,0:0:0:0:
358,366,41926,2,0,P|300:384|241:385,1,65,2|0,0:0|0:0,0:0:0:0:
150,347,42153,1,2,3:2:0:0:
232,208,42267,1,0,3:0:0:0:
237,308,42380,1,0,3:0:0:0:
139,189,42494,1,0,3:0:0:0:
32,260,42608,6,0,P|72:268|118:270,1,65,2|0,3:2|0:0,0:0:0:0:
209,142,42835,2,0,P|176:145|144:151,1,65,2|0,0:0|0:0,0:0:0:0:
282,234,43062,2,0,P|308:200|317:160,1,65,10|0,0:0|0:0,0:0:0:0:
212,0,43290,2,0,P|195:30|182:74,1,65,2|0,3:2|0:0,0:0:0:0:
154,181,43517,2,0,L|345:180,1,130,2|0,0:0|0:0,0:0:0:0:
447,182,43971,6,0,P|466:211|475:249,1,65,10|0,0:0|0:0,0:0:0:0:
333,327,44199,2,0,P|342:295|360:269,1,65,2|0,3:2|0:0,0:0:0:0:
501,351,44426,2,0,P|461:350|437:343,1,65,2|0,0:0|0:0,0:0:0:0:
283,180,44653,2,0,P|311:175|348:180,1,65,2|0,1:2|0:0,0:0:0:0:
219,315,44880,5,2,1:2:0:0:
219,315,44994,1,0,1:0:0:0:
219,315,45108,2,2,L|105:307,1,65,2|2,3:2|0:0,0:0:0:0:
0,221,45335,1,2,1:2:0:0:
164,216,45449,1,0,1:2:0:0:
37,318,45562,1,0,1:2:0:0:
83,155,45676,1,0,1:2:0:0:
249,141,45790,2,0,P|311:186|440:184,1,195,6|0,0:0|0:0,0:0:0:0:
485,65,46244,5,2,0:0:0:0:
485,65,46358,2,0,L|480:229,1,156,2|8,0:0|0:0,0:0:0:0:
390,296,46812,1,2,0:0:0:0:
390,296,46926,2,0,L|325:288,1,52,2|2,0:0|0:0,0:0:0:0:
147,232,47153,2,0,L|281:222,1,104,2|0,0:0|0:0,0:0:0:0:
393,147,47494,2,0,L|263:129,1,104,2|0,0:0|0:0,0:0:0:0:
164,124,47835,2,0,P|189:109|211:76,1,52,2|0,0:0|0:0,0:0:0:0:
54,104,48062,6,0,P|42:161|46:217,1,104,2|0,0:0|0:0,0:0:0:0:
145,336,48403,2,0,P|147:273|127:216,1,104,2|0,0:0|0:0,0:0:0:0:
254,312,48744,2,0,L|312:323,1,52,2|0,0:0|0:0,0:0:0:0:
416,198,48971,1,2,0:0:0:0:
416,198,49085,2,0,P|346:196|289:242,1,104,0|0,0:0|0:0,0:0:0:0:
489,260,49426,2,0,P|508:212|502:161,1,104,10|0,0:0|0:0,0:0:0:0:
436,46,49880,6,0,L|270:58,1,156,2|0,0:0|0:0,0:0:0:0:
204,138,50335,2,0,L|135:130,1,52,10|0,0:0|0:0,0:0:0:0:
48,103,50562,5,2,0:0:0:0:
48,103,50676,1,2,0:0:0:0:
48,103,50790,2,0,L|55:-50,1,104,2|0,0:0|0:0,0:0:0:0:
155,148,51130,2,0,L|156:251,1,104,2|0,0:0|0:0,0:0:0:0:
13,269,51471,2,0,P|47:256|87:258,1,52,2|0,0:0|0:0,0:0:0:0:
239,335,51699,2,0,P|186:302|156:233,1,104,2|0,0:0|0:0,0:0:0:0:
275,130,52040,2,0,P|277:199|263:246,1,104,2|0,0:0|0:0,0:0:0:0:
356,321,52380,2,0,P|382:300|402:272,1,52,2|0,0:0|0:0,0:0:0:0:
456,187,52608,5,2,0:0:0:0:
456,187,52721,2,0,L|460:51,1,104,0|0,0:0|0:0,0:0:0:0:
354,29,53062,2,0,L|363:107,1,52,10|0,0:0|0:0,0:0:0:0:
298,175,53290,2,0,L|367:171,1,52,2|0,0:0|0:0,0:0:0:0:
335,294,53517,6,0,B|257:297|257:297|228:317|228:317|126:317,1,175.499994644165,6|0,3:2|0:0,0:0:0:0:
49,220,53971,2,0,L|174:220,1,116.999996429443,10|2,0:0|0:0,0:0:0:0:
308,198,54312,1,2,0:0:0:0:
308,198,54426,2,0,P|295:118|315:52,1,116.999996429443,2|0,3:2|0:0,0:0:0:0:
399,18,54767,1,2,3:2:0:0:
457,154,54880,2,0,P|417:153|361:135,1,58.4999982147217,8|0,3:2|3:0,3:0:0:0:
267,84,55108,2,0,P|230:84|194:92,1,58.4999982147217,2|4,3:2|3:0,3:0:0:0:
4,289,55335,5,10,3:0:0:0:
115,262,55449,2,0,L|126:154,1,65,0|0,3:0|3:0,3:0:0:0:
248,309,55676,1,2,3:2:0:0:
136,348,55790,2,0,L|131:265,1,65,8|0,3:2|3:0,3:0:0:0:
225,208,56017,1,2,3:2:0:0:
225,208,56130,1,4,3:0:0:0:
333,258,56244,5,10,3:0:0:0:
352,271,56358,1,0,3:0:0:0:
368,282,56471,2,0,P|368:320|362:350,1,65,0|0,3:0|3:0,3:0:0:0:
512,178,56699,5,10,3:2:0:0:
491,183,56812,1,0,3:0:0:0:
471,189,56926,2,0,P|464:220|465:252,1,65,0|4,3:0|3:0,3:0:0:0:
339,142,57153,6,0,P|296:132|251:128,1,71.5000021820069,2|0,3:2|3:0,3:0:0:0:
161,163,57380,1,6,3:0:0:0:
161,163,57494,1,0,3:0:0:0:
236,300,57608,2,0,L|234:205,1,71.5000021820069,6|8,3:0|3:0,3:0:0:0:
142,62,57835,2,0,L|139:158,1,71.5000021820069,2|0,3:0|3:0,0:0:0:0:
335,271,58062,6,0,L|437:283,1,71.5000021820069,6|8,3:0|3:0,0:0:0:0:
375,138,58290,1,8,3:0:0:0:
375,138,58403,1,4,3:0:0:0:
430,229,58517,5,2,3:2:0:0:
287,86,58630,1,8,3:0:0:0:
478,112,58744,1,6,3:0:0:0:
299,206,58858,1,0,3:0:0:0:
389,34,58971,6,0,L|387:98,1,65,6|0,3:0|3:0,3:0:0:0:
344,275,59199,1,2,3:0:0:0:
344,275,59312,1,0,3:0:0:0:
344,275,59426,2,0,L|359:172,1,65,2|0,3:0|3:0,3:0:0:0:
218,49,59653,2,0,L|276:84,1,65,2|0,3:0|3:0,3:0:0:0:
158,183,59880,5,2,3:0:0:0:
158,183,59956,1,0,3:0:0:0:
158,183,60032,1,0,3:0:0:0:
158,183,60108,2,0,L|246:177,1,65,0|0,3:0|3:0,3:0:0:0:
74,75,60335,6,0,B|121:75|121:75|143:82|143:82|202:83,1,116.999996429443,10|0,3:2|3:0,3:0:0:0:
446,361,60790,6,0,P|504:186|396:-14,1,390,4|0,3:1|0:0,0:0:0:0:
26,358,61244,2,0,P|-8:207|72:50,1,260,4|8,3:2|0:3,0:0:0:0:
115,182,61585,1,8,0:3:0:0:
115,182,61699,2,0,P|216:222|365:181,1,260,2|0,1:0|1:0,0:0:0:0:
89,23,62040,2,0,P|28:119|37:290,1,260,2|0,1:0|0:0,0:0:0:0:
208,376,62380,2,0,P|232:318|222:244,1,130,2|2,0:0|0:0,0:0:0:0:
3,141,62608,6,0,L|284:149,1,260,2|0,1:0|0:0,0:0:0:0:
466,243,62949,1,2,1:0:0:0:
466,243,63062,2,0,L|274:250,1,130,2|0,0:0|0:0,0:0:0:0:
68,41,63290,2,0,L|200:43,1,130,2|0,0:0|0:0,0:0:0:0:
488,26,63517,6,0,P|499:171|441:306,1,260,4|8,3:2|0:3,0:0:0:0:
354,360,63858,1,8,0:3:0:0:
216,379,63971,2,0,P|193:319|197:255,1,130,0|0,3:0|3:0,0:0:0:0:
58,200,64199,2,0,P|99:150|156:120,1,130,0|0,1:0|1:0,0:0:0:0:
449,29,64426,6,0,L|32:4,1,390,4|0,3:1|0:0,0:0:0:0:
467,351,64880,2,0,L|138:371,1,260,4|8,3:2|0:3,0:0:0:0:
22,362,65221,1,8,0:3:0:0:
22,362,65335,2,0,P|57:239|17:117,1,260,2|0,1:0|0:0,0:0:0:0:
236,0,65676,2,0,P|180:103|206:263,1,260,2|0,1:0|0:0,0:0:0:0:
417,113,66017,2,0,L|243:116,1,130,2|2,0:0|0:0,0:0:0:0:
65,343,66244,6,0,L|367:361,1,260,2|0,1:0|0:0,0:0:0:0:
474,303,66585,1,2,1:0:0:0:
474,303,66699,2,0,P|498:233|490:164,1,130,2|0,0:0|0:0,0:0:0:0:
357,61,66926,2,0,P|340:117|355:198,1,130,2|0,0:0|0:0,0:0:0:0:
458,323,67153,5,8,0:3:0:0:
279,273,67267,1,8,0:3:0:0:
453,198,67380,1,8,0:3:0:0:
351,363,67494,1,8,0:3:0:0:
335,172,67608,2,0,B|235:170|235:170|194:193|194:193|39:192,1,260,4|0,1:2|0:0,0:0:0:0:
427,8,68062,6,0,P|494:182|440:377,1,390,4|0,3:1|0:0,0:0:0:0:
58,9,68517,2,0,P|7:144|42:289,1,260,4|8,3:2|0:3,0:0:0:0:
101,357,68858,1,8,0:3:0:0:
101,357,68971,2,0,B|231:328|231:328|359:357,1,260,2|0,1:0|0:0,0:0:0:0:
480,373,69312,2,0,L|457:84,1,260,2|0,1:0|0:0,0:0:0:0:
355,18,69653,2,0,L|342:164,1,130,2|2,0:0|0:0,0:0:0:0:
310,260,69880,6,0,P|229:289|137:250,1,130,2|0,1:0|0:0,0:0:0:0:
123,117,70108,1,2,0:0:0:0:
123,117,70221,1,2,0:0:0:0:
123,117,70335,2,0,P|207:158|249:229,1,130,2|0,1:0|0:0,0:0:0:0:
377,154,70562,2,0,P|331:199|315:320,1,130,2|0,0:1|0:0,0:0:0:0:
202,304,70790,6,0,L|46:292,1,130,4|0,3:0|0:0,0:0:0:0:
274,378,71017,1,10,0:3:0:0:
274,378,71130,2,0,L|439:365,1,130,2|2,0:0|0:0,0:0:0:0:
267,215,71358,1,2,0:0:0:0:
267,215,71471,2,0,L|248:380,1,130,8|0,0:3|0:0,0:0:0:0:
92,362,71699,6,0,P|59:291|59:216,1,130,4|0,3:2|0:0,0:0:0:0:
382,39,71926,2,0,P|372:102|341:160,1,130,2|0,0:0|0:0,0:0:0:0:
34,92,72153,2,0,P|90:60|154:53,1,130,2|0,3:1|0:0,0:0:0:0:
355,373,72380,2,0,P|290:368|233:338,1,130,2|0,0:0|0:0,0:0:0:0:
187,103,72608,6,0,P|325:67|275:240,1,390,4|0,3:2|0:0,0:0:0:0:
233,338,73062,2,0,P|303:343|364:301,1,130,2|0,0:1|0:0,0:0:0:0:
512,270,73290,2,0,P|483:206|416:173,1,130,2|0,0:0|0:0,0:0:0:0:
387,18,73517,2,0,P|327:42|293:95,1,130,4|0,3:2|0:0,0:0:0:0:
131,154,73744,2,0,P|164:208|225:239,1,130,8|0,0:3|0:0,0:0:0:0:
356,174,73971,1,4,0:3:0:0:
330,331,74085,2,0,P|210:257|54:285,1,260,8|0,0:3|0:0,0:0:0:0:
16,344,74426,5,8,0:3:0:0:
133,193,74540,1,8,0:3:0:0:
127,380,74653,1,8,0:3:0:0:
16,233,74767,1,8,0:3:0:0:
82,73,74880,2,0,B|207:9|204:145|342:64,1,260,4|0,3:2|0:0,0:0:0:0:
461,359,75335,6,0,P|410:218|517:11,1,390,4|0,3:1|0:0,0:0:0:0:
3,358,75790,2,0,P|52:231|-9:94,1,260,4|8,3:2|0:3,0:0:0:0:
30,22,76130,1,8,0:3:0:0:
30,22,76244,2,0,L|311:11,1,260,2|0,1:0|1:0,0:0:0:0:
512,161,76585,2,0,L|170:139,1,260,2|0,1:0|0:0,0:0:0:0:
425,110,76926,2,0,P|450:172|426:267,1,130,2|2,0:0|0:0,0:0:0:0:
146,361,77153,6,0,P|107:212|180:77,1,260,2|0,1:0|0:0,0:0:0:0:
305,20,77494,1,2,1:0:0:0:
305,20,77608,2,0,L|279:230,1,130,2|0,0:0|0:0,0:0:0:0:
421,339,77835,2,0,L|406:180,1,130,2|0,0:0|0:0,0:0:0:0:
187,225,78062,6,0,P|257:249|368:174,1,130,4|0,3:2|0:0,0:0:0:0:
390,121,78290,1,8,0:3:0:0:
311,4,78403,2,0,P|260:44|239:104,1,130,8|0,0:3|3:0,0:0:0:0:
311,251,78630,1,0,3:0:0:0:
186,352,78744,2,0,L|47:361,1,130,0|0,1:0|1:0,0:0:0:0:
34,17,78971,6,0,L|480:44,1,390,4|0,3:1|0:0,0:0:0:0:
21,361,79426,2,0,L|395:343,1,260,4|8,3:2|0:3,0:0:0:0:
443,330,79767,1,8,0:3:0:0:
443,330,79880,2,0,P|389:200|407:44,1,260,2|0,1:0|0:0,0:0:0:0:
158,10,80221,2,0,P|161:138|109:256,1,260,2|0,1:0|0:0,0:0:0:0:
11,46,80562,2,0,L|188:40,1,130,2|2,0:0|0:0,0:0:0:0:
396,161,80790,6,0,L|121:142,1,260,2|0,1:0|0:0,0:0:0:0:
7,282,81130,1,2,1:0:0:0:
7,282,81244,2,0,P|67:261|166:272,1,130,2|0,0:0|0:0,0:0:0:0:
312,370,81471,2,0,P|280:313|275:249,1,130,2|0,0:0|0:0,0:0:0:0:
380,53,81699,5,8,0:3:0:0:
273,228,81812,1,8,0:3:0:0:
461,156,81926,1,8,0:3:0:0:
266,112,82040,1,8,0:3:0:0:
399,263,82153,2,0,B|274:194|276:323|146:261,1,260,4|0,1:2|0:0,0:0:0:0:
42,20,82608,6,0,P|121:159|4:382,1,390,4|0,3:1|0:0,0:0:0:0:
494,16,83062,2,0,P|435:186|504:301,1,260,4|8,3:2|0:3,0:0:0:0:
510,340,83403,1,8,0:3:0:0:
510,340,83517,2,0,P|376:356|206:308,1,260,2|0,1:0|0:0,0:0:0:0:
145,197,83858,2,0,P|256:155|416:143,1,260,2|0,1:0|0:0,0:0:0:0:
33,67,84199,2,0,L|16:231,1,130,2|2,0:0|0:0,0:0:0:0:
145,384,84426,6,0,L|132:113,1,260,2|2,1:0|0:0,0:0:0:0:
341,5,84767,1,2,0:0:0:0:
341,5,84880,2,0,P|408:6|494:40,1,130,2|0,1:0|0:0,0:0:0:0:
279,112,85108,2,0,P|232:73|203:10,1,130,2|0,0:1|0:0,0:0:0:0:
402,111,85335,5,4,3:0:0:0:
241,244,85449,1,2,0:0:0:0:
461,245,85562,1,10,0:3:0:0:
279,112,85676,1,2,0:0:0:0:
417,96,85790,5,10,0:3:0:0:
224,255,85903,1,2,0:0:0:0:
476,259,86017,1,10,0:3:0:0:
266,98,86130,1,2,0:0:0:0:
346,339,86244,6,0,L|350:163,1,130,4|0,3:2|0:0,0:0:0:0:
20,3,86471,2,0,L|22:132,1,130,2|0,0:0|0:0,0:0:0:0:
489,136,86699,2,0,L|504:-63,1,130,2|0,3:1|0:0,0:0:0:0:
93,252,86926,2,0,L|95:381,1,130,2|0,0:0|0:0,0:0:0:0:
403,111,87153,2,0,B|307:101|307:101|248:142|248:142|119:126,1,260,4|0,3:2|0:0,0:0:0:0:
345,18,87494,5,0,0:0:0:0:
345,18,87608,2,0,L|491:13,1,130,2|0,0:1|0:0,0:0:0:0:
183,157,87835,2,0,L|31:162,1,130,2|0,0:0|0:0,0:0:0:0:
396,282,88062,2,0,L|460:109,1,130,4|0,3:2|0:0,0:0:0:0:
181,255,88290,2,0,L|175:400,1,130,8|0,0:3|0:0,0:0:0:0:
304,68,88517,5,4,0:3:0:0:
304,68,88630,2,0,P|311:195|199:282,1,260,8|0,0:3|0:0,0:0:0:0:
99,83,88971,5,8,0:3:0:0:
198,265,89085,1,8,0:3:0:0:
9,176,89199,1,8,0:3:0:0:
208,133,89312,1,8,0:3:0:0:
64,289,89426,2,0,P|258:226|427:326,1,390,4|0,3:1|0:0,0:0:0:0:
507,355,89880,6,0,L|494:205,1,97.50000371933,2|0,3:2|0:0,0:0:0:0:
426,77,90108,1,2,0:0:0:0:
426,77,90221,2,0,L|417:207,1,97.50000371933,2|0,0:0|3:0,0:0:0:0:
303,340,90449,2,0,L|184:356,1,97.50000371933,2|0,0:0|0:0,0:0:0:0:
11,165,90676,5,2,0:0:0:0:
11,165,90790,1,2,3:2:0:0:
11,165,90903,2,0,P|62:155|154:194,1,97.50000371933,2|0,0:0|0:0,0:0:0:0:
115,384,91130,1,2,0:0:0:0:
115,384,91244,2,0,P|77:333|66:244,1,97.50000371933,2|0,3:2|0:0,0:0:0:0:
242,195,91471,2,0,P|217:252|142:306,1,97.50000371933,2|0,0:0|0:0,0:0:0:0:
70,57,91699,6,0,L|191:49,1,97.50000371933,2|0,3:2|0:0,0:0:0:0:
453,114,91926,1,2,0:0:0:0:
453,114,92040,2,0,L|292:103,1,97.50000371933,2|0,0:0|3:2,0:0:0:0:
149,176,92267,2,0,L|145:334,1,97.50000371933,2|0,0:0|0:0,0:0:0:0:
356,311,92494,5,2,0:0:0:0:
356,311,92608,1,2,3:2:0:0:
356,311,92721,2,0,P|331:253|254:198,1,97.50000371933,2|0,0:0|0:0,0:0:0:0:
114,330,92949,1,2,0:0:0:0:
114,330,93062,2,0,P|176:337|257:296,1,97.50000371933,2|0,3:2|0:0,0:0:0:0:
218,116,93290,2,0,P|180:166|171:257,1,97.50000371933,0|0,0:0|0:0,0:0:0:0:
223,318,93517,6,0,L|358:316,1,97.50000371933,2|0,3:2|0:0,0:0:0:0:
458,216,93744,2,0,L|301:210,1,97.50000371933,2|0,0:0|0:0,0:0:0:0:
165,156,93971,2,0,L|300:154,1,97.50000371933,2|0,3:2|0:0,0:0:0:0:
440,75,94198,2,0,L|283:69,1,97.50000371933,2|0,0:0|0:0,0:0:0:0:
26,222,94426,2,0,B|19:140|19:140|39:103|39:103|36:30,1,195.00000743866,2|0,3:2|0:0,0:0:0:0:
301,26,94767,5,2,0:0:0:0:
301,26,94880,2,0,P|334:75|348:130,1,97.50000371933,2|0,3:2|0:0,0:0:0:0:
175,203,95108,2,0,P|191:157|219:117,1,97.50000371933,2|0,0:0|0:0,0:0:0:0:
345,111,95335,1,2,3:2:0:0:
399,246,95449,2,0,L|271:234,1,97.50000371933,2|0,0:0|0:0,0:0:0:0:
465,165,95676,1,2,0:0:0:0:
487,335,95790,2,0,L|389:344,1,97.50000371933,2|0,3:2|0:0,0:0:0:0:
199,209,96017,2,0,P|187:256|187:337,1,97.50000371933,2|0,0:0|0:0,0:0:0:0:
316,287,96244,5,2,3:2:0:0:
199,136,96358,1,2,0:0:0:0:
200,321,96471,1,2,0:0:0:0:
311,170,96585,1,2,0:0:0:0:
134,221,96699,2,0,B|229:261|229:178|321:225,1,195.00000743866,2|0,3:2|0:0,0:0:0:0:
509,35,97040,5,2,0:0:0:0:
509,35,97153,2,0,P|371:57|289:111,1,195.00000743866,2|0,3:2|0:0,0:0:0:0:
124,209,97494,1,2,0:0:0:0:
124,209,97608,2,0,P|220:222|304:271,1,195.00000743866,2|0,3:2|0:0,0:0:0:0:
0,191,97949,5,2,0:0:0:0:
0,191,98062,1,2,3:2:0:0:
0,191,98176,2,0,P|25:145|84:104,1,97.50000371933,2|0,0:0|0:0,0:0:0:0:
222,249,98403,1,2,0:0:0:0:
222,249,98517,2,0,P|170:249|105:219,1,97.50000371933,2|0,3:2|0:0,0:0:0:0:
154,22,98744,6,0,P|180:67|186:138,1,97.50000371933,2|0,0:0|0:0,0:0:0:0:
127,234,98971,1,2,3:2:0:0:
247,339,99085,2,0,L|253:163,1,97.50000371933,2|0,0:0|0:0,0:0:0:0:
439,212,99312,1,2,0:0:0:0:
336,103,99426,2,0,L|346:261,1,97.50000371933,2|0,3:2|0:0,0:0:0:0:
198,122,99653,6,0,B|288:104|288:104|395:125,1,195.00000743866,2|0,0:0|3:2,0:0:0:0:
499,27,99994,2,0,L|363:34,1,97.50000371933,2|0,0:0|0:0,0:0:0:0:
225,58,100221,1,2,0:0:0:0:
225,58,100335,2,0,P|197:98|182:158,1,97.50000371933,2|0,3:2|0:0,0:0:0:0:
332,280,100562,2,0,P|323:224|282:145,1,97.50000371933,2|0,0:0|0:0,0:0:0:0:
127,356,100790,6,0,L|224:369,1,97.50000371933,2|0,3:2|0:0,0:0:0:0:
32,255,101017,2,0,L|135:241,1,97.50000371933,2|0,0:0|0:0,0:0:0:0:
236,136,101244,2,0,L|127:123,1,97.50000371933,2|0,3:2|0:0,0:0:0:0:
134,8,101471,2,0,L|38:25,1,97.50000371933,2|0,0:0|0:0,0:0:0:0:
370,52,101699,2,0,P|357:173|398:278,1,195.00000743866,2|0,3:2|0:0,0:0:0:0:
512,353,102040,5,2,0:0:0:0:
512,353,102153,2,0,P|452:340|370:344,1,97.50000371933,2|0,3:2|0:0,0:0:0:0:
203,282,102380,2,0,P|250:269|298:266,1,97.50000371933,2|0,0:0|0:0,0:0:0:0:
461,207,102608,2,0,P|459:159|447:112,1,97.50000371933,2|0,3:2|0:0,0:0:0:0:
272,9,102835,2,0,P|261:57|258:105,1,97.50000371933,2|0,0:0|0:0,0:0:0:0:
211,255,103062,2,0,L|113:248,1,97.50000371933,2|0,3:2|0:0,0:0:0:0:
10,100,103290,2,0,L|107:97,1,97.50000371933,2|0,0:0|0:0,0:0:0:0:
335,172,103517,6,0,B|374:206|402:209|402:209|426:198|462:158|462:158|383:272|416:412,2,390.00001487732,2|4|0,0:0|1:0|0:0,0:0:0:0:
256,192,104540,12,0,109880,0:0:0:0:
391,22,110790,5,2,0:0:0:0:
402,43,111244,1,2,0:0:0:0:
413,64,111699,2,0,P|365:59|283:64,1,77.999997619629,6|0,3:0|0:0,0:0:0:0:
169,147,111926,1,2,0:0:0:0:
169,147,112040,1,2,0:0:0:0:
169,147,112153,2,0,P|213:154|279:146,1,77.999997619629,2|0,3:2|0:0,0:0:0:0:
365,180,112380,2,0,P|370:218|365:258,1,77.999997619629,2|0,0:0|0:0,0:0:0:0:
255,337,112608,6,0,L|130:318,1,77.999997619629,2|0,3:2|0:0,0:0:0:0:
68,241,112835,1,2,0:0:0:0:
68,241,112949,2,0,L|162:233,1,77.999997619629,2|0,3:2|0:0,0:0:0:0:
289,146,113176,1,2,0:0:0:0:
289,146,113290,2,0,L|195:138,1,77.999997619629,2|0,3:2|0:0,0:0:0:0:
54,149,113517,6,0,P|47:102|60:17,1,84.4999961318971,6|0,3:0|0:0,0:0:0:0:
224,14,113744,1,2,0:0:0:0:
224,14,113858,1,2,3:2:0:0:
224,14,113971,2,0,P|222:61|199:123,1,84.4999961318971,2|0,0:0|0:0,0:0:0:0:
109,234,114199,2,0,P|153:237|221:262,1,84.4999961318971,2|4,0:0|3:0,0:0:0:0:
326,328,114426,6,0,L|332:226,1,84.4999961318971,10|0,3:0|0:0,0:0:0:0:
417,70,114653,1,2,0:0:0:0:
417,70,114767,2,0,L|418:157,1,84.4999961318971,10|2,3:0|0:0,0:0:0:0:
512,266,114994,2,0,L|394:258,1,84.4999961318971,6|8,3:0|3:0,0:0:0:0:
324,152,115221,5,6,3:0:0:0:
324,152,115335,1,6,3:2:0:0:
324,152,115449,2,0,L|200:149,1,90.9999972229005,2|4,0:0|3:0,0:0:0:0:
82,187,115676,1,2,3:2:0:0:
186,67,115790,1,2,3:2:0:0:
173,226,115903,1,6,3:0:0:0:
95,92,116017,1,2,3:2:0:0:
233,149,116130,1,2,3:2:0:0:
82,187,116244,6,0,P|40:158|-18:147,1,90.9999972229005,6|0,3:0|3:0,0:0:0:0:
95,314,116471,2,0,P|137:285|195:274,1,90.9999972229005,0|4,3:0|3:0,0:0:0:0:
345,324,116699,1,2,3:0:0:0:
467,195,116812,1,0,3:0:0:0:
304,224,116926,1,4,3:0:0:0:
459,303,117040,1,0,3:0:0:0:
368,143,117153,6,0,P|293:172|178:154,1,181.999994445801,4|0,3:2|1:0,0:0:0:0:
48,123,117494,1,0,1:0:0:0:
164,31,117608,2,0,P|164:80|154:121,1,90.9999972229005,0|0,1:0|3:0,0:0:0:0:
272,142,117835,1,0,1:0:0:0:
80,218,117949,2,0,P|80:267|89:308,1,90.9999972229005,0|0,1:0|3:0,0:0:0:0:
227,384,118176,5,8,3:0:0:0:
227,384,118233,1,8,3:0:0:0:
227,384,118290,1,8,3:0:0:0:
377,308,118403,1,8,3:0:0:0:
357,135,118517,1,8,3:0:0:0:
181,111,118630,1,8,3:0:0:0:
104,259,118744,2,0,P|218:254|290:207,1,181.999994445801,8|0,3:0|0:0,0:0:0:0:
388,26,119350,5,0,3:0:0:0:
358,34,119425,1,0,3:0:0:0:
328,34,119501,1,0,3:0:0:0:
299,25,119577,1,0,3:0:0:0:
270,16,119653,1,0,3:0:0:0:
240,16,119728,1,0,3:0:0:0:
211,22,119824,6,0,P|164:196|70:98,1,390,6|0,3:0|0:0,0:0:0:0:
163,103,120676,1,6,0:0:0:0:
256,192,120790,12,0,127153,0:0:0:0:
