osu file format v14

[General]
AudioFilename: audio.mp3
AudioLeadIn: 0
PreviewTime: 51004
Countdown: 0
SampleSet: Normal
StackLeniency: 0.4
Mode: 0
LetterboxInBreaks: 0
WidescreenStoryboard: 0

[Editor]
Bookmarks: 3032,104506,127870,179852
DistanceSpacing: 0.6
BeatDivisor: 4
GridSize: 32
TimelineZoom: 1.9

[Metadata]
Title:Fist Bump
TitleUnicode:Fist Bump
Artist:Ohtani Tomoya (Tsuko G. ver.)
ArtistUnicode:大谷 智哉 (Tsuko G. ver.)
Creator:Yogurtt
Version:Terminal Velocity
Source:Sonic Forces
Tags:main theme, douglas robb, sonic adventures, cover
BeatmapID:1525441
BeatmapSetID:722584

[Difficulty]
HPDrainRate:4.6
CircleSize:4.5
OverallDifficulty:9.3
ApproachRate:9.7
SliderMultiplier:1.9
SliderTickRate:1

[Events]
//Background and Video events
0,0,"bg.jpg",0,0
//Break Periods
2,87702,89219
//Storyboard Layer 0 (Background)
//Storyboard Layer 1 (Fail)
//Storyboard Layer 2 (Pass)
//Storyboard Layer 3 (Foreground)
//Storyboard Sound Samples

[TimingPoints]
129,276.497695852535,4,1,1,70,1,0
543,-200,4,1,1,70,0,0
6764,-100,4,1,1,70,0,0
7456,-83.3333333333333,4,1,1,70,0,0
7525,-83.3333333333333,4,1,1,5,0,0
7594,-83.3333333333333,4,1,1,70,0,0
7663,-83.3333333333333,4,1,1,5,0,0
7732,-100,4,1,1,70,0,0
8700,-200,4,1,1,70,0,0
8907,-200,4,1,1,5,0,0
8976,-100,4,1,1,70,0,0
9668,-83.3333333333333,4,1,1,70,0,0
9737,-83.3333333333333,4,1,1,5,0,0
9806,-83.3333333333333,4,1,1,70,0,0
9875,-83.3333333333333,4,1,1,5,0,0
9944,-100,4,1,1,70,0,0
10912,-200,4,1,1,70,0,0
11119,-200,4,1,1,5,0,0
11188,-100,4,1,1,70,0,0
11880,-83.3333333333333,4,1,1,70,0,0
11949,-83.3333333333333,4,1,1,5,0,0
12018,-83.3333333333333,4,1,1,70,0,0
12087,-83.3333333333333,4,1,1,5,0,0
12156,-83.3333333333333,4,1,1,70,0,0
15612,-125,4,1,1,70,0,0
22801,-100,4,1,1,70,0,0
23078,-83.3333333333333,4,1,1,70,0,0
24460,-100,4,1,1,70,0,0
31027,-100,4,1,1,5,0,0
31096,-100,4,1,1,70,0,0
31580,-100,4,1,1,5,0,0
31649,-83.3333333333333,4,1,1,70,0,0
31857,-83.3333333333333,4,1,1,5,0,0
31926,-71.4285714285714,4,1,1,70,0,0
32133,-71.4285714285714,4,1,1,5,0,0
32202,-100,4,1,1,70,0,0
32963,-100,4,1,1,5,0,0
33032,-100,4,1,1,70,0,0
33101,-100,4,1,1,5,0,0
33170,-100,4,1,1,70,0,0
33239,-100,4,1,1,5,0,0
33308,-100,4,1,1,70,0,0
42156,-100,4,3,1,70,0,0
43262,-125,4,3,1,70,0,0
48792,-125,4,1,1,70,0,0
49483,-111.111111111111,4,1,1,70,0,0
50036,-111.111111111111,4,3,1,70,0,0
51073,-111.111111111111,4,1,1,5,0,0
51281,-111.111111111111,4,1,1,10,0,0
51419,-111.111111111111,4,1,1,20,0,0
51557,-111.111111111111,4,1,1,30,0,0
51695,-111.111111111111,4,1,1,40,0,0
51834,-111.111111111111,4,1,1,50,0,0
51972,-83.3333333333333,4,1,1,80,0,1
60820,-166.666666666667,4,1,1,70,0,0
61234,-83.3333333333333,4,1,1,70,0,1
65313,-100,4,1,1,70,0,0
65382,-83.3333333333333,4,1,1,70,0,1
83078,-100,4,1,1,70,0,0
83631,-100,4,1,1,60,0,0
84184,-100,4,1,1,50,0,0
84737,-100,4,1,1,40,0,0
85290,-166.666666666667,4,1,1,60,0,0
85843,-200,4,1,1,50,0,0
86396,-250,4,1,1,50,0,0
87364,-1000,4,1,1,50,0,0
89714,-100,4,1,1,70,0,0
90405,-83.3333333333333,4,1,1,70,0,0
90474,-83.3333333333333,4,1,1,5,0,0
90543,-83.3333333333333,4,1,1,70,0,0
90612,-83.3333333333333,4,1,1,5,0,0
90681,-100,4,1,1,70,0,0
91649,-200,4,1,1,70,0,0
91926,-100,4,1,1,70,0,0
92617,-83.3333333333333,4,1,1,70,0,0
92686,-83.3333333333333,4,1,1,5,0,0
92755,-83.3333333333333,4,1,1,70,0,0
92824,-83.3333333333333,4,1,1,5,0,0
92893,-100,4,1,1,70,0,0
93861,-200,4,1,1,70,0,0
94138,-100,4,1,1,70,0,0
94829,-83.3333333333333,4,1,1,70,0,0
94898,-83.3333333333333,4,1,1,5,0,0
94967,-83.3333333333333,4,1,1,70,0,0
95036,-83.3333333333333,4,1,1,5,0,0
95105,-100,4,1,1,70,0,0
98562,-200,4,1,1,50,0,0
105474,-166.666666666667,4,1,1,50,0,0
105751,-142.857142857143,4,1,1,50,0,0
106027,-125,4,1,1,50,0,0
106304,-100,4,1,1,50,0,0
107410,-100,4,1,1,70,0,0
113976,-100,4,1,1,5,0,0
114046,-100,4,1,1,70,0,0
114529,-100,4,1,1,5,0,0
114599,-83.3333333333333,4,1,1,70,0,0
114806,-83.3333333333333,4,1,1,5,0,0
114875,-71.4285714285714,4,1,1,70,0,0
115082,-71.4285714285714,4,1,1,5,0,0
115152,-100,4,1,1,70,0,0
126211,-125,4,1,1,70,0,0
134921,-100,4,1,1,70,0,1
143769,-100,4,1,1,70,0,0
144184,-100,4,1,1,70,0,1
148262,-100,4,1,1,70,0,0
148331,-100,4,1,1,70,0,1
151649,-100,4,1,1,70,0,0
197271,-100,4,1,1,70,0,1
201350,-100,4,1,1,70,0,0
201419,-100,4,1,1,70,0,1
223470,-100,4,1,1,70,0,0
223539,-100,4,1,1,70,0,1
236811,-100,4,1,1,70,0,0

[HitObjects]
201,126,129,5,0,0:0:0:0:
196,112,267,1,0,0:0:0:0:
209,107,405,1,0,0:0:0:0:
214,121,543,2,0,L|154:129,1,47.5
356,192,820,5,0,0:0:0:0:
357,201,958,1,0,0:0:0:0:
358,209,1096,2,0,L|310:202,1,47.5
188,267,1373,2,0,L|235:273,1,47.5
352,116,1649,5,0,0:0:0:0:
345,113,1787,1,0,0:0:0:0:
345,106,1926,1,0,0:0:0:0:
352,104,2064,1,0,0:0:0:0:
356,110,2202,1,0,0:0:0:0:
319,289,2340,5,0,0:0:0:0:
319,289,2479,1,0,0:0:0:0:
319,289,2617,1,0,0:0:0:0:
319,289,2755,2,0,L|310:351,1,47.5
199,186,3032,5,0,0:0:0:0:
192,188,3170,1,0,0:0:0:0:
185,190,3308,2,0,L|194:252,1,47.5
362,157,3585,2,0,L|355:109,1,47.5
172,22,3861,1,0,0:0:0:0:
227,74,3999,1,0,0:0:0:0:
243,4,4138,1,0,0:0:0:0:
179,68,4276,1,0,0:0:0:0:
254,41,4414,1,0,0:0:0:0:
90,73,4552,6,0,B|181:81|182:179|182:179|145:322|-45:269|53:70|182:180|182:180|203:222|232:258|312:265|355:208,1,712.5,4|0,0:0|0:0,0:0:0:0:
277,146,6764,5,6,0:0:0:0:
344,380,6903,1,0,0:0:0:0:
277,146,7041,1,8,0:0:0:0:
344,380,7179,2,0,B|308:330|348:281,1,95,0|2,0:0|0:0,0:0:0:0:
445,124,7456,6,0,L|514:136,1,56.9999982604981,8|0,0:0|0:0,0:0:0:0:
396,281,7594,2,0,L|327:293,1,56.9999982604981,8|0,0:0|0:0,0:0:0:0:
124,128,7732,2,0,B|194:142|194:142|233:122|233:122|306:135,1,190,6|0,0:0|0:0,0:0:0:0:
156,229,8147,1,8,0:0:0:0:
296,45,8285,1,0,0:0:0:0:
410,196,8423,1,2,0:0:0:0:
203,105,8562,1,0,0:0:0:0:
410,196,8700,6,0,L|419:278,1,71.25,8|0,0:0|0:0,0:0:0:0:
427,341,8976,5,6,0:0:0:0:
451,112,9115,1,0,0:0:0:0:
427,341,9253,1,8,0:0:0:0:
451,112,9391,2,0,P|405:103|352:135,1,95,0|2,0:0|0:0,0:0:0:0:
274,230,9668,6,0,L|195:218,1,56.9999982604981,8|0,0:0|0:0,0:0:0:0:
126,126,9806,2,0,L|69:134,1,56.9999982604981,8|0,0:0|0:0,0:0:0:0:
230,345,9944,6,0,B|354:327|354:327|414:257,1,190,6|0,0:0|0:0,0:0:0:0:
354,93,10359,1,8,0:0:0:0:
390,267,10497,1,0,0:0:0:0:
449,39,10635,1,2,0:0:0:0:
259,147,10774,1,0,0:0:0:0:
449,39,10912,6,0,L|442:122,1,71.25,8|0,0:0|0:0,0:0:0:0:
439,186,11188,5,6,0:0:0:0:
312,67,11327,1,0,0:0:0:0:
340,319,11465,1,8,0:0:0:0:
312,67,11603,2,0,L|212:57,1,95,0|2,0:0|0:0,0:0:0:0:
26,137,11880,6,0,L|110:128,1,56.9999982604981,8|0,0:0|0:0,0:0:0:0:
268,227,12018,2,0,L|184:218,1,56.9999982604981,8|0,0:0|0:0,0:0:0:0:
1,350,12156,6,0,B|103:277|111:392|222:307,1,227.999993041992,6|0,0:0|0:0,0:0:0:0:
296,147,12571,1,8,0:0:0:0:
145,263,12709,1,0,0:0:0:0:
243,74,12847,1,2,0:0:0:0:
410,231,12986,1,0,0:0:0:0:
237,242,13124,1,8,0:0:0:0:
235,229,13193,1,8,0:0:0:0:
233,216,13262,1,8,0:0:0:0:
231,203,13331,1,8,0:0:0:0:
230,190,13400,5,6,0:0:0:0:
338,35,13539,1,0,0:0:0:0:
488,136,13677,1,10,0:0:0:0:
325,164,13815,1,0,0:0:0:0:
451,10,13953,1,2,0:0:0:0:
378,286,14092,1,0,0:0:0:0:
273,86,14230,1,10,0:0:0:0:
183,359,14368,1,0,0:0:0:0:
126,155,14506,5,2,0:0:0:0:
126,155,14576,1,0,0:0:0:0:
126,155,14645,1,0,0:0:0:0:
258,215,14783,1,10,0:0:0:0:
393,164,14921,1,0,0:0:0:0:
452,32,15059,5,2,0:0:0:0:
452,32,15129,1,0,0:0:0:0:
452,32,15198,1,0,0:0:0:0:
306,287,15336,1,10,0:0:0:0:
512,179,15474,1,0,0:0:0:0:
306,287,15612,6,0,P|351:264|395:286,1,76,2|0,0:0|0:0,0:0:0:0:
512,382,15889,2,0,P|474:348|426:357,1,76,8|0,0:0|0:0,0:0:0:0:
260,376,16165,2,0,L|167:365,1,76
70,285,16442,2,0,P|41:241|53:201,1,76,8|0,0:0|0:0,0:0:0:0:
196,140,16718,6,0,P|152:110|112:123,1,76
251,229,16995,2,0,L|344:218,1,76,8|0,0:0|0:0,0:0:0:0:
443,89,17271,2,0,L|350:78,1,76
205,54,17548,1,8,0:0:0:0:
205,54,17686,1,0,0:0:0:0:
367,80,17824,6,0,L|291:88,1,76
92,156,18101,2,0,B|82:193|82:193|104:245,1,76,8|0,0:0|0:0,0:0:0:0:
254,282,18377,2,0,B|264:245|264:245|242:193,1,76
94,351,18654,2,0,L|18:342,1,76,8|0,0:0|0:0,0:0:0:0:
190,154,18930,5,0,0:0:0:0:
189,161,19069,1,0,0:0:0:0:
340,266,19207,1,8,0:0:0:0:
341,273,19346,1,0,0:0:0:0:
210,368,19483,1,0,0:0:0:0:
307,152,19622,2,0,L|290:55,2,76,0|8|0,0:0|0:0|0:0,0:0:0:0:
238,268,20036,6,0,L|163:281,1,76
0,347,20313,2,0,L|74:360,1,76,8|0,0:0|0:0,0:0:0:0:
267,335,20589,2,0,L|192:348,1,76
73,261,20866,2,0,P|45:211|57:175,1,76,8|0,0:0|0:0,0:0:0:0:
143,109,21142,6,0,P|198:124|215:158,1,76
175,334,21419,2,0,P|170:276|196:249,1,76,8|0,0:0|0:0,0:0:0:0:
285,210,21695,2,0,L|389:201,1,76
511,187,21972,1,8,0:0:0:0:
511,187,22110,1,0,0:0:0:0:
441,152,22248,5,2,0:0:0:0:
355,277,22387,1,0,0:0:0:0:
207,137,22525,2,0,L|216:212,1,76,8|0,0:0|0:0,0:0:0:0:
131,135,22732,1,0,0:0:0:0:
131,135,22801,6,0,L|144:232,1,95,8|0,0:0|0:0,0:0:0:0:
54,134,23009,1,0,0:0:0:0:
54,134,23078,6,0,L|71:254,1,113.999996520996,8|0,0:0|0:0,0:0:0:0:
81,319,23285,1,0,0:0:0:0:
81,319,23354,5,10,0:0:0:0:
236,226,23493,1,0,0:0:0:0:
362,356,23631,1,8,0:0:0:0:
184,305,23769,1,0,0:0:0:0:
154,121,23907,1,8,0:0:0:0:
204,96,23976,1,8,0:0:0:0:
260,101,24045,1,8,0:0:0:0:
306,133,24114,1,8,0:0:0:0:
346,169,24184,1,8,0:0:0:0:
396,193,24253,1,8,0:0:0:0:
452,188,24322,1,8,0:0:0:0:
498,156,24391,1,8,0:0:0:0:
508,80,24460,6,0,P|463:73|405:69,1,95,6|0,0:0|0:0,0:0:0:0:
256,215,24737,2,0,P|259:262|266:309,1,95,8|0,0:0|0:0,0:0:0:0:
106,198,25013,2,0,P|113:151|116:103,1,95,2|0,0:0|0:0,0:0:0:0:
244,28,25290,2,0,P|320:17|353:46,1,95,8|0,0:0|0:0,0:0:0:0:
428,190,25566,5,2,0:0:0:0:
291,79,25705,1,0,0:0:0:0:
446,6,25843,1,8,0:0:0:0:
358,242,25981,2,0,B|310:277|242:276|242:276|192:243|196:211,1,190,2|0,0:0|0:0,0:0:0:0:
114,39,26396,2,0,P|162:40|198:95,1,95,8|0,0:0|0:0,0:0:0:0:
98,225,26672,6,0,L|-34:219,1,95,2|0,0:0|0:0,0:0:0:0:
150,363,26949,2,0,L|282:357,1,95,8|0,0:0|0:0,0:0:0:0:
348,171,27225,2,0,L|216:165,1,95,2|0,0:0|0:0,0:0:0:0:
429,362,27502,2,0,P|460:299|446:260,1,95,8|0,0:0|0:0,0:0:0:0:
357,159,27778,5,2,0:0:0:0:
499,215,27917,1,0,0:0:0:0:
388,25,28055,1,10,0:0:0:0:
246,81,28194,1,0,0:0:0:0:
450,130,28331,1,2,0:0:0:0:
201,213,28470,1,0,0:0:0:0:
463,305,28608,1,10,0:0:0:0:
201,213,28746,1,0,0:0:0:0:
201,213,28815,1,0,0:0:0:0:
201,213,28884,6,0,L|213:319,1,95,2|0,0:0|0:0,0:0:0:0:
328,375,29161,2,0,P|397:377|440:351,1,95,8|0,0:0|0:0,0:0:0:0:
317,102,29437,2,0,L|305:208,1,95,2|0,0:0|0:0,0:0:0:0:
367,308,29714,1,8,0:0:0:0:
367,308,29852,1,0,0:0:0:0:
186,200,29990,5,2,0:0:0:0:
407,104,30129,1,0,0:0:0:0:
186,200,30267,1,8,0:0:0:0:
278,0,30405,2,0,B|300:68|300:68|293:119|293:119|322:209,1,190,2|0,0:0|0:0,0:0:0:0:
173,341,30820,2,0,L|186:192,1,142.5,8|0,0:0|0:0,0:0:0:0:
194,122,31096,5,2,0:0:0:0:
194,122,31373,2,0,P|139:78|52:110,1,142.5,8|0,0:3|0:0,0:0:0:0:
66,193,31649,6,0,P|144:192|194:100,1,170.999994781494,8|0,0:3|0:0,0:0:0:0:
246,14,31926,6,0,L|236:231,1,199.499993911743,8|0,0:3|0:0,0:0:0:0:
232,297,32202,5,4,0:3:0:0:
348,164,32340,2,0,L|409:175,2,47.5,0|0|8,0:0|0:0|0:0,0:0:0:0:
115,31,32617,2,0,L|54:42,2,47.5,0|0|2,0:0|0:0|0:0,0:0:0:0:
339,0,32893,2,0,L|328:72,1,47.5,8|0,0:0|0:0,0:0:0:0:
126,113,33032,2,0,L|137:185,1,47.5,8|0,0:0|0:0,0:0:0:0:
350,240,33170,2,0,L|339:312,1,47.5,8|0,0:0|0:0,0:0:0:0:
176,377,33308,6,0,P|141:327|243:321,1,190,6|8,0:0|0:0,0:0:0:0:
317,160,33723,2,0,L|207:169,1,95
437,294,33999,2,0,L|342:286,1,95,0|8,0:0|0:0,0:0:0:0:
168,117,34276,6,0,P|149:170|182:226,1,95
276,247,34552,1,0,0:0:0:0:
111,319,34691,1,8,0:0:0:0:
346,364,34829,1,0,0:0:0:0:
222,167,34967,1,0,0:0:0:0:
91,346,35105,1,0,0:0:0:0:
302,238,35244,2,0,P|369:221|447:281,1,142.5,8|0,0:0|0:0,0:0:0:0:
479,345,35520,6,0,P|472:256|467:125,1,190,6|8,0:0|0:0,0:0:0:0:
337,116,35935,2,0,P|356:63|379:6,1,95
190,155,36211,2,0,P|208:199|225:244,1,95,0|8,0:0|0:0,0:0:0:0:
389,342,36488,6,0,P|437:330|499:366,1,95
303,227,36764,1,0,0:0:0:0:
268,374,36903,1,8,0:0:0:0:
208,180,37041,1,0,0:0:0:0:
402,198,37179,1,0,0:0:0:0:
183,320,37317,1,0,0:0:0:0:
402,198,37456,2,0,P|414:137|323:120,1,142.5,8|0,0:0|0:0,0:0:0:0:
324,252,37732,6,0,P|420:237|521:227,1,190,6|8,0:0|0:0,0:0:0:0:
187,142,38147,2,0,P|233:148|280:157,1,95
103,355,38423,2,0,P|149:345|196:339,1,95,0|8,0:0|0:0,0:0:0:0:
80,179,38700,6,0,P|25:186|-8:239,1,95,0|2,0:0|0:0,0:0:0:0:
150,261,38976,1,0,0:0:0:0:
255,181,39115,1,10,0:0:0:0:
110,94,39253,1,0,0:0:0:0:
287,182,39391,1,2,0:0:0:0:
52,299,39529,1,0,0:0:0:0:
319,183,39668,2,0,L|441:170,1,95,10|0,0:0|0:0,0:0:0:0:
213,5,39944,5,6,0:0:0:0:
378,106,40082,1,0,0:0:0:0:
309,289,40221,1,10,0:0:0:0:
229,93,40359,1,0,0:0:0:0:
463,307,40497,1,2,0:0:0:0:
157,382,40635,1,0,0:0:0:0:
345,202,40774,1,10,0:0:0:0:
345,202,40843,1,8,0:0:0:0:
345,202,40912,1,8,0:0:0:0:
122,27,41050,5,2,0:0:0:0:
181,279,41188,1,0,0:0:0:0:
292,6,41327,1,10,0:0:0:0:
283,264,41465,1,0,0:0:0:0:
283,264,41534,1,0,0:0:0:0:
283,264,41603,2,0,L|272:157,1,95,2|0,0:0|0:0,0:0:0:0:
456,4,41880,2,0,L|447:99,1,95,10|0,0:0|0:0,0:0:0:0:
306,48,42156,5,4,0:0:0:0:
234,54,42294,1,0,0:0:0:0:
188,110,42433,1,8,0:0:0:0:
195,182,42571,1,0,0:0:0:0:
132,63,42709,1,2,0:0:0:0:
60,70,42848,1,0,0:0:0:0:
14,126,42986,1,8,0:0:0:0:
21,197,43124,1,0,0:0:0:0:
163,253,43262,6,0,L|88:265,1,76,2|0,0:0|0:0,0:0:0:0:
261,384,43539,2,0,L|186:372,1,76,8|0,0:0|0:0,0:0:0:0:
384,258,43815,2,0,L|309:270,2,76,2|0|8,0:0|0:0|0:0,0:0:0:0:
202,53,44230,1,0,0:0:0:0:
203,60,44368,5,6,0:0:0:0:
288,88,44506,1,0,0:0:0:0:
193,82,44645,1,8,0:0:0:0:
108,110,44783,1,0,0:0:0:0:
233,145,44921,1,2,0:0:0:0:
318,173,45059,1,0,0:0:0:0:
185,215,45198,1,8,0:0:0:0:
100,243,45336,1,0,0:0:0:0:
290,266,45474,6,0,L|281:358,1,76,2|0,0:0|0:0,0:0:0:0:
177,139,45751,2,0,L|186:231,1,76,8|0,0:0|0:0,0:0:0:0:
325,97,46027,2,0,L|316:189,2,76,2|0|2,0:0|0:0|0:0,0:0:0:0:
108,34,46442,1,0,0:0:0:0:
106,39,46580,5,6,0:0:0:0:
159,88,46718,1,0,0:0:0:0:
232,96,46857,1,8,0:0:0:0:
296,62,46995,1,0,0:0:0:0:
361,31,47133,1,2,0:0:0:0:
433,34,47271,1,0,0:0:0:0:
491,79,47410,1,8,0:0:0:0:
512,149,47548,1,0,0:0:0:0:
442,246,47686,6,0,L|353:234,1,76,6|0,0:0|0:0,0:0:0:0:
223,118,47963,2,0,L|312:106,1,76,8|0,0:0|0:0,0:0:0:0:
184,305,48239,2,0,L|95:293,1,76,2|0,0:0|0:0,0:0:0:0:
40,90,48516,1,0,0:0:0:0:
42,85,48792,5,0,0:0:0:0:
135,188,48930,1,8,0:0:0:0:
135,188,49069,2,0,L|257:172,1,114,8|0,0:0|0:0,0:0:0:0:
248,173,49345,1,8,0:0:0:0:
178,265,49483,6,0,L|311:247,1,128.249996086121,8|0,0:0|0:0,0:0:0:0:
305,247,49760,2,0,L|298:343,1,85.4999973907472,8|0,0:0|0:0,0:0:0:0:
425,62,50036,5,8,0:0:0:0:
399,65,50105,1,8,0:0:0:0:
372,68,50175,2,8,L|322:63,1,42.7499986953736
289,142,50313,1,8,0:0:0:0:
263,145,50382,1,8,0:0:0:0:
236,148,50452,2,8,L|186:143,1,42.7499986953736
104,21,50589,1,8,0:0:0:0:
74,51,50658,1,8,0:0:0:0:
62,91,50727,1,8,0:0:0:0:
70,133,50796,1,8,0:0:0:0:
89,174,50866,1,8,0:0:0:0:
104,213,50935,1,8,0:0:0:0:
99,255,51004,6,0,L|50:268,1,42.7499986953736,12|0,0:0|0:0,0:0:0:0:
177,322,51281,5,2,0:0:0:0:
188,319,51419,1,2,0:0:0:0:
221,319,51557,1,2,0:0:0:0:
271,342,51695,1,2,0:0:0:0:
348,353,51834,1,2,0:0:0:0:
428,296,51972,6,0,P|420:243|419:181,1,113.999996520996,6|0,0:0|0:0,0:0:0:0:
289,8,52248,1,0,0:0:0:0:
289,8,52317,1,0,0:0:0:0:
289,8,52387,2,0,P|288:64|279:121,1,113.999996520996,8|0,0:0|0:0,0:0:0:0:
56,227,52664,2,0,B|111:205|111:205|171:218,1,113.999996520996,2|0,0:0|0:0,0:0:0:0:
356,271,52940,1,8,0:0:0:0:
356,271,53009,1,0,0:0:0:0:
356,271,53078,1,0,0:0:0:0:
162,72,53216,6,0,P|171:108|180:143,1,56.9999982604981,2|0,0:0|0:0,0:0:0:0:
170,351,53354,1,0,0:0:0:0:
188,141,53493,1,8,0:0:0:0:
71,361,53631,1,0,0:0:0:0:
296,129,53769,1,2,0:0:0:0:
71,361,53907,1,0,0:0:0:0:
310,262,54046,1,8,0:0:0:0:
310,262,54115,1,0,0:0:0:0:
310,262,54184,6,0,B|239:224|239:224|171:235|171:235|89:189,1,227.999993041992,6|0,0:0|0:0,0:0:0:0:
288,95,54599,1,8,0:0:0:0:
103,197,54737,2,0,L|-9:213,1,113.999996520996,0|2,0:0|0:0,0:0:0:0:
120,24,55013,2,0,L|232:40,1,113.999996520996,0|8,0:0|0:0,0:0:0:0:
407,311,55290,1,0,0:0:0:0:
405,304,55359,1,0,0:0:0:0:
403,297,55428,5,2,0:0:0:0:
389,193,55566,1,0,0:0:0:0:
469,91,55705,1,10,0:0:0:0:
305,247,55843,1,0,0:0:0:0:
376,12,55981,1,2,0:0:0:0:
512,188,56119,1,0,0:0:0:0:
273,116,56258,1,10,0:0:0:0:
273,116,56327,1,0,0:0:0:0:
273,116,56396,6,0,B|120:133|120:133|69:59,1,227.999993041992,6|0,0:0|0:0,0:0:0:0:
45,244,56811,2,0,P|64:313|76:367,1,113.999996520996,8|0,0:0|0:0,0:0:0:0:
334,195,57087,2,0,P|265:161|207:184,1,113.999996520996,2|0,0:0|0:0,0:0:0:0:
98,383,57364,2,0,P|135:340|190:330,1,113.999996520996,8|0,0:0|0:0,0:0:0:0:
330,375,57640,6,0,L|460:357,1,113.999996520996,2|0,0:0|0:0,0:0:0:0:
346,115,57917,1,8,0:0:0:0:
164,261,58055,2,0,P|117:217|126:149,1,113.999996520996,0|2,0:0|0:0,0:0:0:0:
273,80,58331,2,0,P|213:55|155:92,1,113.999996520996,0|8,0:0|0:0,0:0:0:0:
177,285,58608,6,0,P|285:272|431:260,1,227.999993041992,6|0,0:0|0:0,0:0:0:0:
502,46,59023,1,8,0:0:0:0:
468,302,59161,1,0,0:0:0:0:
280,129,59299,1,2,0:0:0:0:
357,375,59437,1,0,0:0:0:0:
512,189,59576,1,8,0:0:0:0:
231,364,59714,1,8,0:0:0:0:
231,364,59783,1,8,0:0:0:0:
231,364,59852,5,10,0:0:0:0:
482,291,59990,1,0,0:0:0:0:
171,194,60129,1,8,0:0:0:0:
482,291,60267,1,0,0:0:0:0:
333,1,60405,1,8,0:0:0:0:
335,17,60474,1,8,0:0:0:0:
337,33,60543,1,8,0:0:0:0:
339,50,60612,1,8,0:0:0:0:
341,66,60681,1,8,0:0:0:0:
343,82,60750,1,8,0:0:0:0:
346,100,60820,6,0,B|303:83|303:83|271:90|271:90|247:60|204:58,1,142.499995651245,2|0,0:0|0:0,0:0:0:0:
91,171,61234,6,0,L|217:142,1,113.999996520996,12|0,0:0|0:0,0:0:0:0:
464,186,61511,1,2,0:0:0:0:
401,355,61649,1,0,0:0:0:0:
232,292,61787,1,8,0:0:0:0:
295,123,61926,1,0,0:0:0:0:
512,266,62064,6,0,L|379:274,1,113.999996520996,2|0,0:0|0:0,0:0:0:0:
150,270,62340,2,0,P|196:215|268:215,1,113.999996520996,8|0,0:0|0:0,0:0:0:0:
343,378,62617,2,0,P|368:328|358:273,1,113.999996520996,2|0,0:0|0:0,0:0:0:0:
163,141,62893,1,8,0:0:0:0:
413,313,63032,6,0,B|359:273|359:273|374:83,1,227.999993041992,6|0,0:0|0:0,0:0:0:0:
477,235,63446,1,8,0:0:0:0:
285,117,63585,2,0,P|228:95|173:114,1,113.999996520996,0|2,0:0|0:0,0:0:0:0:
0,192,63861,2,0,P|60:196|102:236,1,113.999996520996,0|8,0:0|0:0,0:0:0:0:
259,371,64138,1,0,0:0:0:0:
260,363,64207,1,0,0:0:0:0:
261,355,64276,5,2,0:0:0:0:
201,187,64414,1,0,0:0:0:0:
57,312,64552,1,8,0:0:0:0:
315,174,64691,1,0,0:0:0:0:
149,371,64829,1,2,0:0:0:0:
118,86,64967,1,0,0:0:0:0:
390,209,65105,2,0,L|513:193,1,113.999996520996,8|0,0:0|0:0,0:0:0:0:
269,66,65382,5,6,0:0:0:0:
265,282,65520,1,0,0:0:0:0:
410,126,65658,1,10,0:0:0:0:
181,218,65797,1,0,0:0:0:0:
373,54,65935,1,2,0:0:0:0:
343,371,66073,1,0,0:0:0:0:
119,155,66211,1,10,0:0:0:0:
399,298,66350,1,0,0:0:0:0:
399,298,66419,1,0,0:0:0:0:
399,298,66488,5,2,0:0:0:0:
252,50,66626,1,0,0:0:0:0:
131,352,66764,1,10,0:0:0:0:
432,211,66903,1,0,0:0:0:0:
79,114,67041,1,2,0:0:0:0:
438,1,67179,1,0,0:0:0:0:
207,204,67317,1,10,0:0:0:0:
212,245,67386,1,8,0:0:0:0:
218,287,67455,1,8,0:0:0:0:
223,329,67524,1,8,0:0:0:0:
229,371,67593,5,10,0:0:0:0:
512,290,67732,1,0,0:0:0:0:
212,245,67870,5,10,0:0:0:0:
495,164,68009,1,0,0:0:0:0:
195,119,68147,5,10,0:0:0:0:
478,38,68286,1,0,0:0:0:0:
178,0,68423,5,10,0:0:0:0:
178,0,68493,1,8,0:0:0:0:
178,0,68562,1,8,0:0:0:0:
340,200,68700,5,8,0:0:0:0:
355,195,68769,1,8,0:0:0:0:
370,190,68838,1,8,0:0:0:0:
385,185,68907,1,8,0:0:0:0:
400,180,68976,1,8,0:0:0:0:
93,80,69115,2,8,L|107:151,2,56.9999982604981
15,290,69391,1,8,0:0:0:0:
60,256,69460,1,8,0:0:0:0:
116,252,69529,1,8,0:0:0:0:
165,279,69598,1,8,0:0:0:0:
206,316,69668,1,8,0:0:0:0:
251,349,69737,1,8,0:0:0:0:
307,353,69806,6,0,P|397:324|365:176,1,227.999993041992,6|8,0:0|0:0,0:0:0:0:
301,66,70221,1,0,0:0:0:0:
294,67,70359,2,0,L|180:83,1,113.999996520996,2|0,0:0|0:0,0:0:0:0:
226,253,70635,2,0,L|340:269,1,113.999996520996,8|0,0:0|0:0,0:0:0:0:
135,145,70912,6,0,P|63:165|31:216,1,113.999996520996,2|0,0:0|0:0,0:0:0:0:
360,251,71188,2,0,P|406:283|426:336,1,113.999996520996,8|0,0:0|0:0,0:0:0:0:
105,297,71465,2,0,P|48:345|40:405,1,113.999996520996,2|0,0:0|0:0,0:0:0:0:
259,295,71741,2,0,L|248:161,1,113.999996520996,8|0,0:0|0:0,0:0:0:0:
430,0,72018,6,0,L|415:170,1,170.999994781494,2|0,0:0|0:0,0:0:0:0:
408,243,72294,1,8,0:0:0:0:
308,88,72433,2,0,B|224:72|224:72|168:93|168:93|82:73,1,227.999993041992,2|0,0:0|0:0,0:0:0:0:
269,200,72847,1,8,0:0:0:0:
87,74,72986,6,0,L|107:190,1,113.999996520996,0|2,0:0|0:0,0:0:0:0:
0,352,73262,2,0,L|19:239,1,113.999996520996,0|8,0:0|0:0,0:0:0:0:
279,130,73539,1,0,0:0:0:0:
100,266,73677,1,2,0:0:0:0:
279,130,73815,1,0,0:0:0:0:
189,371,73953,2,0,L|172:187,1,170.999994781494,8|0,0:0|0:0,0:0:0:0:
166,92,74230,6,0,B|283:43|270:168|402:81,1,227.999993041992,6|8,0:0|0:0,0:0:0:0:
506,133,74645,1,0,0:0:0:0:
506,133,74783,2,0,P|470:213|490:252,1,113.999996520996,2|0,0:0|0:0,0:0:0:0:
271,326,75059,2,0,P|315:291|370:296,1,113.999996520996,8|0,0:0|0:0,0:0:0:0:
185,230,75336,6,0,L|58:237,1,113.999996520996,2|0,0:0|0:0,0:0:0:0:
287,134,75612,2,0,L|414:141,1,113.999996520996,8|0,0:0|0:0,0:0:0:0:
149,53,75889,2,0,L|22:60,1,113.999996520996,2|0,0:0|0:0,0:0:0:0:
314,0,76165,2,0,P|392:-6|424:52,1,113.999996520996,8|0,0:0|0:0,0:0:0:0:
343,216,76442,6,0,L|155:187,1,170.999994781494,2|0,0:0|0:0,0:0:0:0:
102,177,76718,1,8,0:0:0:0:
285,344,76857,2,0,B|391:309|391:309|524:328,1,227.999993041992,2|0,0:0|0:0,0:0:0:0:
407,157,77271,1,8,0:0:0:0:
285,344,77410,6,0,L|133:322,1,113.999996520996,0|2,0:0|0:0,0:0:0:0:
36,97,77686,2,0,L|14:249,1,113.999996520996,0|8,0:0|0:0,0:0:0:0:
282,24,77963,1,0,0:0:0:0:
112,72,78101,1,2,0:0:0:0:
326,115,78239,1,0,0:0:0:0:
112,72,78377,2,0,P|174:51|237:143,1,170.999994781494,8|0,0:0|0:0,0:0:0:0:
246,238,78654,6,0,B|303:301|372:302|372:302|413:282|426:239,1,227.999993041992,6|8,0:0|0:0,0:0:0:0:
392,38,79069,1,0,0:0:0:0:
392,38,79207,2,0,P|332:77|333:139,1,113.999996520996,2|0,0:0|0:0,0:0:0:0:
511,176,79483,2,0,P|531:107|491:60,1,113.999996520996,8|0,0:0|0:0,0:0:0:0:
362,345,79760,6,0,L|490:336,1,113.999996520996,2|0,0:0|0:0,0:0:0:0:
312,187,80036,2,0,L|199:180,1,113.999996520996,8|0,0:0|0:0,0:0:0:0:
65,381,80313,2,0,L|193:372,1,113.999996520996,2|0,0:0|0:0,0:0:0:0:
129,76,80589,2,0,P|90:151|111:200,1,113.999996520996,8|0,0:0|0:0,0:0:0:0:
284,343,80866,6,0,P|271:288|225:255,1,113.999996520996,2|0,0:0|0:0,0:0:0:0:
264,19,81142,1,8,0:0:0:0:
264,19,81281,2,0,P|289:99|338:119,1,113.999996520996,0|2,0:0|0:0,0:0:0:0:
512,92,81557,2,0,P|460:159|407:160,1,113.999996520996,0|8,0:0|0:0,0:0:0:0:
199,195,81834,2,0,P|270:240|320:223,1,113.999996520996,0|2,0:0|0:0,0:0:0:0:
436,89,82110,5,0,0:0:0:0:
432,81,82248,1,8,0:0:0:0:
366,314,82387,1,0,0:0:0:0:
370,306,82525,1,2,0:0:0:0:
235,118,82663,2,0,L|104:130,2,113.999996520996,0|8|0,0:0|0:0|0:0,0:0:0:0:
470,221,83078,5,2,0:0:0:0:
406,180,83216,1,0,0:0:0:0:
332,194,83354,1,8,0:0:0:0:
290,257,83493,1,0,0:0:0:0:
164,357,83631,5,2,0:0:0:0:
91,379,83769,1,0,0:0:0:0:
23,346,83907,1,8,0:0:0:0:
0,274,84046,1,0,0:0:0:0:
117,116,84184,5,2,0:0:0:0:
113,147,84322,1,0,0:0:0:0:
109,179,84460,1,2,0:0:0:0:
106,210,84599,1,0,0:0:0:0:
191,277,84737,5,8,0:0:0:0:
198,271,84875,1,0,0:0:0:0:
191,264,85013,1,2,0:0:0:0:
185,271,85152,1,0,0:0:0:0:
190,269,85290,6,0,P|271:250|364:258,1,170.999994781494,8|0,0:0|0:0,0:0:0:0:
471,133,85843,6,0,P|387:135|312:159,1,142.5,8|0,0:0|0:0,0:0:0:0:
94,142,86396,6,0,P|157:157|211:185,1,114,8|0,0:0|0:0,0:0:0:0:
287,75,86949,1,0,0:0:0:0:
286,69,87018,1,0,0:0:0:0:
285,63,87087,1,0,0:0:0:0:
277,196,87225,1,0,0:0:0:0:
269,329,87364,6,0,L|257:325,1,9.5
181,52,89714,5,6,0:0:0:0:
396,137,89852,1,0,0:0:0:0:
181,52,89990,1,8,0:0:0:0:
396,137,90129,2,0,P|343:116|301:132,1,95,0|2,0:0|0:0,0:0:0:0:
186,222,90405,6,0,L|179:293,1,56.9999982604981,8|0,0:0|0:0,0:0:0:0:
336,305,90543,2,0,L|341:361,1,56.9999982604981,8|0,0:0|0:0,0:0:0:0:
125,342,90681,6,0,B|89:313|89:313|112:171,1,190,6|0,0:0|0:0,0:0:0:0:
145,33,91096,1,8,0:0:0:0:
186,222,91234,1,0,0:0:0:0:
28,149,91373,1,2,0:0:0:0:
234,83,91511,1,0,0:0:0:0:
28,149,91649,6,0,L|109:138,1,71.25,8|0,0:0|0:0,0:0:0:0:
172,131,91926,5,6,0:0:0:0:
92,248,92064,1,0,0:0:0:0:
87,37,92202,1,8,0:0:0:0:
278,119,92340,2,0,L|397:97,1,95,0|2,0:0|0:0,0:0:0:0:
500,58,92617,2,0,P|475:70|448:111,1,56.9999982604981,8|0,0:0|0:0,0:0:0:0:
512,278,92755,2,0,P|505:250|510:223,1,56.9999982604981,8|0,0:0|0:0,0:0:0:0:
359,117,92893,6,0,L|392:307,1,190,6|0,0:0|0:0,0:0:0:0:
86,260,93308,1,8,0:0:0:0:
293,349,93446,1,0,0:0:0:0:
172,155,93585,1,2,0:0:0:0:
6,315,93723,1,0,0:0:0:0:
172,155,93861,6,0,L|162:72,1,71.25,8|0,0:0|0:0,0:0:0:0:
154,11,94138,5,6,0:0:0:0:
95,245,94276,1,0,0:0:0:0:
154,11,94414,1,8,0:0:0:0:
95,245,94552,2,0,P|76:188|103:150,1,95,0|2,0:0|0:0,0:0:0:0:
294,206,94829,6,0,P|266:216|223:220,1,56.9999982604981,8|0,0:0|0:0,0:0:0:0:
319,32,94967,2,0,P|332:64|333:108,1,56.9999982604981,8|0,0:0|0:0,0:0:0:0:
338,314,95105,6,0,B|266:302|266:302|220:315|220:315|123:296,1,190,6|0,0:0|0:0,0:0:0:0:
127,92,95520,1,8,0:0:0:0:
50,312,95658,1,0,0:0:0:0:
127,92,95797,1,2,0:0:0:0:
269,373,95935,1,0,0:0:0:0:
23,203,96073,1,8,0:0:0:0:
45,200,96142,1,8,0:0:0:0:
68,197,96211,1,8,0:0:0:0:
90,195,96280,1,8,0:0:0:0:
113,192,96349,5,6,0:0:0:0:
236,306,96488,1,0,0:0:0:0:
255,61,96626,1,10,0:0:0:0:
109,278,96764,1,0,0:0:0:0:
139,1,96903,1,2,0:0:0:0:
385,154,97041,1,0,0:0:0:0:
74,98,97179,1,10,0:0:0:0:
262,320,97317,1,0,0:0:0:0:
272,18,97456,5,2,0:0:0:0:
272,18,97525,1,0,0:0:0:0:
272,18,97594,1,0,0:0:0:0:
220,157,97732,1,10,0:0:0:0:
311,244,97870,1,0,0:0:0:0:
119,296,98009,5,2,0:0:0:0:
119,296,98078,1,0,0:0:0:0:
119,296,98147,1,0,0:0:0:0:
356,177,98285,1,10,0:0:0:0:
119,296,98423,1,0,0:0:0:0:
218,92,98562,6,0,L|230:153,2,47.5,2|0|8,0:0|0:0|0:0,0:0:0:0:
349,202,98976,2,0,L|361:263,2,47.5
338,107,99391,1,8,0:0:0:0:
388,59,99530,1,0,0:0:0:0:
404,126,99668,6,0,L|468:118,2,47.5,0|0|8,0:0|0:0|0:0,0:0:0:0:
275,186,100082,2,0,L|211:178,2,47.5
420,200,100497,1,8,0:0:0:0:
436,274,100635,1,0,0:0:0:0:
320,100,100774,6,0,L|272:105,2,47.5,0|0|8,0:0|0:0|0:0,0:0:0:0:
203,205,101188,2,0,L|155:199,2,47.5
96,30,101603,1,8,0:0:0:0:
82,113,101741,1,0,0:0:0:0:
68,196,101880,6,0,L|74:253,1,47.5
95,273,102156,2,0,L|101:330,1,47.5,8|0,0:0|0:0,0:0:0:0:
203,126,102433,2,0,P|222:108|259:102,1,47.5,2|0,0:0|0:0,0:0:0:0:
336,214,102709,2,0,P|344:189|334:153,1,47.5,2|0,0:0|0:0,0:0:0:0:
201,43,102986,6,0,P|225:32|261:39,2,47.5,2|0|8,0:0|0:0|0:0,0:0:0:0:
44,146,103400,2,0,P|19:135|-16:142,2,47.5
220,222,103815,1,8,0:0:0:0:
130,258,103953,1,0,0:0:0:0:
179,113,104092,6,0,L|169:176,2,47.5,0|0|8,0:0|0:0|0:0,0:0:0:0:
253,245,104506,2,0,L|263:308,2,47.5
409,124,104921,1,8,0:0:0:0:
326,138,105059,1,0,0:0:0:0:
227,52,105198,2,0,L|290:62,1,47.5,2|0,0:0|0:0,0:0:0:0:
163,171,105474,6,0,L|87:181,1,56.9999982604981,10|0,0:0|0:0,0:0:0:0:
326,138,105751,6,0,L|339:223,1,66.4999979705811,2|0,0:0|0:0,0:0:0:0:
148,260,106027,6,0,L|135:345,1,66.4999979705811,10|0,0:0|0:0,0:0:0:0:
47,131,106304,6,0,P|100:103|158:118,1,95,2|0,0:0|0:0,0:0:0:0:
349,228,106580,1,8,0:0:0:0:
223,103,106718,1,0,0:0:0:0:
136,316,106857,1,10,0:0:0:0:
137,321,106926,1,8,0:0:0:0:
138,326,106995,1,8,0:0:0:0:
47,131,107133,1,8,0:0:0:0:
48,126,107202,1,8,0:0:0:0:
49,121,107271,1,8,0:0:0:0:
0,291,107410,6,0,B|82:234|100:339|212:237,1,190,6|8,0:0|0:0,0:0:0:0:
230,88,107824,2,0,P|185:91|150:127,1,95,0|2,0:0|0:0,0:0:0:0:
256,276,108101,2,0,L|374:256,1,95,0|8,0:0|0:0,0:0:0:0:
212,155,108377,1,0,0:0:0:0:
349,260,108516,6,0,L|442:275,1,95,2|0,0:0|0:0,0:0:0:0:
298,369,108792,2,0,L|205:384,1,95,8|0,0:0|0:0,0:0:0:0:
299,151,109069,1,2,0:0:0:0:
442,275,109207,1,0,0:0:0:0:
299,151,109345,2,0,P|244:136|164:175,1,142.5,8|0,0:0|0:0,0:0:0:0:
120,222,109622,6,0,P|77:243|19:237,1,95,2|0,0:0|0:0,0:0:0:0:
161,49,109898,2,0,P|206:64|243:109,1,95,8|0,0:0|0:0,0:0:0:0:
274,291,110175,1,2,0:0:0:0:
386,48,110313,2,0,L|372:162,1,95,0|8,0:0|0:0,0:0:0:0:
374,142,110520,1,0,0:0:0:0:
374,142,110589,1,0,0:0:0:0:
347,353,110728,5,2,0:0:0:0:
351,343,110866,1,0,0:0:0:0:
252,365,111004,1,8,0:0:0:0:
370,259,111142,1,0,0:0:0:0:
252,365,111281,1,2,0:0:0:0:
440,311,111419,1,0,0:0:0:0:
261,267,111557,2,0,L|112:283,1,142.5,8|0,0:0|0:0,0:0:0:0:
52,254,111834,6,0,P|94:215|149:214,1,95,2|0,0:0|0:0,0:0:0:0:
284,353,112110,1,8,0:0:0:0:
284,353,112248,2,0,P|281:295|243:256,1,95,0|2,0:0|0:0,0:0:0:0:
81,98,112525,2,0,P|138:100|177:138,1,95,0|8,0:0|0:0,0:0:0:0:
260,266,112801,1,0,0:0:0:0:
260,266,112940,6,0,L|376:236,2,95,2|0|8,0:0|0:0|0:0,0:0:0:0:
373,69,113354,1,0,0:0:0:0:
351,242,113493,2,0,L|368:336,1,95,2|0,0:0|0:0,0:0:0:0:
128,302,113769,2,0,P|82:253|116:185,1,142.5,8|0,0:0|0:0,0:0:0:0:
174,160,114046,5,0,0:0:0:0:
174,160,114322,2,0,L|321:138,1,142.5,8|0,0:3|0:0,0:0:0:0:
392,131,114599,6,0,B|324:116|324:116|285:120|285:120|195:95,1,170.999994781494,8|0,0:3|0:0,0:0:0:0:
114,101,114875,6,0,P|106:190|175:138,1,199.499993911743,8|0,0:3|0:0,0:0:0:0:
149,29,115152,5,8,0:3:0:0:
232,227,115290,2,0,L|216:282,2,47.5,0|0|8,0:0|0:0|0:0,0:0:0:0:
349,55,115566,2,0,L|335:9,2,47.5,0|0|2,0:0|0:0|0:0,0:0:0:0:
457,333,115843,2,0,L|401:349,1,47.5,8|0,0:0|0:0,0:0:0:0:
360,151,115981,2,0,L|314:137,1,47.5,8|0,0:0|0:0,0:0:0:0:
208,293,116119,2,0,L|152:309,1,47.5,8|0,0:0|0:0,0:0:0:0:
13,89,116258,6,0,B|83:70|83:70|102:194,1,190,12|0,0:0|0:0,0:0:0:0:
208,293,116672,2,0,P|248:260|262:195,1,95
288,95,116949,2,0,P|331:113|359:150,1,95
342,315,117225,2,0,P|304:343|258:348,1,95
90,276,117502,5,0,0:0:0:0:
211,214,117640,1,0,0:0:0:0:
176,363,117778,1,0,0:0:0:0:
59,257,117917,1,0,0:0:0:0:
165,140,118055,1,0,0:0:0:0:
282,246,118193,2,0,L|428:225,1,142.5
410,157,118470,6,0,L|203:188,1,190
86,158,118884,2,0,L|97:44,1,95
214,203,119161,2,0,L|223:297,1,95
0,287,119437,6,0,P|57:263|109:278,1,95
265,364,119714,1,0,0:0:0:0:
214,203,119852,1,0,0:0:0:0:
56,334,119990,1,0,0:0:0:0:
162,117,120129,1,0,0:0:0:0:
288,264,120267,1,0,0:0:0:0:
56,187,120405,2,0,L|211:194,1,142.5
326,205,120681,6,0,B|309:347|309:347|378:337,1,190
509,160,121096,2,0,L|377:142,1,95
198,294,121373,2,0,L|329:276,1,95
178,66,121649,6,0,P|128:71|88:121,1,95
130,358,121926,1,0,0:0:0:0:
159,138,122064,1,0,0:0:0:0:
292,281,122202,1,0,0:0:0:0:
67,196,122340,1,0,0:0:0:0:
208,374,122479,1,0,0:0:0:0:
287,107,122617,2,0,L|386:120,1,95
486,75,122893,5,0,0:0:0:0:
305,199,123032,1,0,0:0:0:0:
376,44,123170,1,0,0:0:0:0:
310,300,123308,1,0,0:0:0:0:
121,114,123446,1,0,0:0:0:0:
424,209,123585,1,0,0:0:0:0:
258,3,123723,1,0,0:0:0:0:
258,3,123792,1,0,0:0:0:0:
258,3,123861,1,0,0:0:0:0:
167,315,123999,5,0,0:0:0:0:
424,209,124138,1,0,0:0:0:0:
170,206,124276,1,0,0:0:0:0:
427,318,124414,1,0,0:0:0:0:
427,318,124483,1,0,0:0:0:0:
427,318,124552,2,0,L|321:333,1,95
160,352,124829,2,0,L|65:338,1,95
224,128,125105,5,0,0:0:0:0:
239,201,125244,1,0,0:0:0:0:
299,86,125382,1,0,0:0:0:0:
302,161,125521,1,0,0:0:0:0:
381,58,125658,1,0,0:0:0:0:
370,132,125797,1,0,0:0:0:0:
466,44,125935,1,0,0:0:0:0:
442,115,126074,1,0,0:0:0:0:
372,45,126211,6,0,L|289:33,1,76
148,138,126488,2,0,L|231:126,1,76
433,239,126764,2,0,B|443:240|350:227,2,76
257,325,127179,1,0,0:0:0:0:
256,318,127317,5,0,0:0:0:0:
182,274,127456,1,0,0:0:0:0:
98,295,127594,1,0,0:0:0:0:
53,369,127732,1,0,0:0:0:0:
127,318,127870,1,0,0:0:0:0:
149,234,128009,1,0,0:0:0:0:
107,159,128147,1,0,0:0:0:0:
24,134,128285,1,0,0:0:0:0:
162,220,128423,6,0,L|263:204,1,76
347,135,128700,2,0,L|422:146,1,76
288,270,128976,2,0,L|212:281,2,76
211,24,129391,1,0,0:0:0:0:
212,29,129529,5,0,0:0:0:0:
291,71,129668,1,0,0:0:0:0:
376,44,129806,1,0,0:0:0:0:
212,116,129944,1,0,0:0:0:0:
376,44,130082,1,0,0:0:0:0:
289,196,130221,1,0,0:0:0:0:
260,18,130359,1,0,0:0:0:0:
388,147,130497,1,0,0:0:0:0:
212,116,130635,6,0,L|107:136,1,76
7,237,130912,2,0,L|112:257,1,76
312,308,131188,2,0,L|207:328,1,76
137,130,131465,1,0,0:0:0:0:
