osu file format v14

[General]
AudioFilename: audio.mp3
AudioLeadIn: 0
PreviewTime: 6391
Countdown: 0
SampleSet: Normal
StackLeniency: 0.7
Mode: 1
LetterboxInBreaks: 0
WidescreenStoryboard: 1

[Editor]
Bookmarks: 4985,6485,42485,60485,66485,78478,90485,102485,126485
DistanceSpacing: 0.5
BeatDivisor: 2
GridSize: 32
TimelineZoom: 1.1

[Metadata]
Title:Wario Kouzan
TitleUnicode:ワリオこうざん
Artist:Ohta Asuka, Nagamatsu Ryo
ArtistUnicode:太田あすか, 永松亮
Creator:Default Guy
Version:Poly's Kantan
Source:マリオカートWii
Tags:video game instrumental mario kart gold mine プラチナサウンドトラック platinum soundtrack nintendo poly polypsychic poly6c
BeatmapID:2746285
BeatmapSetID:1325757

[Difficulty]
HPDrainRate:9
CircleSize:2
OverallDifficulty:3
ApproachRate:10
SliderMultiplier:1.4
SliderTickRate:1

[Events]
//Background and Video events
0,0,"wario.jpg",0,0
//Break Periods
//Storyboard Layer 0 (Background)
//Storyboard Layer 1 (Fail)
//Storyboard Layer 2 (Pass)
//Storyboard Layer 3 (Foreground)
//Storyboard Layer 4 (Overlay)
//Storyboard Sound Samples

[TimingPoints]
478,375,4,1,0,40,1,0
478,-100,4,1,0,40,0,0
6478,-100,4,1,0,60,0,0
42478,-100,4,1,0,60,0,1
60478,-100,4,1,0,40,0,0
61978,-100,4,1,0,30,0,0
63478,-100,4,1,0,20,0,0
65540,-100,4,1,0,60,0,0
102478,-100,4,1,0,60,0,1
120478,-100,4,1,0,40,0,0
125634,-100,4,1,0,45,0,0
126431,-100,4,1,0,60,0,0

[HitObjects]
256,192,478,5,8,0:0:0:0:
255,191,853,1,0,0:0:0:0:
255,192,1228,1,8,0:0:0:0:
255,191,1978,1,8,0:0:0:0:
255,191,2353,1,0,0:0:0:0:
255,191,2728,1,8,0:0:0:0:
255,191,3478,1,8,0:0:0:0:
255,191,3853,1,0,0:0:0:0:
255,191,4228,1,8,0:0:0:0:
255,191,4978,1,8,0:0:0:0:
255,191,6478,1,4,0:0:0:0:
255,191,7228,1,8,0:0:0:0:
255,191,7978,1,8,0:0:0:0:
255,191,8353,1,8,0:0:0:0:
255,191,9103,1,0,0:0:0:0:
255,191,9478,1,8,0:0:0:0:
255,191,9853,1,0,0:0:0:0:
255,191,10603,1,0,0:0:0:0:
255,191,10978,1,8,0:0:0:0:
255,191,11353,1,8,0:0:0:0:
255,191,11728,1,8,0:0:0:0:
255,191,12478,1,12,0:0:0:0:
255,191,13603,1,8,0:0:0:0:
255,191,13978,1,8,0:0:0:0:
255,191,14728,1,0,0:0:0:0:
255,191,15103,1,8,0:0:0:0:
255,191,15478,1,8,0:0:0:0:
255,191,16603,1,0,0:0:0:0:
255,191,16978,1,8,0:0:0:0:
255,191,17353,1,8,0:0:0:0:
255,191,17728,1,8,0:0:0:0:
255,191,18478,1,4,0:0:0:0:
255,191,19228,1,8,0:0:0:0:
255,191,19978,1,8,0:0:0:0:
255,191,20353,1,8,0:0:0:0:
255,191,21103,1,0,0:0:0:0:
255,191,21478,1,8,0:0:0:0:
255,191,21853,1,0,0:0:0:0:
255,191,22978,1,0,0:0:0:0:
255,191,23353,1,0,0:0:0:0:
255,191,23728,1,8,0:0:0:0:
255,191,24478,1,12,0:0:0:0:
255,191,25603,1,8,0:0:0:0:
255,191,25978,1,8,0:0:0:0:
255,191,26728,1,0,0:0:0:0:
255,191,27103,1,8,0:0:0:0:
255,191,27478,1,8,0:0:0:0:
255,191,28228,1,0,0:0:0:0:
255,191,28603,1,8,0:0:0:0:
255,191,28978,1,8,0:0:0:0:
255,191,29728,1,0,0:0:0:0:
255,191,30478,1,0,0:0:0:0:
255,191,31228,1,8,0:0:0:0:
255,191,31978,1,0,0:0:0:0:
255,191,32728,1,8,0:0:0:0:
255,191,33478,1,0,0:0:0:0:
255,191,34978,1,0,0:0:0:0:
255,191,35728,1,8,0:0:0:0:
255,191,36478,1,8,0:0:0:0:
113,112,37228,1,8,0:0:0:0:
255,191,37978,1,0,0:0:0:0:
255,191,38728,1,8,0:0:0:0:
255,191,39478,1,8,0:0:0:0:
255,191,40228,1,8,0:0:0:0:
255,191,40978,1,0,0:0:0:0:
196,152,41353,1,0,0:0:0:0:
255,191,41728,1,8,0:0:0:0:
255,191,42478,1,4,0:0:0:0:
255,191,43228,1,0,0:0:0:0:
255,191,43978,1,8,0:0:0:0:
255,191,44353,1,8,0:0:0:0:
255,191,45478,1,0,0:0:0:0:
255,191,46228,1,8,0:0:0:0:
255,191,46978,1,0,0:0:0:0:
255,191,47353,1,8,0:0:0:0:
255,191,47728,1,8,0:0:0:0:
255,191,48478,1,12,0:0:0:0:
255,191,49603,1,0,0:0:0:0:
255,191,49978,1,8,0:0:0:0:
255,191,50728,1,0,0:0:0:0:
255,191,51103,1,8,0:0:0:0:
255,191,51478,1,0,0:0:0:0:
255,192,52228,1,8,0:0:0:0:
255,191,52603,1,0,0:0:0:0:
255,191,52978,1,0,0:0:0:0:
255,191,53728,1,0,0:0:0:0:
255,191,54478,1,0,0:0:0:0:
255,191,55978,1,0,0:0:0:0:
255,191,56728,1,8,0:0:0:0:
255,191,57478,1,8,0:0:0:0:
255,191,58978,1,0,0:0:0:0:
255,191,59728,1,8,0:0:0:0:
255,191,60103,1,0,0:0:0:0:
255,191,60853,1,8,0:0:0:0:
255,191,61603,1,0,0:0:0:0:
255,191,62353,1,8,0:0:0:0:
255,191,63103,1,0,0:0:0:0:
255,192,63853,1,8,0:0:0:0:
255,192,64603,1,0,0:0:0:0:
255,191,65728,1,8,0:0:0:0:
255,191,66478,1,4,0:0:0:0:
255,191,67228,1,8,0:0:0:0:
255,191,67978,1,8,0:0:0:0:
255,191,68353,1,8,0:0:0:0:
255,191,69103,1,0,0:0:0:0:
255,191,69478,1,8,0:0:0:0:
255,191,69853,1,0,0:0:0:0:
255,191,70603,1,0,0:0:0:0:
255,191,70978,1,8,0:0:0:0:
255,191,71353,1,8,0:0:0:0:
255,191,71728,1,8,0:0:0:0:
255,191,72478,1,12,0:0:0:0:
255,191,73603,1,8,0:0:0:0:
255,191,73978,1,8,0:0:0:0:
255,191,74728,1,0,0:0:0:0:
255,191,75103,1,8,0:0:0:0:
255,191,75478,1,8,0:0:0:0:
255,191,75853,1,0,0:0:0:0:
255,191,76603,1,0,0:0:0:0:
255,191,76978,1,8,0:0:0:0:
255,191,77353,1,8,0:0:0:0:
255,191,77728,1,8,0:0:0:0:
255,191,78478,1,4,0:0:0:0:
255,191,79228,1,8,0:0:0:0:
255,191,79978,1,8,0:0:0:0:
255,191,80353,1,8,0:0:0:0:
255,191,81103,1,0,0:0:0:0:
255,191,81478,1,8,0:0:0:0:
255,191,81853,1,0,0:0:0:0:
255,191,82978,1,0,0:0:0:0:
255,191,83353,1,0,0:0:0:0:
255,191,83728,1,8,0:0:0:0:
255,191,84478,1,12,0:0:0:0:
255,191,85603,1,8,0:0:0:0:
255,191,85978,1,8,0:0:0:0:
255,191,86728,1,0,0:0:0:0:
255,191,87103,1,8,0:0:0:0:
255,191,87478,1,8,0:0:0:0:
255,191,88228,1,0,0:0:0:0:
255,191,88603,1,8,0:0:0:0:
255,191,88978,1,8,0:0:0:0:
255,191,89728,1,0,0:0:0:0:
255,191,90478,1,0,0:0:0:0:
255,191,91228,1,8,0:0:0:0:
255,191,91978,1,0,0:0:0:0:
255,191,92728,1,8,0:0:0:0:
255,191,93478,1,0,0:0:0:0:
255,191,94978,1,0,0:0:0:0:
255,191,95728,1,8,0:0:0:0:
255,191,96478,1,8,0:0:0:0:
249,140,97228,1,8,0:0:0:0:
255,191,97978,1,0,0:0:0:0:
255,191,98728,1,8,0:0:0:0:
255,191,99478,1,8,0:0:0:0:
255,191,100228,1,8,0:0:0:0:
255,191,100978,1,0,0:0:0:0:
303,118,101353,1,0,0:0:0:0:
255,191,101728,1,8,0:0:0:0:
255,191,102478,1,4,0:0:0:0:
255,191,103228,1,0,0:0:0:0:
255,191,103978,1,8,0:0:0:0:
255,191,104353,1,8,0:0:0:0:
255,191,105478,1,0,0:0:0:0:
255,191,106228,1,8,0:0:0:0:
255,191,106978,1,0,0:0:0:0:
255,191,107353,1,8,0:0:0:0:
255,191,107728,1,8,0:0:0:0:
255,191,108478,1,12,0:0:0:0:
255,191,109603,1,0,0:0:0:0:
255,191,109978,1,8,0:0:0:0:
255,191,110728,1,0,0:0:0:0:
255,191,111103,1,8,0:0:0:0:
255,191,111478,1,0,0:0:0:0:
255,192,112228,1,8,0:0:0:0:
255,191,112603,1,0,0:0:0:0:
255,191,112978,1,0,0:0:0:0:
255,191,113728,1,0,0:0:0:0:
255,191,114478,1,0,0:0:0:0:
255,191,115978,1,0,0:0:0:0:
255,191,116728,1,8,0:0:0:0:
255,191,117478,1,8,0:0:0:0:
255,191,118978,1,0,0:0:0:0:
255,191,119728,1,8,0:0:0:0:
255,191,120103,1,0,0:0:0:0:
146,180,120478,1,0,0:0:0:0:
255,191,121228,5,8,0:0:0:0:
255,192,121978,1,8,0:0:0:0:
255,191,122353,1,0,0:0:0:0:
255,191,122728,1,8,0:0:0:0:
255,191,123478,1,8,0:0:0:0:
255,191,123853,1,0,0:0:0:0:
255,191,124228,1,8,0:0:0:0:
255,191,124978,1,8,0:0:0:0:
255,191,125728,1,0,0:0:0:0:
229,168,126103,1,8,0:0:0:0:
255,191,126478,1,4,0:0:0:0:
