osu file format v14

[General]
AudioFilename: audio.mp3
AudioLeadIn: 0
PreviewTime: 3026
Countdown: 0
SampleSet: Soft
StackLeniency: 0.4
Mode: 0
LetterboxInBreaks: 0
WidescreenStoryboard: 1

[Editor]
Bookmarks: 15120,27120,39120,40432,51120
DistanceSpacing: 1.7
BeatDivisor: 8
GridSize: 16
TimelineZoom: 2.1

[Metadata]
Title:Koopa Cape (Cut Ver.)
TitleUnicode:ノコノコみさき (Cut Ver.)
Artist:Ohta Asuka, Nagamatsu Ryo
ArtistUnicode:太田あすか, 永松亮
Creator:- ascended -
Version:Hard
Source:Mario Kart Wii
Tags:mkwii video game music videogame vgm electronic instrumental マリオカート mariokart 7 プラチナサウンドトラック platinum soundtrack nintendo nokonoko misaki koopa's troopa peak hill mildly accurate mildly_accurate kyumo colossal colossal_ reisevia roda totsuki roda_totsuki -ascended-
BeatmapID:2852577
BeatmapSetID:1380562

[Difficulty]
HPDrainRate:4
CircleSize:3.6
OverallDifficulty:6
ApproachRate:7.4
SliderMultiplier:1.5
SliderTickRate:1

[Events]
//Background and Video events
0,0,"when the.jpg",0,0
//Break Periods
//Storyboard Layer 0 (Background)
//Storyboard Layer 1 (Fail)
//Storyboard Layer 2 (Pass)
//Storyboard Layer 3 (Foreground)
//Storyboard Layer 4 (Overlay)
//Storyboard Sound Samples

[TimingPoints]
120,375,4,2,1,50,1,0
2651,-100,4,2,1,5,0,0
2745,-100,4,2,1,50,0,0
3120,-95.2380952380952,4,2,1,60,0,0
5745,-95.2380952380952,4,2,2,60,0,0
6120,-95.2380952380952,4,2,1,60,0,0
8745,-95.2380952380952,4,2,2,60,0,0
9120,-95.2380952380952,4,2,1,60,0,0
12401,-95.2380952380952,4,2,1,5,0,0
12495,-95.2380952380952,4,2,1,60,0,0
16995,-95.2380952380952,4,2,3,60,0,0
17182,-95.2380952380952,4,2,1,60,0,0
17745,-95.2380952380952,4,2,2,60,0,0
18120,-95.2380952380952,4,2,1,60,0,0
19995,-95.2380952380952,4,2,3,60,0,0
20182,-95.2380952380952,4,2,1,60,0,0
20745,-95.2380952380952,4,2,2,60,0,0
21120,-95.2380952380952,4,2,1,60,0,0
22995,-95.2380952380952,4,2,3,60,0,0
23182,-95.2380952380952,4,2,1,60,0,0
25995,-95.2380952380952,4,2,3,60,0,0
26182,-95.2380952380952,4,2,1,60,0,0
27120,-133.333333333333,4,2,1,40,0,0
37620,-100,4,2,1,60,0,0
41745,-95.2380952380952,4,2,2,60,0,0
42120,-95.2380952380952,4,2,1,60,0,0
44745,-95.2380952380952,4,2,2,60,0,0
45120,-95.2380952380952,4,2,1,60,0,0
48120,-95.2380952380952,4,2,1,52,0,0
48401,-95.2380952380952,4,2,1,5,0,0
48495,-95.2380952380952,4,2,1,52,0,0
51120,-95.2380952380952,4,2,1,40,0,0
51213,-95.2380952380952,4,2,1,20,0,0
54120,-95.2380952380952,4,2,1,10,0,0
57120,-95.2380952380952,4,2,1,5,0,0

[Colours]
Combo1 : 255,224,132
Combo2 : 132,255,132
Combo3 : 119,181,255
Combo4 : 216,216,216

[HitObjects]
65,353,120,5,8,0:2:0:0:
149,312,307,1,2,0:2:0:0:
149,312,401,1,2,0:2:0:0:
149,312,495,1,2,0:1:0:0:
233,360,682,1,2,0:2:0:0:
316,318,870,2,0,L|323:238,1,75,2|2,0:1|0:2,0:0:0:0:
245,199,1245,2,0,L|238:273,1,75,2|2,0:2|0:2,0:0:0:0:
149,312,1620,6,0,B|105:290|142:253|80:225,1,112.5,2|2,0:2|0:2,0:0:0:0:
51,234,1995,1,2,0:1:0:0:
25,143,2182,1,2,0:2:0:0:
81,59,2370,2,0,P|166:95|201:101,1,112.5,2|0,0:1|0:0,0:0:0:0:
222,90,2745,1,8,0:2:0:0:
315,217,3120,5,0,3:0:0:0:
391,262,3307,1,2,3:2:0:0:
391,262,3401,1,2,3:2:0:0:
391,262,3495,1,10,0:2:0:0:
459,204,3682,1,0,3:0:0:0:
459,204,3870,2,0,P|435:134|429:44,1,157.499995193482,2|10,3:2|0:2,0:0:0:0:
350,1,4432,1,2,0:2:0:0:
350,1,4620,6,0,P|326:71|320:161,1,157.499995193482,2|10,3:2|0:2,0:0:0:0:
335,247,5182,1,2,3:2:0:0:
302,329,5370,1,2,3:2:0:0:
147,285,5745,1,10,0:2:0:0:
113,131,6120,5,2,3:2:0:0:
243,222,6495,1,10,0:2:0:0:
243,222,6682,1,2,3:2:0:0:
319,172,6870,2,0,P|355:204|433:202,1,118.124996395111,2|2,3:2|0:2,0:0:0:0:
454,183,7245,2,0,P|443:132|443:97,1,78.7499975967408,10|2,0:2|0:2,0:0:0:0:
390,35,7620,6,0,B|314:20|335:88|282:96,1,118.124996395111,2|2,3:2|0:2,0:0:0:0:
258,81,7995,2,0,P|207:92|172:92,1,78.7499975967408,10|2,0:2|3:2,0:0:0:0:
97,51,8370,1,2,3:2:0:0:
97,51,8557,1,2,0:2:0:0:
32,120,8745,1,10,0:2:0:0:
90,262,9120,5,0,3:0:0:0:
167,209,9307,1,2,3:2:0:0:
167,209,9401,1,0,3:0:0:0:
167,209,9495,1,10,0:2:0:0:
248,249,9682,1,2,3:2:0:0:
317,181,9870,2,0,P|371:212|430:224,1,118.124996395111,2|2,3:2|0:2,0:0:0:0:
464,218,10245,1,10,0:2:0:0:
498,303,10432,1,2,0:2:0:0:
408,317,10620,6,0,P|350:329|299:359,1,118.124996395111,2|2,3:2|0:2,0:0:0:0:
266,380,10995,1,10,0:2:0:0:
225,301,11182,1,2,3:2:0:0:
247,215,11370,2,0,L|256:135,2,78.7499975967408,2|2|10,3:2|0:2|0:2,0:0:0:0:
165,237,11932,1,2,0:2:0:0:
79,193,12120,6,0,P|64:135|107:86,1,118.124996395111,2|0,3:2|0:0,0:0:0:0:
129,69,12495,2,0,P|175:83|216:83,1,78.7499975967408,10|2,0:2|3:2,0:0:0:0:
309,86,12870,2,0,P|290:100|283:124,1,39.3749987983704,2|2,3:2|0:2,0:0:0:0:
269,144,13057,2,0,P|265:167|277:189,1,39.3749987983704,2|2,0:2|0:2,0:0:0:0:
288,196,13245,2,0,P|334:182|375:182,1,78.7499975967408,10|2,0:2|0:2,0:0:0:0:
451,233,13620,6,0,L|444:352,1,118.124996395111,2|2,3:2|0:2,0:0:0:0:
418,380,13995,2,0,P|378:377|341:364,1,78.7499975967408,10|2,0:2|3:2,0:0:0:0:
302,287,14370,1,2,3:2:0:0:
365,216,14557,1,2,0:2:0:0:
297,149,14745,1,10,0:2:0:0:
170,35,15120,5,2,3:1:0:0:
81,57,15307,1,2,3:2:0:0:
81,57,15401,1,2,3:2:0:0:
81,57,15495,1,10,0:2:0:0:
16,117,15682,1,0,3:0:0:0:
16,117,15870,2,0,B|82:136|57:199|134:220,1,157.499995193482,2|10,3:1|0:2,0:0:0:0:
224,254,16432,1,2,0:2:0:0:
224,254,16620,6,0,B|158:273|183:336|106:357,1,157.499995193482,2|10,3:1|0:2,0:0:0:0:
47,289,17182,1,2,3:2:0:0:
80,200,17370,1,2,3:1:0:0:
223,128,17745,1,10,0:2:0:0:
356,215,18120,5,2,3:1:0:0:
425,68,18495,1,10,0:2:0:0:
425,68,18682,1,2,3:2:0:0:
362,18,18870,2,0,P|287:45|232:45,1,118.124996395111,2|2,3:1|0:2,0:0:0:0:
212,33,19245,2,0,P|209:72|200:110,1,78.7499975967408,10|2,0:2|0:2,0:0:0:0:
138,185,19620,6,0,B|193:190|177:241|245:235,1,118.124996395111,2|2,3:1|0:2,0:0:0:0:
276,221,19995,2,0,P|327:232|362:232,1,78.7499975967408,10|2,0:2|3:2,0:0:0:0:
435,199,20370,1,2,3:1:0:0:
435,199,20557,1,2,0:2:0:0:
476,290,20745,1,10,0:2:0:0:
334,373,21120,5,2,3:1:0:0:
253,321,21307,1,2,3:2:0:0:
253,321,21401,1,0,3:0:0:0:
253,321,21495,1,10,0:2:0:0:
166,366,21682,1,2,3:2:0:0:
82,334,21870,2,0,L|65:203,1,118.124996395111,2|2,3:1|0:2,0:0:0:0:
60,177,22245,2,0,P|83:145|122:136,1,78.7499975967408,10|2,0:2|0:2,0:0:0:0:
204,179,22620,6,0,L|221:310,1,118.124996395111,2|2,3:1|0:2,0:0:0:0:
226,336,22995,2,0,P|249:368|288:377,1,78.7499975967408,10|2,0:2|3:2,0:0:0:0:
371,338,23370,1,2,3:1:0:0:
371,338,23557,1,2,0:2:0:0:
347,251,23745,1,10,0:2:0:0:
347,251,23932,1,2,0:2:0:0:
413,184,24120,6,0,L|426:95,1,78.7499975967408,2|0,3:1|0:0,0:0:0:0:
361,33,24495,1,10,0:2:0:0:
361,33,24682,1,2,3:2:0:0:
270,48,24870,6,0,P|251:62|244:86,1,39.3749987983704,2|2,3:1|0:2,0:0:0:0:
230,106,25057,2,0,P|226:129|238:151,1,39.3749987983704,2|2,0:2|0:2,0:0:0:0:
249,178,25245,2,0,P|203:164|162:164,1,78.7499975967408,10|2,0:2|0:2,0:0:0:0:
69,152,25620,6,0,P|94:223|102:284,1,118.124996395111,2|2,3:1|0:2,0:0:0:0:
86,301,25995,2,0,P|127:285|161:288,1,78.7499975967408,10|2,0:2|3:2,0:0:0:0:
217,352,26370,1,2,3:1:0:0:
296,292,26557,1,2,0:2:0:0:
370,337,26745,1,10,0:2:0:0:
401,38,28620,6,0,L|424:153,1,112.500004291535,2|0,0:1|0:0,0:0:0:0:
315,224,29370,2,0,L|292:109,1,112.500004291535,2|0,0:1|3:0,0:0:0:0:
161,69,30120,2,0,L|184:184,2,112.500004291535,2|2|2,0:1|0:1|0:1,0:0:0:0:
292,113,31245,1,2,3:3:0:0:
315,224,31620,6,0,L|293:334,1,112.500004291535,2|0,0:1|0:0,0:0:0:0:
171,351,32370,2,0,L|193:241,1,112.500004291535,2|0,0:1|3:0,0:0:0:0:
118,194,32932,1,0,3:0:0:0:
118,194,33120,2,0,L|96:304,2,112.500004291535,2|2|2,0:1|3:1|0:1,0:0:0:0:
85,68,34245,1,2,3:3:0:0:
205,111,34620,6,0,L|183:1,1,112.500004291535,2|0,0:1|3:0,0:0:0:0:
274,32,35182,1,0,0:0:0:0:
274,32,35370,2,0,L|296:142,1,112.500004291535,2|2,0:1|3:3,0:0:0:0:
409,84,36120,2,0,P|451:107|460:126,1,56.2500021457673,0|0,3:0|0:0,0:0:0:0:
491,190,36495,2,0,L|469:300,1,112.500004291535,2|2,3:1|0:1,0:0:0:0:
354,346,37245,1,2,3:3:0:0:
204,262,37620,6,0,L|211:222,1,37.5,2|2,3:1|0:2,0:0:0:0:
236,197,37807,2,0,L|229:157,1,37.5,2|2,0:2|0:2,0:0:0:0:
223,122,37995,1,2,3:1:0:0:
143,92,38182,2,0,P|96:107|83:134,1,75,2|2,0:2|3:1,0:0:0:0:
63,297,38745,2,0,L|27:306,3,37.5,0|0|0|0,3:0|3:0|3:0|3:0,0:0:0:0:
92,330,39120,5,0,3:0:0:0:
197,317,39307,1,2,3:2:0:0:
197,317,39401,1,2,3:2:0:0:
197,317,39495,1,10,0:2:0:0:
290,338,39682,1,0,3:0:0:0:
290,338,39870,2,0,P|314:266|327:192,1,150,2|10,3:2|0:2,0:0:0:0:
233,171,40432,1,2,0:2:0:0:
233,171,40620,6,0,P|208:242|195:316,1,150,2|10,3:2|0:2,0:0:0:0:
114,359,41182,1,2,3:2:0:0:
73,277,41370,1,2,3:2:0:0:
138,133,41745,1,10,0:2:0:0:
290,82,42120,5,2,3:2:0:0:
215,223,42495,1,10,0:2:0:0:
215,223,42682,1,2,3:2:0:0:
138,275,42870,2,0,P|121:216|96:148,1,118.124996395111,2|2,3:2|0:2,0:0:0:0:
79,129,43245,2,0,P|110:90|144:89,1,78.7499975967408,10|2,0:2|0:2,0:0:0:0:
221,128,43620,6,0,B|291:149|260:94|335:88,1,118.124996395111,2|2,3:2|0:2,0:0:0:0:
362,97,43995,2,0,P|401:128|402:162,1,78.7499975967408,10|2,0:2|3:2,0:0:0:0:
365,232,44370,1,2,3:2:0:0:
365,232,44557,1,2,0:2:0:0:
273,211,44745,1,10,0:2:0:0:
122,176,45120,5,0,3:0:0:0:
50,226,45307,1,2,3:2:0:0:
50,226,45401,1,0,3:0:0:0:
50,226,45495,1,10,0:2:0:0:
84,312,45682,1,2,3:2:0:0:
173,287,45870,2,0,B|232:283|228:323|286:330,1,118.124996395111,2|2,3:2|0:2,0:0:0:0:
316,313,46245,1,10,0:2:0:0:
404,341,46432,1,2,0:2:0:0:
390,241,46620,6,0,B|331:245|335:205|277:198,1,118.124996395111,2|2,3:2|0:2,0:0:0:0:
247,215,46995,1,10,0:2:0:0:
169,177,47182,1,2,3:2:0:0:
86,214,47370,2,0,L|77:294,2,78.7499975967408,2|2|10,3:2|0:2|0:2,0:0:0:0:
73,126,47932,1,2,0:2:0:0:
116,42,48120,6,0,P|174:27|223:70,1,118.124996395111,2|0,3:2|0:0,0:0:0:0:
240,92,48495,2,0,P|226:138|226:179,1,78.7499975967408,10|2,0:2|3:2,0:0:0:0:
237,256,48870,2,0,P|251:275|275:282,1,39.3749987983704,2|2,3:2|0:2,0:0:0:0:
295,296,49057,2,0,P|318:300|340:288,1,39.3749987983704,2|2,0:2|0:2,0:0:0:0:
347,277,49245,2,0,P|333:231|333:190,1,78.7499975967408,10|2,0:2|0:2,0:0:0:0:
368,114,49620,6,0,L|249:107,1,118.124996395111,2|2,3:2|0:2,0:0:0:0:
215,125,49995,2,0,P|202:162|199:201,1,78.7499975967408,10|2,0:2|3:2,0:0:0:0:
252,271,50370,1,2,3:2:0:0:
197,338,50557,1,2,0:2:0:0:
107,320,50745,1,10,0:2:0:0:
64,167,51120,5,2,0:2:0:0:
256,192,51213,12,0,57120,0:0:0:0:
