osu file format v14

[General]
AudioFilename: audio.mp3
AudioLeadIn: 0
PreviewTime: 3026
Countdown: 0
SampleSet: Soft
StackLeniency: 0.2
Mode: 0
LetterboxInBreaks: 0
WidescreenStoryboard: 1

[Editor]
Bookmarks: 15120,15213,27120,39120,51120
DistanceSpacing: 1.7
BeatDivisor: 8
GridSize: 16
TimelineZoom: 4.499998

[Metadata]
Title:Koopa Cape (Cut Ver.)
TitleUnicode:ノコノコみさき (Cut Ver.)
Artist:Ohta Asuka, Nagamatsu Ryo
ArtistUnicode:太田あすか, 永松亮
Creator:- ascended -
Version:Colossal's Another
Source:Mario Kart Wii
Tags:mkwii video game music videogame vgm electronic instrumental マリオカート mariokart 7 プラチナサウンドトラック platinum soundtrack nintendo nokonoko misaki koopa's troopa peak hill mildly accurate mildly_accurate kyumo colossal colossal_ reisevia roda totsuki roda_totsuki -ascended-
BeatmapID:2934060
BeatmapSetID:1380562

[Difficulty]
HPDrainRate:5
CircleSize:4
OverallDifficulty:9
ApproachRate:9.2
SliderMultiplier:2.5
SliderTickRate:1

[Events]
//Background and Video events
0,0,"when the.jpg",0,0
//Break Periods
2,27132,31987
//Storyboard Layer 0 (Background)
//Storyboard Layer 1 (Fail)
//Storyboard Layer 2 (Pass)
//Storyboard Layer 3 (Foreground)
//Storyboard Layer 4 (Overlay)
//Storyboard Sound Samples

[TimingPoints]
120,375,4,2,1,50,1,0
3120,-100,4,2,1,60,0,0
4338,-133.333333333333,4,2,1,30,0,0
4432,-100,4,2,1,60,0,0
4526,-133.333333333333,4,2,1,30,0,0
4620,-100,4,2,1,60,0,0
5276,-133.333333333333,4,2,1,30,0,0
5370,-71.4285714285714,4,2,1,60,0,0
5745,-71.4285714285714,4,2,2,60,0,0
5932,-100,4,2,2,60,0,0
6026,-133.333333333333,4,2,1,30,0,0
6120,-100,4,2,1,60,0,0
6401,-100,4,2,1,5,0,0
6495,-100,4,2,1,60,0,0
6588,-133.333333333333,4,2,1,30,0,0
6682,-100,4,2,1,60,0,0
6776,-133.333333333333,4,2,1,30,0,0
6870,-100,4,2,1,60,0,0
8276,-133.333333333333,4,2,1,30,0,0
8370,-100,4,2,1,60,0,0
8557,-500,4,2,1,60,0,0
8698,-133.333333333333,4,2,1,30,0,0
8745,-55.5555555555556,4,2,2,60,0,0
9026,-55.5555555555556,4,2,2,5,0,0
9120,-55.5555555555556,4,2,1,60,0,0
9307,-100,4,2,1,60,0,0
10338,-133.333333333333,4,2,1,30,0,0
10432,-100,4,2,1,60,0,0
10995,-62.5,4,2,1,60,0,0
11557,-100,4,2,1,60,0,0
11651,-133.333333333333,4,2,1,30,0,0
11745,-100,4,2,1,60,0,0
11838,-133.333333333333,4,2,1,30,0,0
11932,-100,4,2,1,60,0,0
12026,-133.333333333333,4,2,1,30,0,0
12120,-100,4,2,1,60,0,0
12401,-100,4,2,1,5,0,0
12495,-100,4,2,1,60,0,0
12588,-133.333333333333,4,2,1,30,0,0
12682,-100,4,2,1,60,0,0
12916,-133.333333333333,4,2,1,30,0,0
12963,-100,4,2,1,60,0,0
13010,-133.333333333333,4,2,1,30,0,0
13057,-100,4,2,1,60,0,0
13104,-133.333333333333,4,2,1,30,0,0
13151,-100,4,2,1,60,0,0
13198,-133.333333333333,4,2,1,30,0,0
13245,-100,4,2,1,60,0,0
13620,-55.5555555555556,4,2,1,60,0,0
13995,-83.3333333333333,4,2,1,60,0,0
14088,-133.333333333333,4,2,1,30,0,0
14182,-166.666666666667,4,2,1,60,0,0
14276,-133.333333333333,4,2,1,30,0,0
14370,-166.666666666667,4,2,1,60,0,0
14463,-133.333333333333,4,2,1,30,0,0
14557,-71.4285714285714,4,2,1,60,0,0
15213,-133.333333333333,4,2,1,30,0,0
15307,-100,4,2,1,60,0,0
16338,-133.333333333333,4,2,1,30,0,0
16432,-100,4,2,1,60,0,0
16620,-125,4,2,1,60,0,0
16995,-100,4,2,3,60,0,0
17182,-100,4,2,1,60,0,0
17370,-83.3333333333333,4,2,1,60,0,0
17651,-83.3333333333333,4,2,1,5,0,0
17745,-100,4,2,2,60,0,0
18026,-100,4,2,2,5,0,0
18120,-83.3333333333333,4,2,1,60,0,0
18401,-83.3333333333333,4,2,1,5,0,0
18495,-83.3333333333333,4,2,1,60,0,0
18588,-133.333333333333,4,2,1,30,0,0
18682,-83.3333333333333,4,2,1,60,0,0
18776,-133.333333333333,4,2,1,30,0,0
18870,-83.3333333333333,4,2,1,60,0,0
19995,-83.3333333333333,4,2,3,60,0,0
20088,-133.333333333333,4,2,1,30,0,0
20182,-83.3333333333333,4,2,1,60,0,0
20276,-133.333333333333,4,2,1,30,0,0
20370,-83.3333333333333,4,2,1,60,0,0
20557,-500,4,2,1,60,0,0
20698,-133.333333333333,4,2,1,30,0,0
20745,-55.5555555555556,4,2,2,60,0,0
21026,-55.5555555555556,4,2,2,5,0,0
21120,-55.5555555555556,4,2,1,60,0,0
21213,-133.333333333333,4,2,1,30,0,0
21307,-55.5555555555556,4,2,1,60,0,0
21401,-133.333333333333,4,2,1,30,0,0
21495,-55.5555555555556,4,2,1,60,0,0
22807,-83.3333333333333,4,2,1,30,0,0
22901,-55.5555555555556,4,2,1,60,0,0
22995,-71.4285714285714,4,2,3,60,0,0
23088,-133.333333333333,4,2,1,30,0,0
23182,-71.4285714285714,4,2,1,60,0,0
23557,-71.4285714285714,4,2,1,60,0,0
23745,-71.4285714285714,4,2,1,60,0,0
23932,-71.4285714285714,4,2,1,60,0,0
24120,-71.4285714285714,4,2,1,60,0,0
24401,-71.4285714285714,4,2,1,5,0,0
24495,-71.4285714285714,4,2,1,60,0,0
24870,-62.5,4,2,1,60,0,0
24916,-133.333333333333,4,2,1,30,0,0
24963,-62.5,4,2,1,60,0,0
25010,-133.333333333333,4,2,1,30,0,0
25057,-62.5,4,2,1,60,0,0
25104,-133.333333333333,4,2,1,30,0,0
25151,-62.5,4,2,1,60,0,0
25198,-133.333333333333,4,2,1,30,0,0
25245,-62.5,4,2,1,60,0,0
25620,-83.3333333333333,4,2,1,60,0,0
25995,-83.3333333333333,4,2,3,60,0,0
26088,-133.333333333333,4,2,1,30,0,0
26182,-83.3333333333333,4,2,1,60,0,0
26276,-133.333333333333,4,2,1,30,0,0
26370,-71.4285714285714,4,2,1,60,0,0
26651,-133.333333333333,4,2,1,30,0,0
26745,-71.4285714285714,4,2,1,60,0,0
27120,-71.4285714285714,4,2,1,40,0,0
33120,-166.666666666667,4,2,1,40,0,0
33401,-166.666666666667,4,2,1,5,0,0
33495,-166.666666666667,4,2,1,40,0,0
36401,-166.666666666667,4,2,1,5,0,0
36495,-166.666666666667,4,2,1,40,0,0
37151,-166.666666666667,4,2,1,5,0,0
37245,-166.666666666667,4,2,1,40,0,0
37620,-166.666666666667,4,2,1,60,0,0
38370,-125,4,2,1,60,0,0
38651,-125,4,2,1,5,0,0
38745,-125,4,2,1,60,0,0
39026,-83.3333333333333,4,2,1,60,0,0
39588,-83.3333333333333,4,2,1,30,0,0
39682,-83.3333333333333,4,2,1,60,0,0
41088,-83.3333333333333,4,2,1,30,0,0
41182,-83.3333333333333,4,2,1,60,0,0
41276,-83.3333333333333,4,2,1,30,0,0
41370,-100,4,2,1,60,0,0
41651,-100,4,2,1,5,0,0
41745,-100,4,2,2,60,0,0
42026,-100,4,2,2,5,0,0
42120,-100,4,2,1,60,0,0
42495,-83.3333333333333,4,2,1,60,0,0
42588,-83.3333333333333,4,2,1,30,0,0
42682,-83.3333333333333,4,2,1,60,0,0
42776,-83.3333333333333,4,2,1,30,0,0
42870,-83.3333333333333,4,2,1,60,0,0
43338,-83.3333333333333,4,2,1,30,0,0
43432,-83.3333333333333,4,2,1,60,0,0
43526,-83.3333333333333,4,2,1,30,0,0
43620,-83.3333333333333,4,2,1,60,0,0
44276,-83.3333333333333,4,2,1,30,0,0
44370,-83.3333333333333,4,2,1,60,0,0
44557,-500,4,2,1,60,0,0
44698,-83.3333333333333,4,2,1,30,0,0
44745,-55.5555555555556,4,2,2,60,0,0
45026,-55.5555555555556,4,2,2,5,0,0
45120,-55.5555555555556,4,2,1,60,0,0
45307,-71.4285714285714,4,2,1,60,0,0
46338,-83.3333333333333,4,2,1,30,0,0
46432,-71.4285714285714,4,2,1,60,0,0
46526,-83.3333333333333,4,2,1,30,0,0
46620,-71.4285714285714,4,2,1,60,0,0
46807,-83.3333333333333,4,2,1,30,0,0
46901,-83.3333333333333,4,2,1,60,0,0
46995,-71.4285714285714,4,2,1,60,0,0
47088,-83.3333333333333,4,2,1,30,0,0
47182,-71.4285714285714,4,2,1,60,0,0
47276,-83.3333333333333,4,2,1,30,0,0
47370,-71.4285714285714,4,2,1,60,0,0
47463,-83.3333333333333,4,2,1,30,0,0
47557,-100,4,2,1,60,0,0
47651,-83.3333333333333,4,2,1,30,0,0
47745,-100,4,2,1,60,0,0
47838,-100,4,2,1,30,0,0
47932,-100,4,2,1,60,0,0
48026,-83.3333333333333,4,2,1,30,0,0
48120,-100,4,2,1,52,0,0
48401,-100,4,2,1,5,0,0
48495,-100,4,2,1,52,0,0
48870,-83.3333333333333,4,2,1,52,0,0
48916,-83.3333333333333,4,2,1,30,0,0
48963,-83.3333333333333,4,2,1,52,0,0
49010,-83.3333333333333,4,2,1,30,0,0
49057,-83.3333333333333,4,2,1,52,0,0
49104,-83.3333333333333,4,2,1,30,0,0
49151,-83.3333333333333,4,2,1,52,0,0
49198,-83.3333333333333,4,2,1,30,0,0
49245,-83.3333333333333,4,2,1,52,0,0
50088,-83.3333333333333,4,2,1,30,0,0
50182,-83.3333333333333,4,2,1,52,0,0
50276,-83.3333333333333,4,2,1,30,0,0
50370,-83.3333333333333,4,2,1,52,0,0
50651,-83.3333333333333,4,2,1,30,0,0
50745,-83.3333333333333,4,2,1,52,0,0
51026,-83.3333333333333,4,2,1,5,0,0
51120,-83.3333333333333,4,2,1,40,0,0
51213,-83.3333333333333,4,2,1,20,0,0
54120,-83.3333333333333,4,2,1,10,0,0
57120,-83.3333333333333,4,2,1,5,0,0

[Colours]
Combo1 : 255,224,132
Combo2 : 132,255,132
Combo3 : 119,181,255
Combo4 : 216,216,216

[HitObjects]
256,192,120,12,8,2745,0:2:0:0:
276,135,3120,6,0,B|313:139|308:178|308:178|284:140|238:121|174:128,1,187.5,0|2,3:0|3:2,0:0:0:0:
105,70,3495,6,0,B|82:96|82:96|114:85,1,62.5,10|0,0:2|0:0,0:0:0:0:
213,33,3682,1,0,3:0:0:0:
213,33,3870,2,0,P|185:112|166:229,1,187.5,2|2,3:2|0:2,0:0:0:0:
173,229,4245,2,0,P|220:232|237:191,1,62.5,10|0,0:2|0:0,0:0:0:0:
327,291,4432,2,0,P|280:294|263:253,1,62.5,2|0,0:2|0:0,0:0:0:0:
89,383,4620,6,0,B|111:302|200:320|200:320|182:375,1,187.5,2|2,3:2|0:2,0:0:0:0:
184,372,4995,1,10,0:2:0:0:
0,285,5182,6,0,B|-12:270|-12:270|16:269|17:299,1,62.5,2|0,3:2|0:0,0:0:0:0:
89,383,5370,2,0,B|55:342|92:303|99:310|103:317|150:272|102:225,2,174.999994659424,2|0|10,3:2|0:0|0:2,0:0:0:0:
212,289,5932,2,0,B|223:260|223:260|195:240,1,62.5
184,372,6120,6,0,B|275:355|275:355|283:358|283:358|407:331,1,187.5,2|0,3:2|0:0,0:0:0:0:
392,207,6495,2,0,B|413:207|418:227|418:227|372:212,1,62.5,10|0,0:2|0:0,0:0:0:0:
325,274,6682,2,0,B|295:281|295:281|300:261|321:261,1,62.5,2|0,3:2|0:0,0:0:0:0:
254,138,6870,6,0,B|236:113|236:113|278:81|328:105|344:153|308:204,1,187.5,2|2,3:2|0:2,0:0:0:0:
315,195,7245,1,10,0:2:0:0:
181,155,7432,1,2,0:2:0:0:
184,372,7620,6,0,B|231:315|189:251|129:265|120:296|141:330|170:300,1,187.5,2|2,3:2|0:2,0:0:0:0:
110,376,7995,1,10,0:2:0:0:
271,297,8182,2,0,B|299:321|299:321|259:309,1,62.5,2|0,3:2|0:0,0:0:0:0:
75,197,8370,5,2,3:2:0:0:
75,197,8557,2,0,L|78:216,1,18.75,2|0,0:2|0:0,0:0:0:0:
74,186,8745,6,0,B|60:100|96:27|180:6|256:67|217:164|151:159,1,337.499989700318,10|0,0:2|0:0,0:0:0:0:
155,154,9120,1,0,3:0:0:0:
20,59,9307,6,0,B|13:36|13:36|8:32|8:32|-3:-9,2,62.5,2|0|10,3:2|3:0|0:2,0:0:0:0:
74,186,9682,1,2,3:2:0:0:
74,186,9870,6,0,B|112:108|190:146|190:146|162:210,1,187.5,2|2,3:2|0:2,0:0:0:0:
170,189,10245,2,0,B|201:183|201:183|206:180|206:180|248:174,1,62.5,10|0,0:2|0:0,0:0:0:0:
366,97,10432,1,2,0:2:0:0:
366,97,10620,6,0,P|323:28|273:91,1,187.5,2|2,3:2|0:2,0:0:0:0:
311,161,10995,2,0,B|374:186|396:118|386:116|375:112|399:49|459:69,2,200,10|2|2,0:2|3:2|3:2,0:0:0:0:
311,161,11557,6,0,B|302:191|302:191|305:195|305:195|296:224,1,62.5,2|0,0:2|0:0,0:0:0:0:
326,310,11745,2,0,B|356:315|356:315|329:297,1,62.5,10|0,0:2|0:0,0:0:0:0:
232,266,11932,2,0,B|205:283|205:283|235:278,1,62.5,2|0,0:2|0:0,0:0:0:0:
234,371,12120,6,0,P|217:316|106:329,1,187.5,2|0,3:2|0:0,0:0:0:0:
114,337,12495,2,0,P|92:370|57:370,1,62.5,10|0,0:2|0:0,0:0:0:0:
17,308,12682,1,2,3:2:0:0:
17,308,12870,6,0,P|32:301|45:280,1,31.25,2|0,3:2|0:0,0:0:0:0:
20,298,12963,2,0,P|6:288|-2:265,1,31.25,2|0,0:2|0:0,0:0:0:0:
23,287,13057,2,0,P|32:273|33:248,1,31.25,2|0,0:2|0:0,0:0:0:0:
26,275,13151,2,0,P|21:259|29:235,1,31.25,2|0,0:2|0:0,0:0:0:0:
49,175,13245,5,10,0:2:0:0:
136,186,13432,1,2,0:2:0:0:
0,92,13620,6,0,B|54:112|96:40|33:73|86:-23|181:-38|211:62|193:122|110:137|66:83,1,337.499989700318,2|2,3:2|0:2,0:0:0:0:
0,14,13995,2,0,B|-6:0|-24:-7|-24:-7|10:-15|6:20,1,74.9999977111817,10|0,0:2|0:0,0:0:0:0:
136,186,14182,6,0,L|131:224,1,37.4999988555909,2|0,3:2|0:0,0:0:0:0:
147,187,14370,2,0,L|142:225,1,37.4999988555909,2|0,3:2|0:0,0:0:0:0:
86,346,14557,6,0,B|112:305|164:317|164:317|191:354|244:347,2,174.999994659424,2|10|0,0:2|0:2|0:0,0:0:0:0:
225,273,15120,2,0,B|245:262|245:262|243:240|243:240|224:249|224:249|225:273,1,87.499997329712,2|0,3:1|0:0,0:0:0:0:
341,331,15307,6,0,L|345:290,1,31.25,2|0,3:2|0:0,0:0:0:0:
350,328,15401,2,0,L|354:287,1,31.25,2|0,3:2|0:0,0:0:0:0:
360,325,15495,1,10,0:2:0:0:
425,241,15682,1,0,3:0:0:0:
349,165,15870,6,0,B|313:179|328:215|328:215|358:149|433:149,1,187.5,2|2,3:1|0:2,0:0:0:0:
499,124,16245,2,0,B|519:147|519:147|491:186,1,62.5,10|0,0:2|0:0,0:0:0:0:
425,241,16432,1,2,0:2:0:0:
421,55,16620,6,0,B|416:20|452:21|452:21|438:34|429:59,1,100,2|0,3:1|0:0,0:0:0:0:
355,86,16901,1,2,0:2:0:0:
345,86,16995,2,0,P|299:74|289:0,1,125,10|2,0:2|3:2,0:0:0:0:
286,5,17370,6,0,B|222:-5|199:60|212:62|227:64|206:136|125:120,1,224.999993133545,2|0,3:1|0:0,0:0:0:0:
144,18,17745,2,0,P|178:60|234:187,1,187.5,10|0,0:2|0:0,0:0:0:0:
58,293,18120,6,0,B|50:235|104:191|160:206|160:206|138:233|143:267,1,224.999993133545,2|0,3:1|0:0,0:0:0:0:
219,255,18495,2,0,B|256:265|256:265|291:227,1,74.9999977111817,10|0,0:2|0:0,0:0:0:0:
327,152,18682,2,0,B|308:123|308:123|320:165,1,74.9999977111817,2|0,3:2|0:0,0:0:0:0:
414,284,18870,6,0,B|446:272|471:282|471:282|481:232|441:195|381:195|344:251,1,224.999993133545,2|2,3:1|0:2,0:0:0:0:
353,241,19245,1,10,0:2:0:0:
445,352,19432,1,2,0:2:0:0:
512,165,19620,6,0,B|496:61|395:74|395:74|408:145,1,224.999993133545,2|2,3:1|0:2,0:0:0:0:
400,140,19995,2,0,P|355:146|326:103,1,74.9999977111817,10|0,0:2|0:0,0:0:0:0:
319,30,20182,2,0,B|323:6|352:10|352:10|336:19|325:41,1,74.9999977111817,2|0,3:2|0:0,0:0:0:0:
259,162,20370,5,2,3:1:0:0:
259,162,20557,2,0,L|261:181,1,18.75,2|0,0:2|0:0,0:0:0:0:
256,146,20745,6,0,B|246:60|180:-9|68:12|59:131|133:169|188:134,1,337.499989700318,10|0,0:2|0:0,0:0:0:0:
343,152,21120,2,0,B|379:169|399:140|399:140|372:149|343:139,1,112.499996566773,2|0,3:1|0:0,0:0:0:0:
188,248,21307,2,0,B|181:231|160:226|160:226|188:215|213:235|208:266,1,112.499996566773,2|0,3:2|3:0,0:0:0:0:
166,335,21495,5,10,0:2:0:0:
166,335,21682,2,0,B|34:360|34:360|86:351|92:299,2,224.999993133545,2|2|0,3:2|3:1|0:0,0:0:0:0:
241,321,22151,1,2,0:2:0:0:
312,309,22245,1,10,0:2:0:0:
166,335,22432,1,2,0:2:0:0:
459,370,22620,6,0,B|475:308|437:259|376:263|376:263|396:291|389:333,1,224.999993133545,2|0,3:1|0:0,0:0:0:0:
312,309,22901,1,2,0:2:0:0:
301,305,22995,2,0,B|253:296|253:296|298:293,1,87.499997329712,10|0,0:2|0:0,0:0:0:0:
398,184,23182,1,2,3:2:0:0:
398,184,23370,6,0,B|405:198|405:198|372:272,1,87.499997329712,2|0,3:1|0:0,0:0:0:0:
348,117,23557,2,0,B|356:103|356:103|437:95,1,87.499997329712,2|0,0:2|0:0,0:0:0:0:
314,194,23745,2,0,B|298:193|298:193|250:127,1,87.499997329712,10|0,0:2|0:0,0:0:0:0:
415,15,23932,6,0,B|458:20|458:20|409:26,1,87.499997329712,2|0,0:2|0:0,0:0:0:0:
248,133,24120,6,0,B|215:59|258:-6|333:-18|367:29|358:86|310:94,1,262.499991989136,2|0,3:1|0:0,0:0:0:0:
314,93,24495,1,10,0:2:0:0:
116,10,24682,1,2,3:2:0:0:
72,152,24870,6,0,P|112:139|128:115,1,50,2|0,3:1|0:0,0:0:0:0:
75,139,24963,2,0,P|54:101|60:73,1,50,2|0,0:2|0:0,0:0:0:0:
79,127,25057,2,0,P|113:100|117:72,1,50,2|0,0:2|0:0,0:0:0:0:
81,116,25151,2,0,P|70:74|84:49,1,50,2|0,0:2|0:0,0:0:0:0:
116,10,25245,5,10,0:2:0:0:
182,174,25432,1,2,0:2:0:0:
36,265,25620,6,0,P|119:232|151:353,1,224.999993133545,2|2,3:1|0:2,0:0:0:0:
149,341,25995,2,0,P|101:317|105:284,1,74.9999977111817,10|0,0:2|0:0,0:0:0:0:
182,174,26182,2,0,B|220:178|220:178|221:182|221:182|264:188,1,74.9999977111817,2|0,3:2|0:0,0:0:0:0:
318,255,26370,1,2,3:1:0:0:
318,255,26557,6,0,B|352:246|340:215|340:215|334:233|314:244,1,87.499997329712,2|0,0:2|0:0,0:0:0:0:
253,186,26745,2,0,B|274:192|274:192|333:359,1,174.999994659424,10|0,0:2|0:0,0:0:0:0:
127,194,32557,5,0,0:0:0:0:
164,166,32745,1,0,3:0:0:0:
209,176,32932,1,0,3:0:0:0:
179,248,33120,6,0,P|128:241|53:236,1,112.499996566773,2|0,0:1|0:0,0:0:0:0:
59,237,33495,1,2,3:1:0:0:
114,318,33682,1,0,0:0:0:0:
315,326,33870,6,0,P|335:310|335:258,1,74.9999977111817,2|0,0:1|0:0,0:0:0:0:
237,302,34245,2,0,P|234:265|260:239,1,74.9999977111817,2|0,3:3|0:0,0:0:0:0:
455,189,34620,6,0,B|413:203|391:160|401:155|409:152|385:106|338:123,1,149.999995422363,2|0,0:1|3:0,0:0:0:0:
198,71,35182,1,0,0:0:0:0:
210,65,35370,2,0,P|241:74|260:118,1,74.9999977111817,2|0,0:1|0:0,0:0:0:0:
186,220,35745,1,2,3:3:0:0:
193,144,35932,1,0,0:0:0:0:
186,220,36120,6,0,B|172:269|172:269|176:272|176:272|159:327,1,112.499996566773,0|0,3:0|0:0,0:0:0:0:
158,335,36495,1,2,3:1:0:0:
260,274,36682,1,0,0:0:0:0:
70,200,36870,2,0,P|27:213|26:287,1,112.499996566773,2|0,0:1|0:0,0:0:0:0:
21,282,37245,2,0,P|60:276|104:274,1,74.9999977111817,2|0,3:3|0:0,0:0:0:0:
260,274,37620,5,2,3:1:0:0:
274,248,37713,1,2,0:2:0:0:
274,221,37807,2,0,L|261:178,2,37.4999988555909,2|2|2,0:2|0:2|3:1,0:0:0:0:
321,352,38182,1,2,0:2:0:0:
465,279,38370,2,0,B|422:274|411:235|411:235|395:275|343:271,1,150,2|0,3:1|0:0,0:0:0:0:
461,175,38745,5,0,3:0:0:0:
466,163,38838,1,0,3:0:0:0:
457,132,38932,2,0,L|432:122,1,25,0|0,3:0|3:0,0:0:0:0:
467,127,39026,2,0,L|426:110,1,37.4999988555909,0|0,3:0|3:0,0:0:0:0:
504,55,39120,6,0,B|434:73|434:73|429:69|429:69|333:93,1,149.999995422363,0|2,3:0|3:2,0:0:0:0:
227,19,39401,1,2,3:2:0:0:
239,14,39495,2,0,P|281:14|303:48,1,74.9999977111817,10|0,0:2|0:0,0:0:0:0:
306,142,39682,1,0,3:0:0:0:
306,142,39870,2,0,B|332:179|332:179|268:218|197:162|235:81,1,224.999993133545,2|2,3:2|0:2,0:0:0:0:
237,90,40245,1,10,0:2:0:0:
407,154,40432,1,2,0:2:0:0:
260,258,40620,6,0,B|239:319|239:319|302:265|391:251,1,224.999993133545,2|2,3:2|0:2,0:0:0:0:
407,154,40995,2,0,B|440:175|440:175|403:168,1,74.9999977111817,10|0,0:2|0:0,0:0:0:0:
340,113,41182,2,0,B|304:119|304:119|337:98,1,74.9999977111817,2|0,3:2|0:0,0:0:0:0:
494,114,41370,6,0,P|480:164|453:302,1,187.5,2|0,3:2|0:0,0:0:0:0:
304,377,41745,2,0,B|329:328|387:336|387:336|411:381|484:372,1,187.5,10|0,0:2|0:0,0:0:0:0:
381,259,42120,5,2,3:2:0:0:
381,259,42495,6,0,P|348:230|357:190,1,74.9999977111817,10|0,0:2|0:0,0:0:0:0:
356,119,42682,2,0,B|378:85|378:85|372:119,1,74.9999977111817,2|0,3:2|0:0,0:0:0:0:
384,251,42870,6,0,B|321:225|290:290|302:295|315:301|280:372|201:331,1,224.999993133545,2|2,3:2|0:2,0:0:0:0:
140,358,43245,2,0,B|120:326|120:326|154:290,1,74.9999977111817,10|0,0:2|0:0,0:0:0:0:
248,235,43432,2,0,B|212:228|212:228|208:231|208:231|171:225,1,74.9999977111817,2|0,0:2|0:0,0:0:0:0:
0,150,43620,6,0,B|23:92|83:73|140:108|140:108|106:160,1,224.999993133545,2|2,3:2|0:2,0:0:0:0:
106,164,43995,1,10,0:2:0:0:
7,37,44182,2,0,B|-3:20|-17:13|-17:13|12:7|19:28|12:41,1,74.9999977111817,2|0,3:2|0:0,0:0:0:0:
202,186,44370,5,2,3:2:0:0:
202,186,44557,2,0,L|197:209,1,18.75,2|0,0:2|0:0,0:0:0:0:
206,172,44745,6,0,B|213:92|271:38|353:34|393:84|389:151|339:192|272:157,1,337.499989700318,10|0,0:2|0:0,0:0:0:0:
290,163,45120,1,0,3:0:0:0:
152,76,45307,6,0,B|118:47|73:68|73:68|53:111|-2:112,2,174.999994659424,2|10|2,3:2|0:2|3:2,0:0:0:0:
51,206,45870,2,0,B|81:240|81:240|-1:18,1,262.499991989136,2|2,3:2|0:2,0:0:0:0:
4,30,46245,2,0,B|-16:-19|-16:-19|-16:18,1,87.499997329712,10|0,0:2|0:0,0:0:0:0:
51,206,46432,2,0,B|98:199|73:165|122:158,1,87.499997329712,2|0,0:2|0:0,0:0:0:0:
246,238,46620,6,0,B|278:252|265:279|265:279|224:224|146:225,1,174.999994659424,2|0,3:2|0:0,0:0:0:0:
64,358,46901,1,2,0:2:0:0:
76,357,46995,2,0,P|112:344|123:295,1,87.499997329712,10|0,0:2|0:0,0:0:0:0:
14,284,47182,2,0,B|-22:315|-22:315|16:301,1,87.499997329712,2|0,3:2|0:0,0:0:0:0:
294,384,47370,6,0,P|289:340|289:296,1,87.499997329712,2|0,3:2|0:0,0:0:0:0:
201,310,47557,2,0,P|204:341|204:372,1,62.5,2|0,0:2|0:0,0:0:0:0:
370,284,47745,6,0,P|368:250|342:224,1,62.5,10|0,0:2|0:0,0:0:0:0:
265,161,47932,2,0,B|259:173|259:173|277:234,1,62.5,2|0,0:2|0:0,0:0:0:0:
371,378,48120,6,0,B|427:396|452:337|440:331|430:328|450:271|509:288,1,187.5,2|0,3:2|0:0,0:0:0:0:
512,294,48495,1,10,0:2:0:0:
503,384,48682,1,2,3:2:0:0:
370,285,48870,6,0,P|345:274|329:249,1,37.4999988555909,2|0,3:2|0:0,0:0:0:0:
366,275,48963,2,0,P|382:252|383:223,1,37.4999988555909,2|0,0:2|0:0,0:0:0:0:
364,266,49057,2,0,P|344:247|337:218,1,37.4999988555909,2|0,0:2|0:0,0:0:0:0:
361,257,49151,2,0,P|368:230|359:202,1,37.4999988555909,2|0,0:2|0:0,0:0:0:0:
325,163,49245,5,10,0:2:0:0:
299,341,49432,1,2,0:2:0:0:
480,180,49620,6,0,B|471:127|427:90|364:100|364:100|398:121|401:170,1,224.999993133545,2|2,3:2|0:2,0:0:0:0:
325,163,49995,2,0,B|283:166|283:166|320:151,1,74.9999977111817,10|0,0:2|0:0,0:0:0:0:
200,86,50182,2,0,B|209:99|209:99|191:171,1,74.9999977111817,2|0,3:2|0:0,0:0:0:0:
68,150,50370,5,2,3:2:0:0:
68,150,50557,2,0,P|77:112|118:94,1,74.9999977111817,2|0,0:2|0:0,0:0:0:0:
187,89,50745,2,0,P|163:176|145:332,1,224.999993133545,10|0,0:2|0:0,0:0:0:0:
148,321,51120,5,2,0:2:0:0:
256,192,51213,12,0,57120,0:0:0:0:
