osu file format v14

[General]
AudioFilename: audio.mp3
AudioLeadIn: 0
PreviewTime: 7387
Countdown: 0
SampleSet: Normal
StackLeniency: 0.7
Mode: 1
LetterboxInBreaks: 0
WidescreenStoryboard: 1

[Editor]
Bookmarks: 5757,21409,35322,49235,63148,66626
DistanceSpacing: 1
BeatDivisor: 2
GridSize: 32
TimelineZoom: 0.5999999

[Metadata]
Title:Kara Kara Iseki (Cut Ver.)
TitleUnicode:カラカラいせき (Cut Ver.)
Artist:Ohta Asuka, Nagamatsu Ryo
ArtistUnicode:太田あすか, 永松亮
Creator:Default Guy
Version:Muzukashii
Source:マリオカートWii
Tags:video game instrumental mario kart プラチナサウンドトラック platinum soundtrack nintendo dry ruins yoshi sphinx
BeatmapID:2774119
BeatmapSetID:1339071

[Difficulty]
HPDrainRate:7
CircleSize:5
OverallDifficulty:5
ApproachRate:10
SliderMultiplier:1.6
SliderTickRate:1

[Events]
//Background and Video events
0,0,"yoshithetaxevader.jpg",0,0
//Break Periods
//Storyboard Layer 0 (Background)
//Storyboard Layer 1 (Fail)
//Storyboard Layer 2 (Pass)
//Storyboard Layer 3 (Foreground)
//Storyboard Layer 4 (Overlay)
//Storyboard Sound Samples

[TimingPoints]
550,434.782608695652,4,1,0,70,1,0
20658,-106.593444076816,4,1,0,70,0,0
20876,-114.117602754342,4,1,0,70,0,0
21093,-122.784808572344,4,1,0,70,0,0
21310,-132.876768755888,4,1,0,65,0,0
33919,-127.306961271949,4,1,0,65,0,0
34136,-121.801789511892,4,1,0,65,0,0
34354,-116.753005514244,4,1,0,65,0,0
34571,-112.10611516437,4,1,0,65,0,0
34789,-107.814967952001,4,1,0,65,0,0
34952,-105.79032780191,4,1,0,65,0,0
35060,-103.840218978254,4,1,0,65,0,0
35332,-100.148119068102,4,1,0,70,0,1
48484,-100,4,1,0,70,0,1
48701,-105.825257102462,4,1,0,70,0,1
48919,-112.371166457656,4,1,0,70,0,1
49245,-132.926754699625,4,1,0,70,0,0
55495,-123.174553122721,4,1,0,70,0,0
55658,-114.45432185242,4,1,0,70,0,0
55876,-106.887053519417,4,1,0,70,0,0
56093,-100.258365808689,4,1,0,70,0,0

[HitObjects]
201,156,550,5,8,0:0:0:0:
201,156,658,1,8,0:0:0:0:
201,156,767,1,8,0:0:0:0:
201,156,984,1,0,0:0:0:0:
201,156,1202,1,8,0:0:0:0:
201,156,1419,1,0,0:0:0:0:
201,156,1636,1,0,0:0:0:0:
201,156,1854,1,8,0:0:0:0:
261,241,2289,1,0,0:0:0:0:
224,146,2615,1,8,0:0:0:0:
224,146,2723,1,8,0:0:0:0:
216,105,2941,1,0,0:0:0:0:
230,96,3267,1,0,0:0:0:0:
238,94,3376,1,8,0:0:0:0:
238,93,3593,1,0,0:0:0:0:
238,93,3810,1,8,0:0:0:0:
239,92,4028,1,12,0:0:0:0:
214,163,4354,1,0,0:0:0:0:
214,163,4571,1,0,0:0:0:0:
214,163,4789,1,8,0:0:0:0:
207,164,4897,1,0,0:0:0:0:
222,19,5332,1,8,0:0:0:0:
225,165,5441,1,8,0:0:0:0:
226,166,5549,1,0,0:0:0:0:
169,185,5767,1,4,0:0:0:0:
271,111,6419,1,8,0:0:0:0:
271,111,6528,1,8,0:0:0:0:
201,132,6745,1,8,0:0:0:0:
201,132,6854,1,8,0:0:0:0:
329,61,7071,1,8,0:0:0:0:
329,61,7180,1,8,0:0:0:0:
329,61,7289,1,0,0:0:0:0:
284,142,7506,1,8,0:0:0:0:
159,174,7615,1,8,0:0:0:0:
159,174,7723,1,8,0:0:0:0:
159,174,7941,1,0,0:0:0:0:
183,172,8158,1,8,0:0:0:0:
183,172,8376,1,0,0:0:0:0:
181,171,8810,1,8,0:0:0:0:
225,147,9245,1,0,0:0:0:0:
237,134,9463,1,8,0:0:0:0:
225,147,9571,1,8,0:0:0:0:
225,147,9680,1,8,0:0:0:0:
225,147,9897,1,0,0:0:0:0:
225,147,10115,1,8,0:0:0:0:
225,147,10332,1,8,0:0:0:0:
238,134,10984,1,8,0:0:0:0:
186,138,11093,1,8,0:0:0:0:
186,138,11202,1,8,0:0:0:0:
193,137,11419,1,0,0:0:0:0:
173,147,11636,1,8,0:0:0:0:
173,147,11854,1,0,0:0:0:0:
173,147,12289,1,8,0:0:0:0:
173,147,12723,1,0,0:0:0:0:
180,150,12941,1,8,0:0:0:0:
179,151,13158,1,8,0:0:0:0:
167,147,13376,1,8,0:0:0:0:
195,145,13484,1,8,0:0:0:0:
200,147,13593,1,8,0:0:0:0:
228,169,13810,1,8,0:0:0:0:
221,168,14028,1,0,0:0:0:0:
146,178,14463,1,8,0:0:0:0:
175,132,14571,1,8,0:0:0:0:
168,130,14680,1,8,0:0:0:0:
168,130,14897,1,0,0:0:0:0:
172,140,15115,1,8,0:0:0:0:
173,141,15332,1,0,0:0:0:0:
173,140,15767,1,8,0:0:0:0:
225,147,16202,1,0,0:0:0:0:
237,134,16419,1,8,0:0:0:0:
225,147,16528,1,8,0:0:0:0:
225,147,16636,1,8,0:0:0:0:
225,147,16854,1,0,0:0:0:0:
225,147,17071,1,8,0:0:0:0:
225,147,17289,1,8,0:0:0:0:
146,178,17941,1,8,0:0:0:0:
175,132,18049,1,8,0:0:0:0:
168,130,18158,1,8,0:0:0:0:
168,130,18376,1,0,0:0:0:0:
238,90,18593,1,8,0:0:0:0:
238,90,18810,1,0,0:0:0:0:
238,90,19245,1,8,0:0:0:0:
249,77,19680,1,0,0:0:0:0:
250,78,19789,1,0,0:0:0:0:
228,82,19897,1,0,0:0:0:0:
229,82,20115,1,8,0:0:0:0:
167,147,20332,1,8,0:0:0:0:
200,147,20549,1,0,0:0:0:0:
168,125,21419,1,0,0:0:0:0:
169,125,21854,1,0,0:0:0:0:
170,125,21963,1,0,0:0:0:0:
170,124,22180,1,0,0:0:0:0:
168,125,22397,1,0,0:0:0:0:
170,125,22723,1,0,0:0:0:0:
186,108,22941,1,8,0:0:0:0:
168,125,23158,1,0,0:0:0:0:
170,125,23593,1,0,0:0:0:0:
169,125,23702,1,8,0:0:0:0:
170,124,23919,1,0,0:0:0:0:
168,125,24136,1,0,0:0:0:0:
170,125,24463,1,8,0:0:0:0:
186,108,24680,1,8,0:0:0:0:
168,125,24897,1,0,0:0:0:0:
170,125,25332,1,0,0:0:0:0:
169,125,25441,1,0,0:0:0:0:
170,124,25658,1,0,0:0:0:0:
168,125,25876,1,0,0:0:0:0:
170,125,26202,1,0,0:0:0:0:
186,108,26419,1,12,0:0:0:0:
160,117,26854,1,8,0:0:0:0:
161,117,27071,1,0,0:0:0:0:
160,117,27289,1,0,0:0:0:0:
160,117,27506,1,8,0:0:0:0:
160,117,27723,1,8,0:0:0:0:
161,117,27941,1,0,0:0:0:0:
168,125,28376,1,8,0:0:0:0:
169,125,28811,1,8,0:0:0:0:
170,125,28920,1,0,0:0:0:0:
170,124,29137,1,0,0:0:0:0:
168,125,29354,1,0,0:0:0:0:
170,125,29680,1,0,0:0:0:0:
186,108,29898,1,8,0:0:0:0:
168,125,30115,1,0,0:0:0:0:
170,125,30550,1,0,0:0:0:0:
169,125,30659,1,0,0:0:0:0:
170,124,30876,1,0,0:0:0:0:
168,125,31093,1,0,0:0:0:0:
170,125,31420,1,8,0:0:0:0:
186,108,31637,1,0,0:0:0:0:
168,125,31854,1,0,0:0:0:0:
170,125,32289,1,0,0:0:0:0:
169,125,32398,1,0,0:0:0:0:
170,124,32615,1,0,0:0:0:0:
168,125,32833,1,0,0:0:0:0:
170,125,33159,1,0,0:0:0:0:
186,108,33376,1,12,0:0:0:0:
161,117,34028,1,0,0:0:0:0:
160,117,34245,1,0,0:0:0:0:
160,117,34463,1,8,0:0:0:0:
160,117,34680,1,8,0:0:0:0:
161,117,34897,1,0,0:0:0:0:
284,142,35332,1,8,0:0:0:0:
159,174,35441,1,8,0:0:0:0:
159,174,35549,1,8,0:0:0:0:
159,174,35767,1,0,0:0:0:0:
183,172,35984,1,8,0:0:0:0:
183,172,36202,1,0,0:0:0:0:
181,171,36636,1,8,0:0:0:0:
225,147,37071,1,0,0:0:0:0:
237,134,37289,1,8,0:0:0:0:
225,147,37397,1,8,0:0:0:0:
225,147,37506,1,8,0:0:0:0:
225,147,37723,1,0,0:0:0:0:
225,147,37941,1,8,0:0:0:0:
225,147,38049,1,8,0:0:0:0:
225,147,38158,1,8,0:0:0:0:
240,133,38376,1,0,0:0:0:0:
238,134,38810,1,8,0:0:0:0:
186,138,38919,1,8,0:0:0:0:
186,138,39028,1,8,0:0:0:0:
193,137,39245,1,0,0:0:0:0:
173,147,39463,1,8,0:0:0:0:
173,147,39680,1,0,0:0:0:0:
173,147,40115,1,8,0:0:0:0:
173,147,40549,1,0,0:0:0:0:
180,149,40658,1,0,0:0:0:0:
180,150,40767,1,8,0:0:0:0:
179,151,40984,1,8,0:0:0:0:
167,147,41202,1,8,0:0:0:0:
195,145,41310,1,8,0:0:0:0:
200,147,41419,1,8,0:0:0:0:
228,169,41636,1,8,0:0:0:0:
146,178,42289,1,8,0:0:0:0:
175,132,42397,1,8,0:0:0:0:
168,130,42506,1,8,0:0:0:0:
168,130,42723,1,0,0:0:0:0:
172,140,42941,1,8,0:0:0:0:
173,141,43158,1,0,0:0:0:0:
173,140,43593,1,8,0:0:0:0:
225,147,44028,1,0,0:0:0:0:
237,134,44245,1,8,0:0:0:0:
225,147,44354,1,8,0:0:0:0:
225,147,44463,1,8,0:0:0:0:
225,147,44680,1,0,0:0:0:0:
225,147,44897,1,8,0:0:0:0:
225,147,45006,1,8,0:0:0:0:
225,147,45115,1,8,0:0:0:0:
240,133,45332,1,8,0:0:0:0:
146,178,45767,1,8,0:0:0:0:
175,132,45876,1,8,0:0:0:0:
168,130,45984,1,8,0:0:0:0:
168,130,46202,1,0,0:0:0:0:
238,90,46419,1,8,0:0:0:0:
238,90,46636,1,0,0:0:0:0:
238,90,47071,1,8,0:0:0:0:
249,77,47506,1,0,0:0:0:0:
250,78,47615,1,0,0:0:0:0:
228,82,47723,1,0,0:0:0:0:
229,82,47941,1,8,0:0:0:0:
167,147,48158,1,8,0:0:0:0:
195,145,48267,1,8,0:0:0:0:
200,147,48376,1,8,0:0:0:0:
157,154,48593,1,0,0:0:0:0:
137,169,49245,1,0,0:0:0:0:
184,177,49463,5,0,0:0:0:0:
187,178,49680,1,8,0:0:0:0:
187,178,49897,1,0,0:0:0:0:
188,178,50115,1,0,0:0:0:0:
188,178,50332,1,8,0:0:0:0:
187,178,50767,1,0,0:0:0:0:
217,112,50984,1,8,0:0:0:0:
190,62,51202,1,0,0:0:0:0:
190,62,51419,1,8,0:0:0:0:
190,62,51636,1,8,0:0:0:0:
231,104,52071,1,0,0:0:0:0:
209,168,52289,5,8,0:0:0:0:
224,145,52397,1,8,0:0:0:0:
215,165,52506,1,0,0:0:0:0:
224,145,52723,1,8,0:0:0:0:
195,140,52941,1,8,0:0:0:0:
196,62,53158,1,8,0:0:0:0:
218,69,53376,1,0,0:0:0:0:
218,69,53593,1,8,0:0:0:0:
176,170,53810,1,8,0:0:0:0:
176,170,54245,1,8,0:0:0:0:
176,170,54463,1,8,0:0:0:0:
191,80,54680,1,0,0:0:0:0:
198,174,54897,1,0,0:0:0:0:
203,171,55115,1,8,0:0:0:0:
155,145,55549,1,8,0:0:0:0:
175,159,55767,1,0,0:0:0:0:
175,159,55984,1,0,0:0:0:0:
237,48,56202,1,0,0:0:0:0:
176,101,56636,1,8,0:0:0:0:
216,79,56745,1,0,0:0:0:0:
216,79,56854,1,0,0:0:0:0:
210,89,57071,1,0,0:0:0:0:
211,88,57506,1,8,0:0:0:0:
214,90,57615,1,8,0:0:0:0:
217,90,57723,1,0,0:0:0:0:
217,89,57941,1,0,0:0:0:0:
233,94,58376,1,8,0:0:0:0:
228,92,58484,1,0,0:0:0:0:
226,92,58593,1,0,0:0:0:0:
237,48,58810,1,0,0:0:0:0:
176,101,59245,1,8,0:0:0:0:
216,79,59354,1,8,0:0:0:0:
216,79,59463,1,0,0:0:0:0:
210,89,59680,1,12,0:0:0:0:
165,184,60115,1,8,0:0:0:0:
204,45,60332,1,4,0:0:0:0:
142,139,60767,1,8,0:0:0:0:
204,45,60984,1,12,0:0:0:0:
156,172,61419,1,8,0:0:0:0:
234,109,61636,1,12,0:0:0:0:
184,155,62289,1,0,0:0:0:0:
192,156,62506,1,8,0:0:0:0:
193,156,62723,1,0,0:0:0:0:
189,143,62941,1,8,0:0:0:0:
212,160,63158,5,8,0:0:0:0:
212,160,63267,1,8,0:0:0:0:
212,160,63376,1,8,0:0:0:0:
212,160,63593,1,8,0:0:0:0:
194,135,64897,1,8,0:0:0:0:
194,135,65115,1,8,0:0:0:0:
194,135,65332,1,8,0:0:0:0:
211,130,65441,1,0,0:0:0:0:
213,127,65658,1,8,0:0:0:0:
198,137,65767,1,0,0:0:0:0:
340,203,66202,1,8,0:0:0:0:
356,55,66310,1,8,0:0:0:0:
263,90,66419,1,0,0:0:0:0:
291,201,66636,1,4,0:0:0:0:
