osu file format v14

[General]
AudioFilename: audio.mp3
AudioLeadIn: 0
PreviewTime: 7387
Countdown: 0
SampleSet: Normal
StackLeniency: 0.7
Mode: 1
LetterboxInBreaks: 0
WidescreenStoryboard: 0

[Editor]
Bookmarks: 5757,21409,35322,49235,63148,66626
DistanceSpacing: 1
BeatDivisor: 4
GridSize: 32
TimelineZoom: 1

[Metadata]
Title:Kara Kara Iseki (Cut Ver.)
TitleUnicode:カラカラいせき (Cut Ver.)
Artist:Ohta Asuka, Nagamatsu Ryo
ArtistUnicode:太田あすか, 永松亮
Creator:Default Guy
Version:Inner Oni
Source:マリオカートWii
Tags:video game instrumental mario kart プラチナサウンドトラック platinum soundtrack nintendo dry ruins yoshi sphinx
BeatmapID:2774118
BeatmapSetID:1339071

[Difficulty]
HPDrainRate:6
CircleSize:5
OverallDifficulty:6
ApproachRate:10
SliderMultiplier:1.6
SliderTickRate:1

[Events]
//Background and Video events
0,0,"yoshithetaxevader.jpg",0,0
//Break Periods
//Storyboard Layer 0 (Background)
//Storyboard Layer 1 (Fail)
//Storyboard Layer 2 (Pass)
//Storyboard Layer 3 (Foreground)
//Storyboard Layer 4 (Overlay)
//Storyboard Sound Samples

[TimingPoints]
550,434.782608695652,4,1,0,70,1,0
20658,-106.593444076816,4,1,0,70,0,0
20876,-114.117602754342,4,1,0,70,0,0
21093,-122.784808572344,4,1,0,70,0,0
21310,-132.876768755888,4,1,0,65,0,0
33919,-127.306961271949,4,1,0,65,0,0
34136,-121.801789511892,4,1,0,65,0,0
34354,-116.753005514244,4,1,0,65,0,0
34571,-112.10611516437,4,1,0,65,0,0
34789,-109.89010989011,4,1,0,65,0,0
34952,-105.79032780191,4,1,0,65,0,0
35060,-103.840218978254,4,1,0,65,0,0
35332,-100.148119068102,4,1,0,75,0,1
48588,-106.666666666667,4,1,0,75,0,1
48805,-114.285714285714,4,1,0,75,0,1
49028,-123.076923076923,4,1,0,75,0,1
49245,-133.333333333333,4,1,0,70,0,0
55386,-128.052778233077,4,1,0,70,0,0
55495,-123.174553122721,4,1,0,70,0,0
55658,-114.45432185242,4,1,0,70,0,0
55876,-106.887053519417,4,1,0,70,0,0
56093,-100.258365808689,4,1,0,70,0,0

[HitObjects]
201,156,550,5,8,0:0:0:0:
201,156,658,1,0,0:0:0:0:
201,156,767,1,8,0:0:0:0:
183,174,876,1,0,0:0:0:0:
201,156,984,1,0,0:0:0:0:
201,156,1202,1,8,0:0:0:0:
201,156,1419,1,0,0:0:0:0:
201,156,1636,1,0,0:0:0:0:
201,156,1854,1,8,0:0:0:0:
372,81,1926,1,8,0:0:0:0:
372,81,1999,1,8,0:0:0:0:
191,197,2071,1,8,0:0:0:0:
349,73,2180,1,8,0:0:0:0:
261,241,2289,1,0,0:0:0:0:
261,241,2397,1,0,0:0:0:0:
224,146,2615,1,8,0:0:0:0:
224,146,2723,1,0,0:0:0:0:
216,105,2941,1,8,0:0:0:0:
224,146,3049,1,0,0:0:0:0:
230,96,3267,1,0,0:0:0:0:
238,94,3376,1,8,0:0:0:0:
238,93,3593,1,0,0:0:0:0:
238,93,3702,1,0,0:0:0:0:
238,93,3810,1,8,0:0:0:0:
236,94,3919,1,0,0:0:0:0:
239,92,4028,1,12,0:0:0:0:
214,163,4245,1,8,0:0:0:0:
214,163,4354,1,0,0:0:0:0:
214,163,4571,1,0,0:0:0:0:
214,163,4789,1,8,0:0:0:0:
207,164,4897,1,0,0:0:0:0:
181,5,5115,1,0,0:0:0:0:
181,5,5187,5,0,0:0:0:0:
223,165,5260,1,0,0:0:0:0:
222,19,5332,1,8,0:0:0:0:
225,165,5441,1,8,0:0:0:0:
226,166,5549,1,0,0:0:0:0:
169,185,5767,1,4,0:0:0:0:
271,111,5984,1,8,0:0:0:0:
191,161,6202,1,0,0:0:0:0:
271,111,6310,1,0,0:0:0:0:
271,111,6419,1,8,0:0:0:0:
271,111,6528,1,8,0:0:0:0:
201,132,6745,1,8,0:0:0:0:
201,132,6854,1,8,0:0:0:0:
329,61,7071,1,8,0:0:0:0:
329,61,7144,1,8,0:0:0:0:
329,61,7216,1,8,0:0:0:0:
329,61,7289,1,0,0:0:0:0:
183,147,7397,1,8,0:0:0:0:
284,142,7506,1,8,0:0:0:0:
159,174,7615,1,0,0:0:0:0:
159,174,7723,1,8,0:0:0:0:
181,171,7832,1,0,0:0:0:0:
159,174,7941,1,0,0:0:0:0:
183,172,8158,1,8,0:0:0:0:
183,172,8376,1,0,0:0:0:0:
183,172,8593,1,0,0:0:0:0:
181,171,8810,1,8,0:0:0:0:
225,147,9245,1,0,0:0:0:0:
225,147,9354,1,0,0:0:0:0:
237,134,9463,1,8,0:0:0:0:
225,147,9571,1,8,0:0:0:0:
225,147,9680,1,8,0:0:0:0:
225,147,9789,1,0,0:0:0:0:
225,147,9897,1,0,0:0:0:0:
238,134,10006,1,8,0:0:0:0:
225,147,10115,1,8,0:0:0:0:
225,147,10223,1,0,0:0:0:0:
225,147,10332,1,8,0:0:0:0:
240,133,10549,1,0,0:0:0:0:
217,72,10767,1,8,0:0:0:0:
209,67,10876,1,0,0:0:0:0:
238,134,10984,1,8,0:0:0:0:
186,138,11093,1,0,0:0:0:0:
186,138,11202,1,8,0:0:0:0:
191,137,11310,1,0,0:0:0:0:
193,137,11419,1,0,0:0:0:0:
173,147,11636,1,8,0:0:0:0:
173,147,11854,1,0,0:0:0:0:
173,147,12071,1,0,0:0:0:0:
173,147,12289,1,8,0:0:0:0:
173,147,12723,1,0,0:0:0:0:
180,149,12832,1,8,0:0:0:0:
180,150,12941,1,8,0:0:0:0:
179,151,13158,1,8,0:0:0:0:
167,147,13376,1,8,0:0:0:0:
195,145,13448,1,0,0:0:0:0:
200,147,13521,1,0,0:0:0:0:
200,147,13593,1,8,0:0:0:0:
228,169,13810,1,8,0:0:0:0:
221,168,14028,1,0,0:0:0:0:
222,168,14245,1,0,0:0:0:0:
146,178,14463,1,8,0:0:0:0:
175,132,14571,1,0,0:0:0:0:
168,130,14680,1,8,0:0:0:0:
168,48,14789,1,0,0:0:0:0:
168,130,14897,1,0,0:0:0:0:
172,140,15115,1,8,0:0:0:0:
173,141,15332,1,0,0:0:0:0:
173,140,15549,1,0,0:0:0:0:
173,140,15767,1,8,0:0:0:0:
225,147,16202,1,0,0:0:0:0:
225,147,16310,1,0,0:0:0:0:
237,134,16419,1,8,0:0:0:0:
225,147,16528,1,8,0:0:0:0:
225,147,16636,1,8,0:0:0:0:
225,147,16745,1,0,0:0:0:0:
225,147,16854,1,0,0:0:0:0:
238,134,16963,1,8,0:0:0:0:
225,147,17071,1,8,0:0:0:0:
225,147,17180,1,0,0:0:0:0:
225,147,17289,1,8,0:0:0:0:
240,133,17506,1,0,0:0:0:0:
225,147,17723,1,8,0:0:0:0:
213,55,17832,1,0,0:0:0:0:
146,178,17941,1,8,0:0:0:0:
175,132,18049,1,0,0:0:0:0:
168,130,18158,1,8,0:0:0:0:
168,48,18267,1,0,0:0:0:0:
168,130,18376,1,0,0:0:0:0:
238,90,18593,1,8,0:0:0:0:
238,90,18810,1,0,0:0:0:0:
238,90,19028,1,0,0:0:0:0:
238,90,19245,1,8,0:0:0:0:
249,81,19463,1,8,0:0:0:0:
246,76,19571,1,8,0:0:0:0:
249,77,19680,1,0,0:0:0:0:
250,78,19789,1,8,0:0:0:0:
228,82,19897,1,0,0:0:0:0:
229,82,20115,1,8,0:0:0:0:
167,147,20332,1,8,0:0:0:0:
195,145,20405,1,0,0:0:0:0:
200,147,20477,1,0,0:0:0:0:
200,147,20549,1,8,0:0:0:0:
124,168,20767,1,8,0:0:0:0:
181,148,20984,1,0,0:0:0:0:
181,141,21202,1,0,0:0:0:0:
168,125,21419,1,0,0:0:0:0:
169,125,21636,1,8,0:0:0:0:
170,125,21854,1,0,0:0:0:0:
178,161,21963,1,0,0:0:0:0:
170,124,22180,1,0,0:0:0:0:
168,125,22397,1,0,0:0:0:0:
323,129,22506,1,0,0:0:0:0:
170,125,22723,1,0,0:0:0:0:
220,66,22832,1,8,0:0:0:0:
186,108,22941,1,8,0:0:0:0:
186,108,23049,1,0,0:0:0:0:
168,125,23158,1,0,0:0:0:0:
169,125,23267,1,8,0:0:0:0:
66,122,23376,1,0,0:0:0:0:
170,125,23593,1,0,0:0:0:0:
184,161,23702,1,8,0:0:0:0:
179,161,23919,1,0,0:0:0:0:
168,125,24136,1,0,0:0:0:0:
301,64,24245,1,0,0:0:0:0:
170,125,24354,1,0,0:0:0:0:
169,125,24463,1,8,0:0:0:0:
186,108,24680,1,8,0:0:0:0:
168,125,24897,1,0,0:0:0:0:
169,125,25115,1,8,0:0:0:0:
170,125,25332,1,0,0:0:0:0:
198,69,25441,1,0,0:0:0:0:
170,124,25658,1,0,0:0:0:0:
168,125,25876,1,0,0:0:0:0:
301,64,25984,1,0,0:0:0:0:
170,125,26202,1,0,0:0:0:0:
360,177,26310,1,0,0:0:0:0:
186,108,26419,1,12,0:0:0:0:
160,117,26854,1,8,0:0:0:0:
161,117,27071,1,0,0:0:0:0:
160,117,27289,1,0,0:0:0:0:
160,117,27506,1,8,0:0:0:0:
160,117,27723,1,8,0:0:0:0:
161,117,27941,1,0,0:0:0:0:
176,151,28049,1,0,0:0:0:0:
160,117,28158,1,0,0:0:0:0:
168,125,28376,1,8,0:0:0:0:
169,125,28593,1,8,0:0:0:0:
170,125,28811,1,0,0:0:0:0:
178,161,28920,1,0,0:0:0:0:
170,124,29137,1,0,0:0:0:0:
168,125,29354,1,0,0:0:0:0:
323,129,29463,1,0,0:0:0:0:
170,125,29680,1,0,0:0:0:0:
220,66,29789,1,8,0:0:0:0:
186,108,29898,1,8,0:0:0:0:
186,108,30006,1,0,0:0:0:0:
168,125,30115,1,0,0:0:0:0:
169,125,30224,1,8,0:0:0:0:
66,122,30333,1,0,0:0:0:0:
170,125,30550,1,0,0:0:0:0:
184,161,30659,1,8,0:0:0:0:
179,161,30876,1,0,0:0:0:0:
168,125,31093,1,0,0:0:0:0:
301,64,31202,1,0,0:0:0:0:
170,125,31311,1,0,0:0:0:0:
169,125,31420,1,8,0:0:0:0:
186,108,31637,1,8,0:0:0:0:
168,125,31854,1,8,0:0:0:0:
169,125,32072,1,8,0:0:0:0:
170,125,32289,1,0,0:0:0:0:
198,69,32398,1,0,0:0:0:0:
170,124,32615,1,0,0:0:0:0:
168,125,32833,1,0,0:0:0:0:
301,64,32941,1,0,0:0:0:0:
170,125,33159,1,0,0:0:0:0:
360,177,33267,1,0,0:0:0:0:
186,108,33376,5,12,0:0:0:0:
160,117,33810,5,8,0:0:0:0:
161,117,34028,1,0,0:0:0:0:
160,117,34245,1,0,0:0:0:0:
160,117,34463,1,8,0:0:0:0:
160,117,34680,1,8,0:0:0:0:
161,117,34789,1,0,0:0:0:0:
176,151,35006,1,0,0:0:0:0:
160,117,35115,1,8,0:0:0:0:
284,142,35332,1,8,0:0:0:0:
159,174,35441,1,0,0:0:0:0:
159,174,35549,1,8,0:0:0:0:
181,171,35658,1,0,0:0:0:0:
159,174,35767,1,0,0:0:0:0:
183,172,35984,1,8,0:0:0:0:
230,132,36093,1,0,0:0:0:0:
183,172,36202,1,0,0:0:0:0:
183,172,36419,1,0,0:0:0:0:
181,171,36636,1,8,0:0:0:0:
166,128,36854,1,0,0:0:0:0:
225,147,37071,1,0,0:0:0:0:
225,147,37180,1,0,0:0:0:0:
237,134,37289,1,8,0:0:0:0:
225,147,37397,1,8,0:0:0:0:
225,147,37506,1,8,0:0:0:0:
225,147,37615,1,0,0:0:0:0:
225,147,37723,1,0,0:0:0:0:
238,134,37832,1,8,0:0:0:0:
225,147,37941,1,8,0:0:0:0:
225,147,38049,1,0,0:0:0:0:
225,147,38158,1,8,0:0:0:0:
198,200,38267,1,0,0:0:0:0:
240,133,38376,1,0,0:0:0:0:
342,190,38484,1,0,0:0:0:0:
217,72,38593,1,8,0:0:0:0:
209,67,38702,1,0,0:0:0:0:
238,134,38810,1,8,0:0:0:0:
186,138,38919,1,0,0:0:0:0:
186,138,39028,1,8,0:0:0:0:
191,137,39136,1,0,0:0:0:0:
193,137,39245,1,0,0:0:0:0:
173,147,39463,1,8,0:0:0:0:
173,144,39571,1,0,0:0:0:0:
173,147,39680,1,0,0:0:0:0:
173,147,39897,1,0,0:0:0:0:
173,147,40115,1,8,0:0:0:0:
178,143,40332,1,0,0:0:0:0:
179,143,40441,1,8,0:0:0:0:
173,147,40549,1,0,0:0:0:0:
180,149,40658,1,8,0:0:0:0:
180,150,40767,1,8,0:0:0:0:
179,151,40984,1,8,0:0:0:0:
167,147,41202,1,8,0:0:0:0:
195,145,41274,1,0,0:0:0:0:
200,147,41347,1,0,0:0:0:0:
200,147,41419,1,8,0:0:0:0:
228,169,41636,1,8,0:0:0:0:
221,168,41854,1,0,0:0:0:0:
222,168,42071,1,0,0:0:0:0:
146,178,42289,1,8,0:0:0:0:
175,132,42397,1,0,0:0:0:0:
168,130,42506,1,8,0:0:0:0:
168,48,42615,1,0,0:0:0:0:
168,130,42723,1,0,0:0:0:0:
172,140,42941,1,8,0:0:0:0:
187,141,43049,1,0,0:0:0:0:
173,141,43158,1,0,0:0:0:0:
189,141,43267,1,8,0:0:0:0:
173,140,43376,1,0,0:0:0:0:
173,140,43593,1,8,0:0:0:0:
233,132,43810,1,8,0:0:0:0:
225,147,44028,1,0,0:0:0:0:
225,147,44136,1,0,0:0:0:0:
237,134,44245,1,8,0:0:0:0:
225,147,44354,1,8,0:0:0:0:
225,147,44463,1,8,0:0:0:0:
225,147,44571,1,0,0:0:0:0:
225,147,44680,1,0,0:0:0:0:
238,134,44789,1,8,0:0:0:0:
225,147,44897,1,8,0:0:0:0:
225,147,45006,1,0,0:0:0:0:
225,147,45115,1,8,0:0:0:0:
276,95,45223,1,0,0:0:0:0:
240,133,45332,1,0,0:0:0:0:
276,95,45441,1,0,0:0:0:0:
225,147,45549,1,8,0:0:0:0:
213,55,45658,1,0,0:0:0:0:
146,178,45767,1,8,0:0:0:0:
175,132,45876,1,0,0:0:0:0:
168,130,45984,1,8,0:0:0:0:
168,48,46093,1,0,0:0:0:0:
168,130,46202,1,0,0:0:0:0:
238,90,46419,1,8,0:0:0:0:
238,90,46636,1,0,0:0:0:0:
238,90,46854,1,0,0:0:0:0:
238,90,47071,1,8,0:0:0:0:
249,81,47289,1,8,0:0:0:0:
246,76,47397,1,8,0:0:0:0:
249,77,47506,1,0,0:0:0:0:
250,78,47615,1,8,0:0:0:0:
228,82,47723,1,0,0:0:0:0:
229,82,47941,1,8,0:0:0:0:
167,147,48158,1,8,0:0:0:0:
195,145,48231,1,0,0:0:0:0:
200,147,48303,1,0,0:0:0:0:
200,147,48376,1,8,0:0:0:0:
124,168,48593,1,8,0:0:0:0:
181,148,48810,1,0,0:0:0:0:
181,141,49028,1,8,0:0:0:0:
198,174,49245,1,0,0:0:0:0:
184,177,49463,1,0,0:0:0:0:
212,178,49571,1,0,0:0:0:0:
187,178,49680,1,8,0:0:0:0:
187,178,49897,1,0,0:0:0:0:
188,178,50115,1,0,0:0:0:0:
180,158,50223,1,8,0:0:0:0:
188,178,50332,1,8,0:0:0:0:
187,178,50549,1,0,0:0:0:0:
187,178,50767,1,0,0:0:0:0:
217,112,50984,1,8,0:0:0:0:
190,62,51202,1,0,0:0:0:0:
190,62,51419,1,8,0:0:0:0:
190,62,51636,1,8,0:0:0:0:
217,65,51854,1,0,0:0:0:0:
231,104,52071,1,0,0:0:0:0:
209,168,52289,5,8,0:0:0:0:
224,145,52397,1,8,0:0:0:0:
215,165,52506,1,0,0:0:0:0:
224,145,52615,1,0,0:0:0:0:
224,145,52723,1,8,0:0:0:0:
188,145,52832,1,8,0:0:0:0:
195,140,52941,1,8,0:0:0:0:
196,62,53158,1,8,0:0:0:0:
218,69,53376,1,0,0:0:0:0:
213,72,53484,1,0,0:0:0:0:
218,69,53593,1,8,0:0:0:0:
176,170,53810,1,8,0:0:0:0:
176,170,54028,1,0,0:0:0:0:
176,170,54245,1,8,0:0:0:0:
176,170,54463,1,8,0:0:0:0:
194,174,54680,1,0,0:0:0:0:
198,174,54897,1,0,0:0:0:0:
203,171,55115,1,8,0:0:0:0:
206,170,55332,1,8,0:0:0:0:
135,141,55441,1,8,0:0:0:0:
155,145,55549,1,0,0:0:0:0:
175,159,55767,1,0,0:0:0:0:
175,159,55984,1,0,0:0:0:0:
237,48,56202,1,0,0:0:0:0:
237,48,56310,1,0,0:0:0:0:
237,48,56419,1,8,0:0:0:0:
237,48,56528,1,0,0:0:0:0:
176,101,56636,1,8,0:0:0:0:
216,79,56745,1,8,0:0:0:0:
216,79,56854,1,0,0:0:0:0:
216,79,56963,1,0,0:0:0:0:
210,89,57071,1,0,0:0:0:0:
210,89,57180,1,0,0:0:0:0:
209,88,57289,1,8,0:0:0:0:
211,89,57397,1,8,0:0:0:0:
211,88,57506,1,8,0:0:0:0:
214,90,57615,1,8,0:0:0:0:
217,90,57723,1,0,0:0:0:0:
216,89,57832,1,0,0:0:0:0:
217,89,57941,1,0,0:0:0:0:
223,91,58049,1,0,0:0:0:0:
218,91,58158,1,8,0:0:0:0:
223,91,58267,1,0,0:0:0:0:
233,94,58376,1,8,0:0:0:0:
228,92,58484,1,8,0:0:0:0:
226,92,58593,1,0,0:0:0:0:
227,91,58702,1,0,0:0:0:0:
237,48,58810,1,0,0:0:0:0:
237,48,58919,1,0,0:0:0:0:
237,48,59028,1,8,0:0:0:0:
237,48,59136,1,8,0:0:0:0:
176,101,59245,1,8,0:0:0:0:
216,79,59354,1,8,0:0:0:0:
216,79,59463,1,0,0:0:0:0:
216,79,59571,1,0,0:0:0:0:
210,89,59680,1,12,0:0:0:0:
165,184,59897,1,0,0:0:0:0:
165,184,60115,1,8,0:0:0:0:
204,45,60332,1,4,0:0:0:0:
142,139,60549,1,0,0:0:0:0:
142,139,60767,1,8,0:0:0:0:
204,45,60984,1,12,0:0:0:0:
156,172,61202,1,0,0:0:0:0:
156,172,61419,1,8,0:0:0:0:
234,109,61636,1,12,0:0:0:0:
170,155,61854,1,8,0:0:0:0:
170,155,62071,1,8,0:0:0:0:
184,155,62289,1,0,0:0:0:0:
192,156,62506,1,8,0:0:0:0:
189,143,62723,1,8,0:0:0:0:
193,156,62941,1,0,0:0:0:0:
212,160,63158,5,0,0:0:0:0:
212,160,63267,1,8,0:0:0:0:
212,160,63376,1,0,0:0:0:0:
212,160,63484,1,8,0:0:0:0:
212,160,63593,1,8,0:0:0:0:
194,135,64897,1,8,0:0:0:0:
194,135,65115,1,8,0:0:0:0:
194,135,65332,1,8,0:0:0:0:
211,130,65441,1,0,0:0:0:0:
213,131,65549,1,0,0:0:0:0:
213,127,65658,1,8,0:0:0:0:
198,137,65767,1,0,0:0:0:0:
344,211,65984,1,0,0:0:0:0:
344,211,66057,1,8,0:0:0:0:
344,211,66129,1,8,0:0:0:0:
340,203,66202,1,8,0:0:0:0:
356,55,66310,1,8,0:0:0:0:
263,90,66419,1,0,0:0:0:0:
291,201,66636,1,4,0:0:0:0:
