osu file format v14

[General]
AudioFilename: audio.mp3
AudioLeadIn: 0
PreviewTime: 21734
Countdown: 0
SampleSet: Soft
StackLeniency: 0
Mode: 0
LetterboxInBreaks: 0
WidescreenStoryboard: 1

[Editor]
DistanceSpacing: 2.3
BeatDivisor: 6
GridSize: 16
TimelineZoom: 3.699999

[Metadata]
Title:Coconut Mall
TitleUnicode:ココナッツモール
Artist:Ohta Asuka, Nagamatsu Ryo
ArtistUnicode:太田あすか、永松亮
Creator:downpour
Version:Shimmering Linoleum Sands and Margarita Mix
Source:Mario Kart Wii
Tags:nintendo kokonattsu moru hayazaki ost platinum soundtrack video game instrumental jazz fanzhen0019 fanzhen blixys bakari riffy big chungus big_chungus frontier -_frontier_- celektus 太田あすか 永松亮 マリオカートWii
BeatmapID:2431627
BeatmapSetID:1063080

[Difficulty]
HPDrainRate:4.4
CircleSize:4
OverallDifficulty:9
ApproachRate:9.3
SliderMultiplier:3.2
SliderTickRate:1

[Events]
//Background and Video events
0,0,"kaffirlime.jpg",0,0
//Break Periods
//Storyboard Layer 0 (Background)
//Storyboard Layer 1 (Fail)
//Storyboard Layer 2 (Pass)
//Storyboard Layer 3 (Foreground)
//Storyboard Layer 4 (Overlay)
//Storyboard Sound Samples
Sample,6825,0,"soft-hitfinish2.wav",70
Sample,14552,0,"burst.wav",70
Sample,21825,0,"burst.wav",70
Sample,29325,0,"burst.wav",70
Sample,44325,0,"soft-hitfinish2.wav",70
Sample,72734,0,"burst.wav",70
Sample,80007,0,"burst.wav",70

[TimingPoints]
674,454.545454545455,4,2,1,30,1,0
6583,-333.333333333333,4,2,1,30,0,0
6961,-333.333333333333,4,2,1,35,0,0
6999,-333.333333333333,4,2,1,25,0,0
7037,-333.333333333333,4,2,1,35,0,0
7492,-66.6666666666667,4,2,1,50,0,0
7567,-66.6666666666667,4,2,1,25,0,0
7643,-66.6666666666667,4,2,1,35,0,0
7719,-66.6666666666667,4,2,1,45,0,0
7795,-66.6666666666667,4,2,1,55,0,0
7870,-66.6666666666667,4,2,1,60,0,0
7946,-66.6666666666667,4,2,1,70,0,0
8098,-66.6666666666667,4,2,1,5,0,0
8174,-133.333333333333,4,2,1,70,0,0
8325,-66.6666666666667,4,2,1,5,0,0
8401,-66.6666666666667,4,2,1,70,0,0
8552,-66.6666666666667,4,2,1,5,0,0
8628,-66.6666666666667,4,2,1,70,0,0
9386,-66.6666666666667,4,2,1,5,0,0
9537,-133.333333333333,4,2,1,70,0,0
9689,-66.6666666666667,4,2,1,5,0,0
9764,-133.333333333333,4,2,1,70,0,0
9916,-66.6666666666667,4,2,1,5,0,0
9992,-133.333333333333,4,2,1,70,0,0
10143,-66.6666666666667,4,2,1,5,0,0
10219,-133.333333333333,4,2,1,70,0,0
10370,-66.6666666666667,4,2,1,5,0,0
10446,-133.333333333333,4,2,1,70,0,0
10749,-66.6666666666667,4,2,1,5,0,0
10825,-133.333333333333,4,2,1,70,0,0
11280,-133.333333333333,4,2,1,70,0,0
11583,-66.6666666666667,4,2,1,70,0,0
11734,-66.6666666666667,4,2,1,5,0,0
11810,-133.333333333333,4,2,1,70,0,0
11961,-66.6666666666667,4,2,1,5,0,0
12037,-66.6666666666667,4,2,1,70,0,0
12189,-66.6666666666667,4,2,1,5,0,0
12264,-66.6666666666667,4,2,1,70,0,0
13022,-66.6666666666667,4,2,1,5,0,0
13174,-66.6666666666667,4,2,1,70,0,0
13249,-66.6666666666667,4,2,1,5,0,0
13401,-133.333333333333,4,2,1,70,0,0
13477,-66.6666666666667,4,2,1,5,0,0
13628,-133.333333333333,4,2,1,70,0,0
14461,-133.333333333333,4,2,1,70,0,0
14840,-66.6666666666667,4,2,1,70,0,0
15370,-66.6666666666667,4,2,1,5,0,0
15446,-133.333333333333,4,2,1,70,0,0
15598,-66.6666666666667,4,2,1,5,0,0
15674,-66.6666666666667,4,2,1,70,0,0
15825,-66.6666666666667,4,2,1,5,0,0
15901,-66.6666666666667,4,2,1,70,0,0
16658,-66.6666666666667,4,2,1,5,0,0
16810,-133.333333333333,4,2,1,70,0,0
16961,-66.6666666666667,4,2,1,5,0,0
17037,-133.333333333333,4,2,1,70,0,0
17189,-66.6666666666667,4,2,1,5,0,0
17264,-133.333333333333,4,2,1,70,0,0
17416,-66.6666666666667,4,2,1,5,0,0
17492,-133.333333333333,4,2,1,70,0,0
17643,-66.6666666666667,4,2,1,5,0,0
17719,-133.333333333333,4,2,1,70,0,0
18022,-66.6666666666667,4,2,1,5,0,0
18098,-133.333333333333,4,2,1,70,0,0
18477,-66.6666666666667,4,2,1,5,0,0
18552,-133.333333333333,4,2,1,70,0,0
18780,-66.6666666666667,4,2,1,5,0,0
18855,-133.333333333333,4,2,1,70,0,0
18931,-66.6666666666667,4,2,1,5,0,0
19083,-133.333333333333,4,2,1,70,0,0
19234,-66.6666666666667,4,2,1,5,0,0
19310,-263.157894736842,4,2,1,70,0,0
19461,-66.6666666666667,4,2,1,5,0,0
19537,-133.333333333333,4,2,1,70,0,0
19840,-66.6666666666667,4,2,1,5,0,0
19916,-133.333333333333,4,2,1,70,0,0
20295,-66.6666666666667,4,2,1,5,0,0
20370,-133.333333333333,4,2,1,70,0,0
20825,-66.6666666666667,4,2,1,5,0,0
20901,-133.333333333333,4,2,1,70,0,0
20977,-133.333333333333,4,2,1,5,0,0
21128,-133.333333333333,4,2,1,70,0,0
21658,-66.6666666666667,4,2,1,5,0,0
21734,-133.333333333333,4,2,1,70,0,0
22492,-40,4,2,1,70,0,1
22643,-66.6666666666667,4,2,1,5,0,1
22719,-133.333333333333,4,2,1,70,0,1
22870,-66.6666666666667,4,2,1,5,0,1
22946,-40,4,2,1,70,0,1
23098,-66.6666666666667,4,2,1,5,0,1
23174,-40,4,2,1,70,0,1
23325,-66.6666666666667,4,2,1,70,0,1
23931,-66.6666666666667,4,2,1,5,0,1
24083,-133.333333333333,4,2,1,70,0,1
24234,-66.6666666666667,4,2,1,5,0,1
24310,-133.333333333333,4,2,1,70,0,1
24461,-66.6666666666667,4,2,1,5,0,1
24537,-133.333333333333,4,2,1,70,0,1
24689,-66.6666666666667,4,2,1,5,0,1
24764,-133.333333333333,4,2,1,70,0,1
24916,-66.6666666666667,4,2,1,5,0,1
24992,-133.333333333333,4,2,1,70,0,1
25295,-66.6666666666667,4,2,1,5,0,1
25370,-133.333333333333,4,2,1,70,0,1
25749,-66.6666666666667,4,2,1,5,0,1
25825,-133.333333333333,4,2,1,70,0,1
26128,-40,4,2,1,70,0,1
26280,-66.6666666666667,4,2,1,5,0,1
26355,-133.333333333333,4,2,1,70,0,1
26507,-66.6666666666667,4,2,1,5,0,1
26583,-40,4,2,1,70,0,1
26734,-66.6666666666667,4,2,1,5,0,1
26810,-40,4,2,1,70,0,1
26961,-66.6666666666667,4,2,1,70,0,1
27567,-66.6666666666667,4,2,1,5,0,1
27719,-133.333333333333,4,2,1,70,0,1
27870,-66.6666666666667,4,2,1,5,0,1
27946,-133.333333333333,4,2,1,70,0,1
28022,-66.6666666666667,4,2,1,5,0,1
28174,-133.333333333333,4,2,1,70,0,1
28931,-66.6666666666667,4,2,1,5,0,1
29007,-133.333333333333,4,2,1,70,0,1
29764,-50,4,2,1,50,0,0
29916,-66.6666666666667,4,2,1,5,0,0
29992,-100,4,2,1,50,0,0
30067,-66.6666666666667,4,2,1,5,0,0
30143,-50,4,2,1,50,0,0
30295,-66.6666666666667,4,2,1,5,0,0
30370,-100,4,2,1,50,0,0
30446,-66.6666666666667,4,2,1,5,0,0
30598,-50,4,2,1,50,0,0
30749,-66.6666666666667,4,2,1,5,0,0
30825,-50,4,2,1,50,0,0
30977,-66.6666666666667,4,2,1,5,0,0
31052,-50,4,2,1,50,0,0
31090,-66.6666666666667,4,2,1,5,0,0
31128,-50,4,2,1,50,0,0
31355,-100,4,2,1,50,0,0
31431,-66.6666666666667,4,2,1,5,0,0
31583,-50,4,2,1,50,0,0
31734,-66.6666666666667,4,2,1,5,0,0
31810,-100,4,2,1,50,0,0
31886,-66.6666666666667,4,2,1,5,0,0
31961,-50,4,2,1,50,0,0
32113,-66.6666666666667,4,2,1,5,0,0
32189,-100,4,2,1,50,0,0
32264,-66.6666666666667,4,2,1,5,0,0
32416,-50,4,2,1,50,0,0
32567,-66.6666666666667,4,2,1,5,0,0
32643,-100,4,2,1,50,0,0
32946,-50,4,2,1,50,0,0
33098,-66.6666666666667,4,2,1,5,0,0
33174,-50,4,2,1,50,0,0
33325,-66.6666666666667,4,2,1,5,0,0
33401,-50,4,2,1,50,0,0
33552,-66.6666666666667,4,2,1,5,0,0
33628,-50,4,2,1,50,0,0
33780,-66.6666666666667,4,2,1,5,0,0
33855,-50,4,2,1,50,0,0
34386,-66.6666666666667,4,2,1,5,0,0
34461,-50,4,2,1,50,0,0
34537,-100,4,2,1,50,0,0
34916,-50,4,2,1,50,0,0
35067,-66.6666666666667,4,2,1,5,0,0
35143,-50,4,2,1,50,0,0
35370,-66.6666666666667,4,2,1,5,0,0
35446,-100,4,2,1,50,0,0
35522,-66.6666666666667,4,2,1,5,0,0
35598,-100,4,2,1,50,0,0
35749,-66.6666666666667,4,2,1,5,0,0
35825,-100,4,2,1,50,0,0
35977,-66.6666666666667,4,2,1,5,0,0
36052,-50,4,2,1,50,0,0
36204,-66.6666666666667,4,2,1,5,0,0
36280,-50,4,2,1,50,0,0
36431,-66.6666666666667,4,2,1,5,0,0
36507,-50,4,2,1,50,0,0
37189,-66.6666666666667,4,2,1,5,0,0
37264,-100,4,2,1,50,0,0
37340,-66.6666666666667,4,2,1,5,0,0
37416,-50,4,2,1,50,0,0
37567,-66.6666666666667,4,2,1,5,0,0
37643,-100,4,2,1,50,0,0
37870,-50,4,2,1,50,0,0
38022,-66.6666666666667,4,2,1,5,0,0
38098,-50,4,2,1,50,0,0
38249,-66.6666666666667,4,2,1,5,0,0
38325,-50,4,2,1,50,0,0
38363,-66.6666666666667,4,2,1,5,0,0
38401,-50,4,2,1,50,0,0
38628,-50,4,2,1,50,0,0
38666,-66.6666666666667,4,2,1,5,0,0
38704,-50,4,2,1,50,0,0
38742,-66.6666666666667,4,2,1,5,0,0
38780,-50,4,2,1,50,0,0
38817,-66.6666666666667,4,2,1,5,0,0
38855,-50,4,2,1,50,0,0
39007,-66.6666666666667,4,2,1,5,0,0
39083,-100,4,2,1,50,0,0
39158,-66.6666666666667,4,2,1,5,0,0
39234,-50,4,2,1,50,0,0
39386,-66.6666666666667,4,2,1,5,0,0
39461,-100,4,2,1,50,0,0
39537,-66.6666666666667,4,2,1,5,0,0
39689,-50,4,2,1,50,0,0
39840,-66.6666666666667,4,2,1,5,0,0
39916,-50,4,2,1,50,0,0
39992,-100,4,2,1,50,0,0
40067,-66.6666666666667,4,2,1,5,0,0
40143,-100,4,2,1,50,0,0
40219,-50,4,2,1,50,0,0
40598,-66.6666666666667,4,2,1,5,0,0
40674,-50,4,2,1,50,0,0
40825,-66.6666666666667,4,2,1,5,0,0
40901,-50,4,2,1,50,0,0
41052,-66.6666666666667,4,2,1,5,0,0
41128,-50,4,2,1,50,0,0
41280,-66.6666666666667,4,2,1,5,0,0
41355,-50,4,2,1,50,0,0
41658,-66.6666666666667,4,2,1,5,0,0
41734,-50,4,2,1,50,0,0
41810,-100,4,2,1,50,0,0
41886,-66.6666666666667,4,2,1,5,0,0
41961,-100,4,2,1,50,0,0
42340,-66.6666666666667,4,2,1,5,0,0
42416,-100,4,2,1,50,0,0
42776,-50,4,2,1,50,0,0
42804,-66.6666666666667,4,2,1,5,0,0
42833,-50,4,2,1,50,0,0
42861,-66.6666666666667,4,2,1,5,0,0
42889,-50,4,2,1,50,0,0
42918,-66.6666666666667,4,2,1,5,0,0
42946,-50,4,2,1,50,0,0
42975,-66.6666666666667,4,2,1,5,0,0
43098,-200,4,2,1,50,0,0
43249,-66.6666666666667,4,2,1,5,0,0
43325,-50,4,2,1,50,0,0
43477,-66.6666666666667,4,2,1,5,0,0
43552,-50,4,2,1,50,0,0
43590,-66.6666666666667,4,2,1,5,0,0
43628,-50,4,2,1,50,0,0
43666,-66.6666666666667,4,2,1,5,0,0
43780,-50,4,2,1,50,0,0
44310,-250,4,2,1,50,0,0
44461,-66.6666666666667,4,2,1,5,0,0
44537,-250,4,2,1,50,0,0
44689,-66.6666666666667,4,2,1,5,0,0
44764,-125,4,2,1,50,0,0
44840,-66.6666666666667,4,2,1,5,0,0
44916,-125,4,2,1,50,0,0
44992,-66.6666666666667,4,2,1,5,0,0
45143,-125,4,2,1,50,0,0
45295,-66.6666666666667,4,2,1,5,0,0
45370,-125,4,2,1,50,0,0
45522,-66.6666666666667,4,2,1,5,0,0
45598,-125,4,2,1,50,0,0
45749,-66.6666666666667,4,2,1,5,0,0
45825,-125,4,2,1,50,0,0
45901,-125,4,2,1,50,0,0
45977,-66.6666666666667,4,2,1,5,0,0
46128,-250,4,2,1,50,0,0
46280,-66.6666666666667,4,2,1,5,0,0
46355,-250,4,2,1,50,0,0
46507,-66.6666666666667,4,2,1,5,0,0
46583,-232.558139534884,4,2,1,50,0,0
47946,-93.4579439252336,4,2,1,50,0,0
48628,-50,4,2,1,50,0,0
48780,-66.6666666666667,4,2,1,5,0,0
48855,-93.4579439252336,4,2,1,50,0,0
49537,-200,4,2,1,50,0,0
49689,-66.6666666666667,4,2,1,5,0,0
49764,-50,4,2,1,50,0,0
49916,-66.6666666666667,4,2,1,5,0,0
49992,-200,4,2,1,50,0,0
50219,-50,4,2,1,50,0,0
50446,-200,4,2,1,50,0,0
51128,-93.8080967335281,4,2,1,50,0,0
51280,-66.6666666666667,4,2,1,5,0,0
51355,-93.8080967335281,4,2,1,50,0,0
51507,-66.6666666666667,4,2,1,5,0,0
51583,-93.8080967335281,4,2,1,50,0,0
52264,-50,4,2,1,50,0,0
52416,-66.6666666666667,4,2,1,5,0,0
52492,-93.8080967335281,4,2,1,50,0,0
53174,-200,4,2,1,50,0,0
53325,-66.6666666666667,4,2,1,5,0,0
53401,-50,4,2,1,50,0,0
53552,-66.6666666666667,4,2,1,5,0,0
53628,-200,4,2,1,50,0,0
53780,-66.6666666666667,4,2,1,5,0,0
53855,-50,4,2,1,50,0,0
54083,-200,4,2,1,50,0,0
54310,-141.40035986154,4,2,1,50,0,0
54537,-66.6666666666667,4,2,1,5,0,0
54613,-141.40035986154,4,2,1,50,0,0
54992,-100,4,2,1,50,0,0
55067,-66.6666666666667,4,2,1,5,0,0
55143,-100,4,2,1,50,0,0
55219,-50,4,2,1,50,0,0
55408,-66.6666666666667,4,2,1,5,0,0
55446,-100,4,2,1,50,0,0
55522,-66.6666666666667,4,2,1,5,0,0
55674,-100,4,2,1,50,0,0
55749,-66.6666666666667,4,2,1,5,0,0
55901,-100,4,2,1,50,0,0
55977,-66.6666666666667,4,2,1,5,0,0
56052,-50,4,2,1,50,0,0
56242,-66.6666666666667,4,2,1,5,0,0
56280,-100,4,2,1,50,0,0
56355,-66.6666666666667,4,2,1,5,0,0
56507,-100,4,2,1,50,0,0
56583,-57.4153172451772,4,2,1,50,0,0
57037,-50,4,2,1,50,0,0
57227,-66.6666666666667,4,2,1,5,0,0
57264,-100,4,2,1,50,0,0
57340,-66.6666666666667,4,2,1,5,0,0
57416,-100,4,2,1,50,0,0
57567,-66.6666666666667,4,2,1,5,0,0
57719,-100,4,2,1,50,0,0
57795,-66.6666666666667,4,2,1,5,0,0
57870,-50,4,2,1,50,0,0
58060,-66.6666666666667,4,2,1,5,0,0
58098,-39.5256916996047,4,2,1,50,0,0
58249,-66.6666666666667,4,2,1,5,0,0
58325,-39.5256916996047,4,2,1,50,0,0
58552,-66.6666666666667,4,2,1,5,0,0
58628,-39.5256916996047,4,2,1,50,0,0
58855,-57.3836037983497,4,2,1,50,0,0
59310,-60.2860747781348,4,2,1,50,0,0
59537,-66.6666666666667,4,2,1,5,0,0
59689,-57.3836037983497,4,2,1,50,0,0
59992,-100,4,2,1,50,0,0
60067,-66.6666666666667,4,2,1,5,0,0
60219,-38.2557358655665,4,2,1,50,0,0
60674,-57.3836037983497,4,2,1,50,0,0
61128,-60.372795034106,4,2,1,50,0,0
61507,-38.4048530508608,4,2,1,50,0,0
61658,-66.6666666666667,4,2,1,5,0,0
61734,-100,4,2,1,50,0,0
61810,-66.6666666666667,4,2,1,5,0,0
61961,-100,4,2,1,50,0,0
62037,-38.2557358655665,4,2,1,50,0,0
62264,-100,4,2,1,50,0,0
62340,-100,4,2,1,5,0,0
62492,-66.9259843853276,4,2,1,50,0,0
62643,-66.6666666666667,4,2,1,5,0,0
62719,-66.9259843853276,4,2,1,50,0,0
62870,-66.6666666666667,4,2,1,5,0,0
62946,-66.9259843853276,4,2,1,50,0,0
63098,-66.6666666666667,4,2,1,5,0,0
63174,-136.572671928422,4,2,1,50,0,0
63249,-66.6666666666667,4,2,1,5,0,0
63325,-66.9259843853276,4,2,1,50,0,0
63477,-66.6666666666667,4,2,1,5,0,0
63552,-66.9259843853276,4,2,1,50,0,0
63704,-66.6666666666667,4,2,1,5,0,0
63780,-66.6666666666667,4,2,1,50,0,0
63817,-66.6666666666667,4,2,1,5,0,0
63855,-66.4799539925638,4,2,1,50,0,0
64083,-66.9259843853276,4,2,1,50,0,0
64234,-66.6666666666667,4,2,1,5,0,0
64310,-46.7289719626168,4,2,1,50,0,0
64386,-66.6666666666667,4,2,1,5,0,0
64461,-46.7289719626168,4,2,1,50,0,0
64689,-66.6666666666667,4,2,1,50,0,0
64727,-66.6666666666667,4,2,1,5,0,0
64764,-46.7289719626168,4,2,1,50,0,0
64840,-66.6666666666667,4,2,1,5,0,0
64916,-46.7289719626168,4,2,1,50,0,0
65143,-66.6666666666667,4,2,1,50,0,0
65181,-66.6666666666667,4,2,1,5,0,0
65219,-66.6666666666667,4,2,1,50,0,0
66128,-40,4,2,1,70,0,0
66280,-66.6666666666667,4,2,1,5,0,0
66355,-133.333333333333,4,2,1,70,0,0
66507,-66.6666666666667,4,2,1,5,0,0
66583,-40,4,2,1,70,0,0
66734,-66.6666666666667,4,2,1,5,0,0
66810,-40,4,2,1,70,0,0
66961,-66.6666666666667,4,2,1,70,0,0
67567,-66.6666666666667,4,2,1,5,0,0
67719,-133.333333333333,4,2,1,70,0,0
67870,-66.6666666666667,4,2,1,5,0,0
67946,-133.333333333333,4,2,1,70,0,0
68098,-66.6666666666667,4,2,1,5,0,0
68174,-133.333333333333,4,2,1,70,0,0
68325,-66.6666666666667,4,2,1,5,0,0
68401,-133.333333333333,4,2,1,70,0,0
68552,-66.6666666666667,4,2,1,5,0,0
68628,-133.333333333333,4,2,1,70,0,0
68931,-66.6666666666667,4,2,1,5,0,0
69007,-133.333333333333,4,2,1,70,0,0
69386,-66.6666666666667,4,2,1,5,0,0
69461,-133.333333333333,4,2,1,70,0,0
69764,-40,4,2,1,70,0,0
69916,-66.6666666666667,4,2,1,5,0,0
69992,-133.333333333333,4,2,1,70,0,0
70143,-66.6666666666667,4,2,1,5,0,0
70219,-40,4,2,1,70,0,0
70370,-66.6666666666667,4,2,1,5,0,0
70446,-40,4,2,1,70,0,0
70598,-66.6666666666667,4,2,1,70,0,0
71204,-66.6666666666667,4,2,1,5,0,0
71355,-66.6666666666667,4,2,1,70,0,0
71431,-66.6666666666667,4,2,1,5,0,0
71583,-133.333333333333,4,2,1,70,0,0
71658,-133.333333333333,4,2,1,5,0,0
71810,-133.333333333333,4,2,1,70,0,0
72567,-66.6666666666667,4,2,1,5,0,0
72643,-133.333333333333,4,2,1,70,0,0
73401,-40,4,2,1,70,0,0
73552,-66.6666666666667,4,2,1,5,0,0
73628,-133.333333333333,4,2,1,70,0,0
73780,-66.6666666666667,4,2,1,5,0,0
73855,-40,4,2,1,70,0,0
74007,-66.6666666666667,4,2,1,5,0,0
74083,-40,4,2,1,70,0,0
74234,-66.6666666666667,4,2,1,70,0,0
74840,-66.6666666666667,4,2,1,5,0,0
74992,-133.333333333333,4,2,1,70,0,0
75143,-66.6666666666667,4,2,1,5,0,0
75219,-133.333333333333,4,2,1,70,0,0
75370,-66.6666666666667,4,2,1,5,0,0
75446,-133.333333333333,4,2,1,70,0,0
75598,-66.6666666666667,4,2,1,5,0,0
75674,-133.333333333333,4,2,1,70,0,0
75825,-66.6666666666667,4,2,1,5,0,0
75901,-133.333333333333,4,2,1,70,0,0
76204,-66.6666666666667,4,2,1,5,0,0
76280,-133.333333333333,4,2,1,70,0,0
76658,-66.6666666666667,4,2,1,5,0,0
76734,-133.333333333333,4,2,1,70,0,0
76961,-66.6666666666667,4,2,1,5,0,0
77037,-133.333333333333,4,2,1,70,0,0
77113,-66.6666666666667,4,2,1,5,0,0
77264,-133.333333333333,4,2,1,70,0,0
77416,-66.6666666666667,4,2,1,5,0,0
77492,-133.333333333333,4,2,1,70,0,0
77567,-66.6666666666667,4,2,1,5,0,0
77719,-133.333333333333,4,2,1,70,0,0
78022,-66.6666666666667,4,2,1,5,0,0
78098,-133.333333333333,4,2,1,70,0,0
78477,-66.6666666666667,4,2,1,5,0,0
78552,-133.333333333333,4,2,1,70,0,0
79007,-66.6666666666667,4,2,1,5,0,0
79083,-133.333333333333,4,2,1,70,0,0
79158,-66.6666666666667,4,2,1,5,0,0
79310,-133.333333333333,4,2,1,70,0,0
79840,-66.6666666666667,4,2,1,5,0,0
79916,-133.333333333333,4,2,1,70,0,0
80674,-40,4,2,1,70,0,1
80825,-66.6666666666667,4,2,1,5,0,1
80901,-133.333333333333,4,2,1,70,0,1
81052,-66.6666666666667,4,2,1,5,0,1
81128,-40,4,2,1,70,0,1
81280,-66.6666666666667,4,2,1,5,0,1
81355,-40,4,2,1,70,0,1
81507,-66.6666666666667,4,2,1,70,0,1
81734,-33.3333333333333,4,2,1,70,0,1
82113,-33.3333333333333,4,2,1,5,0,1
82264,-133.333333333333,4,2,1,70,0,1
82416,-66.6666666666667,4,2,1,5,0,1
82492,-40,4,2,1,70,0,1
82643,-66.6666666666667,4,2,1,5,0,1
82719,-133.333333333333,4,2,1,70,0,1
82870,-66.6666666666667,4,2,1,5,0,1
82946,-40,4,2,1,70,0,1
83098,-66.6666666666667,4,2,1,5,0,1
83174,-133.333333333333,4,2,1,70,0,1
83477,-66.6666666666667,4,2,1,5,0,1
83552,-133.333333333333,4,2,1,70,0,1
84310,-40,4,2,1,70,0,1
84461,-66.6666666666667,4,2,1,5,0,1
84537,-133.333333333333,4,2,1,70,0,1
84689,-66.6666666666667,4,2,1,5,0,1
84764,-40,4,2,1,70,0,1
84916,-66.6666666666667,4,2,1,5,0,1
84992,-40,4,2,1,70,0,1
85143,-66.6666666666667,4,2,1,70,0,1
85370,-33.3333333333333,4,2,1,70,0,1
85749,-33.3333333333333,4,2,1,5,0,1
85901,-133.333333333333,4,2,1,70,0,1
86052,-66.6666666666667,4,2,1,5,0,1
86128,-133.333333333333,4,2,1,70,0,1
86204,-66.6666666666667,4,2,1,5,0,1
86355,-133.333333333333,4,2,1,70,0,1
87113,-66.6666666666667,4,2,1,5,0,1
87189,-133.333333333333,4,2,1,70,0,1
87492,-133.333333333333,4,2,1,70,0,0
88401,-133.333333333333,4,2,1,65,0,0
88855,-133.333333333333,4,2,1,60,0,0
89310,-133.333333333333,4,2,1,55,0,0
89764,-133.333333333333,4,2,1,50,0,0
90219,-133.333333333333,4,2,1,45,0,0
90674,-133.333333333333,4,2,1,40,0,0
91128,-133.333333333333,4,2,1,35,0,0
91583,-133.333333333333,4,2,1,30,0,0
92037,-133.333333333333,4,2,1,25,0,0
92492,-133.333333333333,4,2,1,20,0,0
92946,-133.333333333333,4,2,1,15,0,0
93401,-133.333333333333,4,2,1,10,0,0
93855,-133.333333333333,4,2,1,5,0,0

[Colours]
Combo1 : 255,164,246
Combo2 : 109,69,245
Combo3 : 107,198,245
Combo4 : 245,189,153

[HitObjects]
101,38,674,53,2,0:2:0:0:
443,0,901,1,2,0:2:0:0:
346,74,1014,1,2,0:2:0:0:
512,41,1242,1,2,0:2:0:0:
450,122,1469,1,2,0:2:0:0:
443,0,1696,1,2,0:2:0:0:
450,122,1924,1,2,0:2:0:0:
346,74,2037,1,2,0:2:0:0:
450,122,2264,1,2,0:2:0:0:
10,129,2492,5,2,0:2:0:0:
352,91,2719,1,2,0:2:0:0:
255,165,2833,1,2,0:2:0:0:
421,132,3060,1,2,0:2:0:0:
359,213,3287,1,2,0:2:0:0:
352,91,3514,1,2,0:2:0:0:
359,213,3742,1,2,0:2:0:0:
255,165,3855,1,10,0:2:0:0:
359,213,4083,1,2,0:2:0:0:
91,196,4310,5,2,0:2:0:0:
433,158,4537,1,2,0:2:0:0:
336,232,4651,1,2,0:2:0:0:
502,199,4878,1,2,0:2:0:0:
440,280,5105,1,2,0:2:0:0:
433,158,5333,1,2,0:2:0:0:
440,280,5560,1,2,0:2:0:0:
336,232,5674,1,10,0:2:0:0:
440,280,5901,1,2,0:2:0:0:
75,329,6128,5,2,0:2:0:0:
417,291,6355,1,2,0:2:0:0:
320,365,6469,1,2,0:2:0:0:
448,88,6583,2,0,L|381:82,1,48.0575985351564,2|0,0:3|0:0,0:0:0:0:
82,301,6961,5,0,1:0:0:0:
75,295,6999,1,0,1:0:0:0:
49,286,7037,1,0,1:0:0:0:
417,257,7189,1,0,1:0:0:0:
410,334,7492,6,0,P|423:285|399:229,1,80.800003051758,0|0,1:0|1:0,0:0:0:0:
410,263,7643,5,0,1:0:0:0:
386,209,7719,1,0,1:0:0:0:
380,149,7795,1,0,1:0:0:0:
392,91,7870,1,0,1:0:0:0:
422,39,7946,6,0,P|346:59|260:22,1,160.544006103516,2|0,3:2|0:0,0:0:0:0:
168,81,8174,2,0,P|199:105|238:113,1,80.272003051758,2|0,1:2|0:0,0:0:0:0:
147,181,8401,2,0,P|91:125|80:32,1,160.544006103516,2|0,3:2|0:0,0:0:0:0:
84,40,8628,1,0,1:0:0:0:
245,105,8780,6,0,P|256:147|235:196,1,80.800003051758,2|0,0:2|3:0,0:0:0:0:
236,189,9007,2,0,P|226:150|237:112,1,80.800003051758,2|0,0:2|1:0,0:0:0:0:
428,73,9234,1,2,0:2:0:0:
356,27,9310,2,0,P|384:53|422:63,1,80.800003051758,0|0,3:2|0:0,0:0:0:0:
245,105,9537,6,0,P|256:147|235:196,1,80.272003051758,2|0,1:2|0:0,0:0:0:0:
275,331,9764,2,0,P|236:308|217:259,1,80.272003051758,2|0,3:2|0:0,0:0:0:0:
234,112,9992,6,0,P|245:154|224:203,1,80.272003051758,2|0,1:2|0:0,0:0:0:0:
264,338,10219,2,0,P|225:315|206:266,1,80.272003051758,2|0,3:2|0:0,0:0:0:0:
223,119,10446,6,0,P|234:161|213:210,1,80.272003051758,2|0,1:2|0:0,0:0:0:0:
101,237,10674,2,0,P|64:236|32:210,1,40.400001525879,2|0,3:2|0:0,0:0:0:0:
143,152,10825,1,2,0:2:0:0:
58,226,10901,1,2,1:2:0:0:
112,79,11052,2,0,P|142:109|148:162,1,80.272003051758,2|0,0:2|0:0,0:0:0:0:
223,119,11280,5,0,1:0:0:0:
230,113,11355,1,2,1:3:0:0:
203,225,11583,6,0,P|278:204|334:129,1,160.544006103516,2|0,3:2|0:0,0:0:0:0:
443,134,11810,2,0,P|428:170|398:196,1,80.0000030517579,2|0,1:2|0:0,0:0:0:0:
326,268,12037,2,0,P|402:288|488:251,1,161.600006103516,2|0,3:2|0:0,0:0:0:0:
471,252,12264,1,0,1:0:0:0:
321,151,12416,6,0,P|310:109|331:60,1,80.800003051758,2|0,0:2|3:0,0:0:0:0:
330,67,12643,2,0,P|340:106|329:144,1,80.800003051758,2|0,0:2|1:0,0:0:0:0:
155,302,12870,1,2,0:2:0:0:
243,297,12946,2,0,P|205:306|167:295,1,80.800003051758,2|0,3:2|0:0,0:0:0:0:
330,67,13174,6,0,P|341:109|320:158,1,80.800003051758,2|0,1:2|0:0,0:0:0:0:
158,70,13401,2,0,P|126:87|86:81,1,40.928001525879,2|0,3:2|0:0,0:0:0:0:
203,225,13628,2,0,P|192:183|213:134,1,80.272003051758,2|0,1:2|1:2,0:0:0:0:
302,154,13855,2,0,P|283:184|245:199,1,40.400001525879,2|0,3:2|0:0,0:0:0:0:
388,226,14007,1,2,1:2:0:0:
281,196,14083,1,2,0:2:0:0:
380,308,14234,2,0,P|391:266|370:217,1,80.272003051758,2|0,0:2|0:0,0:0:0:0:
468,246,14461,5,0,1:0:0:0:
475,240,14537,1,0,1:0:0:0:
97,287,14764,1,0,1:0:0:0:
105,295,14840,5,2,1:2:0:0:
147,252,14916,1,2,1:2:0:0:
175,199,14992,1,2,1:2:0:0:
184,140,15067,1,0,1:0:0:0:
175,81,15143,1,0,1:0:0:0:
159,25,15219,6,0,P|234:46|290:121,1,160.544006103516,2|0,3:2|0:0,0:0:0:0:
326,187,15446,2,0,P|288:196|250:185,1,80.272003051758,2|0,1:2|0:0,0:0:0:0:
159,359,15674,2,0,P|234:338|290:263,1,160.544006103516,2|0,3:2|0:0,0:0:0:0:
277,270,15901,1,0,1:0:0:0:
141,197,16052,6,0,P|180:187|218:198,1,80.800003051758,2|0,0:2|3:0,0:0:0:0:
326,187,16280,2,0,P|288:196|250:185,1,80.800003051758,2|0,0:2|1:0,0:0:0:0:
412,47,16507,1,2,0:2:0:0:
420,130,16583,2,0,P|408:92|418:53,1,80.800003051758,2|0,3:2|0:0,0:0:0:0:
255,192,16810,6,0,P|297:181|346:202,1,80.272003051758,2|0,1:2|0:0,0:0:0:0:
496,153,17037,2,0,P|473:192|424:211,1,80.272003051758,2|0,3:2|0:0,0:0:0:0:
261,200,17264,6,0,P|303:189|352:210,1,80.272003051758,2|0,1:2|0:0,0:0:0:0:
503,274,17492,2,0,P|480:235|431:216,1,80.272003051758,2|0,3:2|0:0,0:0:0:0:
267,208,17719,6,0,P|309:197|358:218,1,80.272003051758,2|0,1:2|0:0,0:0:0:0:
233,332,17946,2,0,P|252:363|290:378,1,40.400001525879,2|0,3:2|0:0,0:0:0:0:
313,271,18098,1,2,0:2:0:0:
261,357,18174,1,2,1:2:0:0:
393,279,18325,2,0,P|351:290|302:269,1,80.272003051758,2|0,0:2|0:0,0:0:0:0:
476,323,18552,5,0,1:0:0:0:
483,314,18628,6,0,P|494:272|473:223,1,80.272003051758,2|0,1:3|0:0,0:0:0:0:
246,118,18855,2,0,P|264:149|302:164,1,40.928001525879,2|0,3:2|0:0,0:0:0:0:
469,238,19083,2,0,P|480:280|459:329,1,79.744003051758,2|0,1:2|0:0,0:0:0:0:
362,303,19310,2,0,P|379:293|392:278,1,40.6711461718751,2|0,3:2|0:0,0:0:0:0:
400,189,19537,2,0,P|360:193|328:217,1,80.272003051758,2|0,1:2|0:0,0:0:0:0:
217,145,19764,6,0,P|224:126|238:112,1,40.400001525879,2|0,3:2|0:0,0:0:0:0:
322,209,19916,1,2,0:2:0:0:
246,118,19992,1,2,1:2:0:0:
361,40,20143,2,0,P|360:83|327:125,1,80.272003051758,2|0,0:2|0:0,0:0:0:0:
330,118,20370,5,2,1:2:0:0:
36,30,20598,5,2,0:2:0:0:
43,114,20674,2,0,P|32:75|42:37,1,80.272003051758,2|0,3:2|0:0,0:0:0:0:
256,75,20901,2,0,P|244:91|227:101,1,40.400001525879,2|0,1:2|0:0,0:0:0:0:
50,44,21128,5,2,3:2:0:0:
221,93,21242,5,2,1:2:0:0:
68,212,21507,6,0,P|105:189|124:140,1,80.272003051758,2|0,0:2|0:0,0:0:0:0:
188,261,21734,5,0,1:0:0:0:
181,255,21810,1,0,3:0:0:0:
502,220,22037,1,0,1:0:0:0:
512,215,22113,5,0,1:0:0:0:
505,156,22189,1,0,1:0:0:0:
481,101,22264,1,2,1:2:0:0:
441,57,22340,1,2,1:2:0:0:
389,27,22416,1,2,1:2:0:0:
329,17,22492,6,0,P|192:31|87:119,1,267.573333333334,2|0,3:2|0:0,0:0:0:0:
100,316,22719,2,0,P|127:282|128:229,1,80.272003051758,10|0,1:2|0:0,0:0:0:0:
94,121,22946,2,0,P|198:40|329:29,1,267.573333333334,2|0,3:2|0:0,0:0:0:0:
137,253,23174,1,8,1:2:0:0:
395,356,23325,6,0,P|368:322|367:269,1,80.800003051758,2|0,0:2|3:0,0:0:0:0:
400,349,23552,2,0,P|373:315|372:262,1,80.800003051758,2|8,0:2|1:2,0:0:0:0:
137,254,23780,1,2,0:2:0:0:
220,259,23855,2,0,P|182:271|143:261,1,81.856003051758,2|0,3:2|0:0,0:0:0:0:
75,96,24083,6,0,P|64:138|85:187,1,80.272003051758,8|0,1:2|0:0,0:0:0:0:
38,377,24310,2,0,P|77:354|96:305,1,80.272003051758,2|0,3:2|0:0,0:0:0:0:
86,103,24537,6,0,P|75:145|96:194,1,80.800003051758,10|0,1:2|0:0,0:0:0:0:
49,384,24764,2,0,P|88:361|107:312,1,80.800003051758,2|0,3:2|0:0,0:0:0:0:
97,110,24992,6,0,P|86:152|107:201,1,80.272003051758,10|0,1:2|0:0,0:0:0:0:
149,342,25219,2,0,P|118:323|103:285,1,40.400001525879,2|0,3:2|0:0,0:0:0:0:
234,254,25370,1,2,0:2:0:0:
122,312,25446,1,14,1:2:0:0:
225,171,25598,2,0,P|236:213|215:262,1,79.744003051758,2|0,0:2|0:0,0:0:0:0:
364,143,25825,5,0,1:0:0:0:
356,138,25901,1,2,1:3:0:0:
512,64,26128,6,0,P|498:201|410:306,1,269.333333333334,2|0,3:2|0:0,0:0:0:0:
316,65,26355,2,0,P|343:99|344:152,1,80.800003051758,10|0,1:2|0:0,0:0:0:0:
408,299,26583,2,0,P|489:195|500:64,1,267.573333333334,2|0,3:2|0:0,0:0:0:0:
332,217,26810,1,8,1:2:0:0:
332,131,26961,6,0,P|293:137|263:163,1,80.800003051758,2|0,0:2|3:0,0:0:0:0:
325,126,27189,2,0,P|286:132|256:158,1,80.800003051758,2|8,0:2|1:2,0:0:0:0:
367,371,27416,1,2,0:2:0:0:
451,364,27492,2,0,P|413:376|374:366,1,80.800003051758,2|0,3:2|0:0,0:0:0:0:
306,44,27719,6,0,P|324:83|311:135,1,80.272003051758,10|0,1:2|0:0,0:0:0:0:
133,293,27946,2,0,P|145:259|180:237,1,40.928001525879,2|0,3:2|0:0,0:0:0:0:
328,188,28174,2,0,P|309:148|322:96,1,79.744003051758,10|2,1:2|1:2,0:0:0:0:
100,225,28401,2,0,P|132:238|154:273,1,40.400001525879,2|0,3:2|0:0,0:0:0:0:
164,130,28552,1,2,1:2:0:0:
140,250,28628,1,10,0:2:0:0:
239,110,28780,2,0,P|195:106|151:135,1,79.744003051758,2|0,0:2|0:0,0:0:0:0:
83,334,29007,5,8,1:2:0:0:
75,329,29083,1,4,1:2:0:0:
417,291,29234,5,8,0:2:0:0:
425,296,29310,1,12,1:2:0:0:
71,54,29461,5,0,1:0:0:0:
89,72,29537,1,2,1:2:0:0:
102,71,29613,5,2,0:2:0:0:
117,69,29689,1,2,0:2:0:0:
132,67,29764,2,0,B|195:59|195:59|213:73|215:89|249:100|219:120|221:136|207:154|207:154|143:162,1,214.058666666667,2|0,3:2|0:0,0:0:0:0:
153,161,29992,2,0,L|163:248,1,53.8666666666667,2|0,0:2|0:0,0:0:0:0:
144,216,30143,2,0,B|105:220|105:220|91:238|93:254|63:274|97:286|99:302|117:315|117:315|180:308,1,214.058666666667,2|0,0:2|0:0,0:0:0:0:
194,306,30370,2,0,L|204:393,1,53.8666666666667,2|0,0:2|0:0,0:0:0:0:
323,287,30598,6,0,B|386:279|386:279|400:261|398:245|428:225|394:213|392:197|374:183|374:183|336:188,1,214.058666666667,2|0,0:2|0:0,0:0:0:0:
365,184,30825,2,0,B|403:179|403:179|421:193|423:209|456:221|427:240|428:256|415:274|415:274|351:282,1,214.058666666667,2|0,0:2|0:0,0:0:0:0:
323,287,31052,2,0,L|313:200,1,54.5706666666667,2|0,0:2|0:0,0:0:0:0:
310,192,31128,1,0,3:0:0:0:
310,192,31355,6,0,L|300:105,1,53.8666666666667,2|0,0:2|0:0,0:0:0:0:
374,90,31583,2,0,B|373:71|373:71|370:58|354:59|354:59|195:79|195:79|179:81,1,214.058666666667,2|0,3:2|0:0,0:0:0:0:
185,80,31810,2,0,L|237:74,1,53.8666666666667,2|0,0:2|0:0,0:0:0:0:
137,10,31961,2,0,B|118:10|118:10|105:13|106:29|106:29|126:188|126:188|128:204,1,214.058666666667,2|0,0:2|0:0,0:0:0:0:
128,198,32189,2,0,L|120:140,1,53.3333333333333,2|0,0:2|0:0,0:0:0:0:
247,255,32416,6,0,B|237:257|237:257|78:277|78:277|62:278|59:265|59:265|59:247,1,214.058666666667,2|0,0:2|0:0,0:0:0:0:
43,249,32643,2,0,L|50:302,1,53.8666666666667,2|0,1:2|1:2,0:0:0:0:
327,190,32870,1,2,0:2:0:0:
310,192,32946,2,0,B|327:188|327:188|341:188|344:204|344:204|363:362|363:362|365:378,1,214.058666666667,2|0,3:2|0:0,0:0:0:0:
351,375,33174,2,0,B|349:365|349:365|330:206|330:206|328:190|314:190|314:190|296:194,1,214.058666666667,2|0,0:2|0:0,0:0:0:0:
161,9,33401,6,0,B|162:18|162:18|181:177|181:177|183:193|197:193|197:193|215:189,1,214.058666666667,2|0,3:2|0:0,0:0:0:0:
202,192,33628,2,0,B|184:195|184:195|170:195|167:179|167:179|148:21|148:21|146:5,1,214.058666666667,2|0,0:2|0:0,0:0:0:0:
440,70,33855,2,0,B|430:71|430:71|271:90|271:90|255:92|255:106|255:106|259:124,1,214.058666666667,2|0,3:2|1:0,0:0:0:0:
262,143,34083,1,2,0:2:0:0:
295,315,34234,6,0,B|299:333|299:333|299:347|282:350|282:350|124:366|124:366|108:368,1,214.058666666667,2|0,0:2|0:0,0:0:0:0:
101,369,34461,1,2,0:2:0:0:
84,371,34537,2,0,L|31:377,1,53.8666666666667,2|0,0:2|0:0,0:0:0:0:
14,379,34689,1,2,0:2:0:0:
0,381,34764,1,0,3:0:0:0:
78,175,34916,6,0,B|74:158|74:158|74:144|90:140|90:140|248:119|248:119|263:116,1,214.058666666667,2|0,0:2|0:0,0:0:0:0:
272,115,35143,1,2,0:2:0:0:
283,114,35219,2,0,B|322:108|322:108|335:90|332:74|361:52|327:42|324:25|305:14|305:14|241:22,1,214.058666666667,2|0,3:2|0:0,0:0:0:0:
59,41,35446,6,0,L|72:128,1,53.8666666666667,2|0,0:2|0:0,0:0:0:0:
69,107,35598,5,0,1:0:0:0:
71,123,35674,2,0,L|84:210,1,53.8666666666667,2|0,3:2|0:0,0:0:0:0:
80,190,35825,5,0,1:0:0:0:
82,205,35901,2,0,L|95:292,1,53.8666666666667,2|0,0:2|0:0,0:0:0:0:
93,274,36052,6,0,B|99:310|99:310|117:323|133:320|155:349|165:315|181:312|193:293|193:293|185:230,1,214.058666666667,2|0,0:2|0:0,0:0:0:0:
199,227,36280,2,0,B|205:263|205:263|223:276|239:273|261:302|271:268|287:265|299:246|299:246|291:183,1,214.058666666667,2|0,0:2|0:0,0:0:0:0:
301,148,36507,5,2,0:2:0:0:
320,177,36583,2,0,B|326:213|326:213|344:226|360:223|382:252|392:218|408:215|420:196|420:196|412:133,1,214.058666666667,2|0,3:2|1:0,0:0:0:0:
412,130,36810,2,0,B|448:123|448:123|461:105|458:89|487:67|453:57|450:41|431:29|431:29|368:38,1,214.058666666667,2|0,1:2|0:0,0:0:0:0:
350,40,37037,6,0,B|346:1|346:1|328:-13|312:-11|292:-41|280:-7|264:-5|251:13|251:13|258:76,1,214.058666666667,2|0,3:2|0:0,0:0:0:0:
260,90,37264,6,0,L|173:100,1,53.8666666666667,2|0,0:2|0:0,0:0:0:0:
205,111,37416,2,0,B|213:174|213:174|199:192|183:194|172:228|152:198|136:200|118:186|118:186|110:122,1,214.058666666667,2|0,0:2|0:0,0:0:0:0:
111,132,37643,6,0,L|24:142,1,54.5706666666667,2|0,0:2|0:0,0:0:0:0:
82,329,37870,2,0,B|82:346|82:346|85:360|101:359|101:359|259:339|259:339|275:337,1,214.058666666667,2|0,0:2|0:0,0:0:0:0:
269,324,38098,2,0,B|258:324|258:324|99:344|99:344|83:346|80:332|80:332|80:314,1,214.058666666667,2|0,0:2|0:0,0:0:0:0:
257,228,38325,6,0,L|267:315,1,54.5706666666667,2|0,0:2|0:0,0:0:0:0:
269,324,38401,1,2,3:2:0:0:
269,324,38628,6,0,L|356:314,1,54.5706666666667,2|0,0:2|0:0,0:0:0:0:
269,340,38704,6,0,L|356:330,1,54.5706666666667,2|0,0:2|0:0,0:0:0:0:
271,355,38780,6,0,L|358:345,1,54.5706666666667,2|0,0:2|0:0,0:0:0:0:
377,383,38855,6,0,B|396:382|396:382|409:379|408:363|408:363|388:204|388:204|386:188,1,215.466666666667,0|0,3:0|0:0,0:0:0:0:
386,192,39083,2,0,L|393:244,1,53.3333333333333,2|0,0:2|0:0,0:0:0:0:
456,147,39234,2,0,B|456:128|456:128|453:115|437:116|437:116|278:136|278:136|262:138,1,214.058666666667,2|0,0:2|0:0,0:0:0:0:
269,138,39461,2,0,L|324:130,1,53.8666666666667,2|0,1:2|0:0,0:0:0:0:
213,7,39689,2,0,B|194:7|194:7|181:10|182:26|182:26|202:185|202:185|204:201,1,214.058666666667,2|0,0:2|0:0,0:0:0:0:
204,207,39916,1,2,0:2:0:0:
206,221,39992,2,0,L|213:275,1,53.8666666666667,2|0,0:2|0:0,0:0:0:0:
215,288,40143,1,2,0:2:0:0:
299,377,40219,6,0,B|316:377|316:377|330:374|329:358|329:358|309:200|309:200|307:184,1,214.058666666667,2|0,3:2|3:0,3:0:0:0:
294,190,40446,2,0,B|294:201|294:201|314:360|314:360|316:376|302:379|302:379|284:379,1,214.058666666667,2|0,1:3|1:0,0:0:0:0:
218,194,40674,6,0,B|218:183|218:183|198:24|198:24|196:8|210:5|210:5|228:5,1,214.058666666667,2|0,3:2|0:0,0:0:0:0:
213,7,40901,2,0,B|196:7|196:7|182:10|183:26|183:26|203:184|203:184|205:200,1,214.058666666667,2|0,0:2|0:0,0:0:0:0:
463,99,41128,6,0,B|463:80|463:80|460:66|443:67|443:67|285:87|285:87|269:89,1,214.058666666667,2|0,3:2|0:0,0:0:0:0:
261,91,41355,1,2,0:2:0:0:
315,280,41507,6,0,B|378:272|378:272|392:254|390:238|420:218|386:206|384:190|366:176|366:176|328:181,1,214.058666666667,2|0,0:2|0:0,0:0:0:0:
315,182,41734,1,2,0:3:0:0:
299,184,41810,2,0,L|246:190,1,53.8666666666667,2|0,0:3|0:0,0:0:0:0:
232,192,41961,1,2,0:3:0:0:
218,194,42037,1,0,3:3:0:0:
44,80,42189,6,0,L|53:167,2,53.5146666666667,2|2|0,1:2|1:2|0:0,0:0:0:0:
64,132,42416,6,0,B|59:113|59:113|59:99|76:96|76:96|234:80|234:80|250:78,1,214.058666666667,2|0,3:2|0:0,0:0:0:0:
273,75,42776,6,0,L|267:31,1,40,2|0,0:2|0:0,0:0:0:0:
288,73,42833,2,0,L|282:29,1,40,2|0,1:2|0:0,0:0:0:0:
304,71,42889,2,0,L|299:27,1,40,2|0,1:2|0:0,0:0:0:0:
320,69,42946,2,0,L|315:25,1,40,2|0,1:2|0:0,0:0:0:0:
502,202,43098,6,0,L|508:255,1,53.5146666666667,2|0,1:2|0:0,0:0:0:0:
492,257,43325,2,0,B|492:238|492:238|489:224|472:225|472:225|314:245|314:245|298:247,1,214.058666666667,2|0,1:2|0:0,0:0:0:0:
290,248,43552,6,0,L|203:258,1,54.5706666666667,2|0,1:2|0:0,0:0:0:0:
292,263,43628,2,0,L|205:273,1,54.5706666666667,2|0,3:2|0:0,0:0:0:0:
288,234,43780,5,0,1:2:0:0:
292,263,43855,6,0,L|205:273,1,54.5706666666667,2|0,3:2|0:0,0:0:0:0:
271,298,43931,6,0,L|184:285,1,54.5706666666667,2|0,1:2|0:0,0:0:0:0:
237,333,44007,6,0,L|156:298,1,54.5706666666667,2|0,1:2|0:0,0:0:0:0:
191,368,44083,6,0,L|122:313,1,54.5706666666667,2|0,3:2|0:0,0:0:0:0:
122,379,44158,6,0,L|69:308,1,54.5706666666667,2|0,1:2|0:0,0:0:0:0:
41,368,44234,6,0,L|8:286,1,54.5706666666667,2|0,1:2|0:0,0:0:0:0:
84,238,44310,6,0,L|78:187,1,42.8117333333334,4|0,3:2|0:0,0:0:0:0:
142,88,44537,2,0,L|148:139,1,42.8117333333334
238,217,44764,6,0,L|232:166,1,43.0933333333334,0|0,3:0|0:0,0:0:0:0:
246,228,44916,2,0,L|240:177,1,43.0933333333334
296,67,45143,5,0,0:0:0:0:
301,57,45219,2,0,L|307:108,1,43.0933333333334,0|0,3:0|0:0,0:0:0:0:
367,216,45370,5,0,0:0:0:0:
359,205,45446,2,0,L|353:154,1,43.0933333333334
376,53,45598,5,0,0:0:0:0:
381,43,45674,2,0,L|387:94,1,43.0933333333334,0|0,3:0|0:0,0:0:0:0:
446,205,45825,5,0,0:0:0:0:
438,194,45901,2,0,L|432:143,1,42.8117333333334
501,20,46128,6,0,L|507:71,1,42.8117333333334,0|0,3:0|0:0,0:0:0:0:
438,194,46355,2,0,L|432:143,1,42.8117333333334
366,48,46583,6,0,B|310:76|253:48|253:48|197:20|144:48|144:48|84:76|35:52,1,344.000005249024,2|0,3:2|3:0,0:0:0:0:
36,68,47946,6,0,B|85:92|145:64|145:64|198:37|254:64|254:64|311:92|366:64,1,342.810869550782,2|0,3:2|3:0,0:0:0:0:
127,168,48628,6,0,P|198:233|269:166,1,214.058666666667,2|0,0:2|0:0,0:0:0:0:
366,79,48855,2,0,B|311:107|254:79|254:79|198:52|145:79|145:79|85:107|36:83,1,342.810869550782,2|0,3:2|3:0,0:0:0:0:
333,192,49461,5,0,0:0:0:0:
345,191,49537,2,0,P|370:195|393:210,1,53.3333333333333
460,179,49764,2,0,P|450:276|353:273,1,214.058666666667,0|0,3:0|0:0,0:0:0:0:
360,324,49992,2,0,P|361:297|352:272,1,53.5146666666667,0|0,0:0|1:0,0:0:0:0:
393,210,50219,2,0,P|295:209|287:305,1,214.058666666667,0|0,3:0|1:0,0:0:0:0:
235,298,50446,6,0,P|261:296|286:305,1,53.5146666666667,2|0,0:2|1:0,0:0:0:0:
182,222,50674,5,2,3:2:0:0:
413,130,50825,5,0,1:0:0:0:
418,122,50901,1,0,1:0:0:0:
165,334,51128,6,0,P|153:280|176:229,1,114.093918393166,0|0,3:0|0:0,0:0:0:0:
187,215,51355,6,0,P|210:164|198:109,1,114.093918393166,2|0,1:2|0:0,0:0:0:0:
38,52,51583,6,0,B|86:75|146:47|146:47|199:20|255:47|255:47|312:75|367:47,1,341.742679662031,2|0,3:2|3:0,0:0:0:0:
127,168,52264,6,0,P|198:233|269:166,1,214.058666666667,2|0,0:2|0:0,0:0:0:0:
366,64,52492,2,0,B|311:92|254:64|254:64|198:37|145:64|145:64|85:92|36:68,1,341.742679662031,2|0,3:2|3:0,0:0:0:0:
333,192,53098,5,0,0:0:0:0:
345,191,53174,2,0,P|370:195|393:210,1,53.3333333333333
460,179,53401,2,0,P|450:276|353:273,1,214.058666666667,2|0,3:2|0:0,0:0:0:0:
361,325,53628,2,0,P|362:298|353:273,1,53.8666666666667
393,210,53855,2,0,P|295:209|287:305,1,215.466666666667,0|0,3:0|0:0,0:0:0:0:
236,299,54083,6,0,P|262:297|287:306,1,53.5146666666667,2|0,0:2|0:0,0:0:0:0:
165,344,54310,6,0,P|153:290|176:239,1,113.289669246147,2|0,3:2|0:0,0:0:0:0:
182,232,54613,5,0,0:0:0:0:
187,225,54689,2,0,P|210:174|198:119,1,113.345221096502,2|0,0:2|1:0,0:0:0:0:
195,111,54992,6,0,P|185:87|187:60,1,53.8666666666667,2|0,1:2|0:0,0:0:0:0:
196,52,55143,1,0,0:0:0:0:
356,16,55219,6,0,P|299:141|323:276,1,267.221333333334,0|0,3:2|0:0,0:0:0:0:
311,271,55446,2,0,P|296:248|291:222,1,53.8666666666667
405,183,55674,2,0,P|393:159|373:142,1,53.8666666666667,0|0,3:0|0:0,0:0:0:0:
472,82,55901,6,0,P|449:67|423:62,1,53.8666666666667,2|0,0:2|0:0,0:0:0:0:
156,16,56052,2,0,P|212:141|188:276,1,267.221333333334,2|0,0:2|0:0,0:0:0:0:
201,271,56280,2,0,P|215:248|220:222,1,53.8666666666667
362,6,56507,5,0,0:0:0:0:
356,16,56583,2,0,P|299:141|323:276,1,278.671280900115,2|0,3:2|1:0,0:0:0:0:
156,368,57037,6,0,P|212:242|188:107,1,267.221333333334,2|0,3:2|0:0,0:0:0:0:
201,113,57264,2,0,P|215:135|220:161,1,53.8666666666667
106,189,57416,5,0,1:0:0:0:
107,201,57492,2,0,P|118:224|138:241,1,53.8666666666667,2|0,3:2|0:0,0:0:0:0:
416,196,57719,6,0,P|405:219|385:236,1,53.8666666666667,2|0,0:2|0:0,0:0:0:0:
356,367,57870,2,0,P|299:242|323:107,1,268.629333333334,2|0,1:2|0:0,0:0:0:0:
333,118,58098,2,0,P|314:250|377:371,1,269.866664710693,2|0,1:2|0:0,0:0:0:0:
149,377,58325,5,2,0:2:0:0:
156,368,58401,2,0,P|213:239|188:102,1,269.866664710693,2|0,1:2|0:0,0:0:0:0:
414,262,58628,1,0,3:0:0:0:
512,384,58855,6,0,P|380:342|295:235,1,278.825290517222,2|0,3:2|0:0,0:0:0:0:
305,231,59310,6,0,P|386:332|509:374,1,265.401256573484,2|0,3:2|0:0,0:0:0:0:
0,384,59689,6,0,P|131:342|216:235,1,278.825290517222,2|0,3:2|0:0,0:0:0:0:
219,313,59992,2,0,P|210:287|213:261,1,53.8666666666667,0|0,1:0|0:0,0:0:0:0:
512,384,60219,6,0,P|380:342|295:235,1,278.825290517222,2|0,3:2|1:0,0:0:0:0:
512,0,60674,6,0,P|380:41|295:148,1,278.825290517222,2|0,3:2|0:0,0:0:0:0:
305,152,61128,6,0,P|352:78|424:28,1,176.680020539728,2|0,3:2|1:0,0:0:0:0:
0,0,61507,6,0,P|129:41|214:149,1,277.742676232623,2|0,0:2|0:0,0:0:0:0:
221,73,61734,2,0,P|212:98|215:124,1,54.5706666666667
512,0,61961,5,0,0:0:0:0:
498,2,62037,2,0,P|366:43|281:150,1,278.825290517222,2|0,3:2|1:0,0:0:0:0:
435,183,62264,6,0,P|422:158|402:141,1,53.8666666666667
352,372,62492,6,0,L|363:213,1,159.380048939634,2|0,3:2|0:0,0:0:0:0:
353,213,62719,2,0,L|342:372,1,159.380048939634,8|0,0:2|0:0,0:0:0:0:
332,371,62946,2,0,L|343:212,1,159.380048939634,0|0,3:0|0:0,0:0:0:0:
333,211,63174,2,0,L|331:250,1,39.0512483795333,8|0,0:2|0:0,0:0:0:0:
158,306,63325,6,0,L|142:147,1,159.380048939634,2|0,0:2|0:0,0:0:0:0:
132,149,63552,2,0,L|148:308,1,160.449368961053,2|0,0:2|0:0,0:0:0:0:
138,309,63780,2,0,L|135:270,1,40.928,2|0,0:2|0:0,0:0:0:0:
23,380,63855,6,0,L|35:220,1,160.449368961053,0|0,3:0|1:0,0:0:0:0:
24,220,64083,2,0,L|13:379,1,159.380048939634,8|0,0:2|0:0,0:0:0:0:
118,155,64310,6,0,P|172:143|223:166,1,114.848646860506,2|0,3:2|0:0,0:0:0:0:
167,232,64461,5,2,0:2:0:0:
161,225,64537,1,10,0:2:0:0:
339,228,64689,6,0,L|342:189,1,40.928,2|0,1:2|0:0,0:0:0:0:
342,188,64764,2,0,P|287:199|237:177,1,114.848646860506,2|0,3:2|0:0,0:0:0:0:
291,114,64916,5,2,1:2:0:0:
295,121,64992,1,10,0:2:0:0:
164,184,65143,6,0,L|161:223,1,40.928,2|0,1:2|0:0,0:0:0:0:
164,231,65219,5,2,0:2:0:0:
217,213,65295,5,2,0:2:0:0:
271,224,65370,5,10,1:2:0:0:
279,229,65446,5,10,3:2:0:0:
315,271,65522,5,2,0:2:0:0:
370,276,65598,5,2,0:2:0:0:
413,240,65674,5,10,1:2:0:0:
420,185,65749,5,2,1:2:0:0:
385,140,65825,5,2,1:2:0:0:
380,133,65901,5,2,1:2:0:0:
382,76,65977,5,2,1:2:0:0:
423,39,66052,5,2,1:2:0:0:
418,30,66128,6,0,P|292:86|157:62,1,267.573333333334,2|0,3:2|0:0,0:0:0:0:
88,169,66355,2,0,P|128:184|155:230,1,80.272003051758,2|0,1:2|0:0,0:0:0:0:
79,318,66583,2,0,P|209:299|328:355,1,267.573333333334,2|0,3:2|0:0,0:0:0:0:
217,159,66810,1,0,1:0:0:0:
385,304,66961,6,0,P|344:319|317:365,1,80.800003051758,2|0,0:2|3:0,0:0:0:0:
380,297,67189,2,0,P|339:312|312:358,1,80.800003051758,2|0,0:2|1:0,0:0:0:0:
240,88,67416,1,2,0:2:0:0:
322,110,67492,2,0,P|282:108|248:85,1,80.800003051758,0|0,3:2|0:0,0:0:0:0:
271,290,67719,6,0,P|304:311|322:347,1,80.0000030517579,2|0,1:2|0:0,0:0:0:0:
110,163,67946,2,0,P|143:141|161:105,1,80.272003051758,2|0,3:2|0:0,0:0:0:0:
276,280,68174,6,0,P|309:301|327:337,1,80.272003051758,2|0,1:2|0:0,0:0:0:0:
99,162,68401,2,0,P|132:140|150:104,1,80.272003051758,2|0,3:2|0:0,0:0:0:0:
282,272,68628,6,0,P|315:293|333:329,1,80.272003051758,2|0,1:2|0:0,0:0:0:0:
230,124,68855,2,0,P|238:88|221:50,1,40.400001525879,2|0,3:2|0:0,0:0:0:0:
120,32,69007,1,2,0:2:0:0:
230,78,69083,1,2,1:2:0:0:
45,64,69234,2,0,P|87:52|119:9,1,80.272003051758,2|0,0:2|0:0,0:0:0:0:
250,206,69461,5,0,1:0:0:0:
258,211,69537,1,2,1:3:0:0:
458,219,69764,6,0,P|346:138|299:9,1,269.333333333334,2|0,3:2|0:0,0:0:0:0:
181,158,69992,2,0,P|221:173|248:219,1,80.272003051758,2|0,1:2|0:0,0:0:0:0:
73,298,70219,2,0,P|203:279|322:335,1,266.666666666667,2|0,3:2|0:0,0:0:0:0:
250,206,70446,1,0,1:0:0:0:
388,374,70598,6,0,P|419:349|459:345,1,80.800003051758,2|0,0:2|3:0,0:0:0:0:
384,384,70825,2,0,P|415:359|455:355,1,80.800003051758,2|0,0:2|1:0,0:0:0:0:
423,146,71052,1,2,0:2:0:0:
458,219,71128,2,0,P|446:180|415:154,1,80.800003051758,2|0,3:2|0:0,0:0:0:0:
153,71,71355,6,0,P|142:113|163:162,1,80.800003051758,2|0,1:2|0:0,0:0:0:0:
433,247,71583,2,0,P|451:216|489:201,1,40.400001525879,2|0,3:2|0:0,0:0:0:0:
280,229,71810,2,0,P|291:187|270:138,1,79.744003051758,2|0,1:2|1:2,0:0:0:0:
180,232,72037,2,0,P|199:202|237:187,1,40.400001525879,2|0,3:2|0:0,0:0:0:0:
64,219,72189,1,2,1:2:0:0:
199,189,72264,1,2,0:2:0:0:
19,145,72416,2,0,P|49:175|55:228,1,80.272003051758,2|0,0:2|0:0,0:0:0:0:
222,116,72643,5,0,1:0:0:0:
215,110,72719,1,0,1:0:0:0:
412,296,72946,5,0,1:0:0:0:
357,284,73022,5,0,1:0:0:0:
306,307,73098,5,0,1:0:0:0:
298,312,73174,5,2,1:2:0:0:
247,334,73249,5,0,1:0:0:0:
193,323,73325,5,2,1:2:0:0:
186,317,73401,6,0,P|129:190|153:55,1,267.573333333334,2|0,3:2|0:0,0:0:0:0:
20,285,73628,2,0,P|60:300|87:346,1,80.272003051758,2|0,1:2|0:0,0:0:0:0:
154,73,73855,2,0,P|209:192|192:322,1,267.573333333334,2|0,3:2|0:0,0:0:0:0:
51,206,74083,1,0,1:0:0:0:
322,102,74234,6,0,P|282:87|255:41,1,80.800003051758,2|0,0:2|3:0,0:0:0:0:
327,94,74461,2,0,P|287:79|260:33,1,80.800003051758,2|0,0:2|1:0,0:0:0:0:
457,232,74689,1,2,0:2:0:0:
401,293,74764,2,0,P|422:258|459:241,1,80.800003051758,2|0,3:2|0:0,0:0:0:0:
202,354,74992,6,0,P|182:319|146:302,1,80.272003051758,2|0,1:2|0:0,0:0:0:0:
391,302,75219,2,0,P|351:287|324:241,1,80.272003051758,2|0,3:2|0:0,0:0:0:0:
192,360,75446,6,0,P|172:325|136:308,1,80.272003051758,2|0,1:2|0:0,0:0:0:0:
381,308,75674,2,0,P|341:293|314:247,1,79.744003051758,2|0,3:2|0:0,0:0:0:0:
182,366,75901,6,0,P|162:331|126:314,1,80.272003051758,2|0,1:2|0:0,0:0:0:0:
137,308,76128,2,0,P|168:289|182:250,1,40.400001525879,2|0,3:2|0:0,0:0:0:0:
236,181,76280,1,2,0:2:0:0:
179,290,76355,1,2,1:2:0:0:
244,104,76507,2,0,P|244:148|211:190,1,80.272003051758,2|0,0:2|0:0,0:0:0:0:
385,104,76734,5,0,1:0:0:0:
390,94,76810,6,0,P|379:52|400:3,1,80.272003051758,2|0,1:3|0:0,0:0:0:0:
340,220,77037,2,0,P|332:201|319:186,1,40.928001525879,2|0,3:2|0:0,0:0:0:0:
455,57,77264,2,0,P|466:99|445:148,1,80.272003051758,2|0,1:2|0:0,0:0:0:0:
455,246,77492,2,0,P|438:256|425:271,1,40.4053328385417,2|0,3:2|0:0,0:0:0:0:
283,93,77719,2,0,P|243:97|211:121,1,80.272003051758,2|0,1:2|0:0,0:0:0:0:
266,168,77946,6,0,P|263:188|252:204,1,40.400001525879,2|0,3:2|0:0,0:0:0:0:
376,177,78098,1,2,0:2:0:0:
243,200,78174,1,2,1:2:0:0:
389,93,78325,2,0,P|376:131|385:170,1,80.272003051758,2|0,0:2|0:0,0:0:0:0:
335,37,78552,5,2,1:2:0:0:
180,38,78780,5,2,0:2:0:0:
211,113,78855,2,0,P|201:73|173:45,1,80.800003051758,2|0,3:2|0:0,0:0:0:0:
280,188,79083,2,0,P|260:190|242:200,1,40.400001525879,2|0,1:2|0:0,0:0:0:0:
187,30,79310,5,2,3:2:0:0:
241,208,79424,5,2,1:2:0:0:
73,171,79689,6,0,P|92:136|126:116,1,80.272003051758,2|0,0:2|0:0,0:0:0:0:
73,52,79916,5,0,1:0:0:0:
69,43,79992,1,0,3:0:0:0:
394,86,80219,5,0,1:0:0:0:
402,140,80295,5,0,1:0:0:0:
440,181,80370,5,0,1:0:0:0:
445,188,80446,5,2,1:2:0:0:
482,228,80522,5,2,1:2:0:0:
491,284,80598,5,2,1:2:0:0:
399,257,80674,6,0,P|260:271|155:359,1,267.573333333334,2|0,3:2|0:0,0:0:0:0:
19,280,80901,2,0,P|59:295|86:341,1,80.272003051758,10|0,1:2|0:0,0:0:0:0:
161,6,81128,2,0,P|183:143|125:267,1,267.573333333334,2|0,3:2|0:0,0:0:0:0:
59,125,81355,1,8,1:2:0:0:
328,43,81507,6,0,P|288:58|261:104,1,80.800003051758,2|0,0:2|3:0,0:0:0:0:
408,261,81734,2,0,P|352:205|341:112,1,161.600006103516,2|8,0:2|1:2,0:0:0:0:
283,255,81961,1,2,0:2:0:0:
356,338,82037,2,0,P|277:331|209:371,1,161.600006103516,2|0,3:2|0:0,0:0:0:0:
202,375,82264,6,0,P|219:336|206:284,1,80.272003051758,8|0,1:2|0:0,0:0:0:0:
336,48,82492,2,0,P|384:177|497:256,1,267.573333333334,2|0,3:2|0:0,0:0:0:0:
193,379,82719,6,0,P|210:340|197:288,1,80.272003051758,10|0,1:2|0:0,0:0:0:0:
327,52,82946,2,0,P|375:181|488:260,1,267.573333333334,2|0,3:2|0:0,0:0:0:0:
185,381,83174,6,0,P|202:342|189:290,1,80.272003051758,10|0,1:2|0:0,0:0:0:0:
189,307,83401,2,0,P|169:306|151:298,1,40.400001525879,2|0,3:2|0:0,0:0:0:0:
293,257,83552,1,2,0:2:0:0:
149,288,83628,1,14,1:2:0:0:
312,211,83780,2,0,P|302:228|300:248,1,40.400001525879,2|12,0:2|3:2,0:0:0:0:
190,50,84007,5,0,1:0:0:0:
186,41,84083,1,2,1:3:0:0:
142,282,84310,6,0,P|199:154|175:19,1,267.573333333334,2|0,3:2|0:0,0:0:0:0:
417,197,84537,2,0,P|441:227|479:241,1,80.272003051758,10|0,1:2|0:0,0:0:0:0:
490,243,84764,2,0,P|351:256|246:344,1,267.573333333334,2|0,3:2|0:0,0:0:0:0:
409,357,84992,1,8,1:2:0:0:
248,84,85143,6,0,P|208:69|181:23,1,80.800003051758,2|0,0:2|3:0,0:0:0:0:
410,189,85370,2,0,P|416:110|481:41,1,161.600006103516,2|8,0:2|1:2,0:0:0:0:
255,91,85598,1,2,0:2:0:0:
328,174,85674,2,0,P|249:167|181:207,1,161.600006103516,2|0,3:2|0:0,0:0:0:0:
179,197,85901,6,0,P|183:158|166:123,1,80.272003051758,10|0,1:2|0:0,0:0:0:0:
309,218,86128,2,0,P|321:184|356:162,1,40.928001525879,2|0,3:2|0:0,0:0:0:0:
171,384,86355,2,0,P|196:347|247:332,1,80.272003051758,10|2,1:2|1:2,0:0:0:0:
314,225,86583,2,0,P|327:256|318:297,1,40.400001525879,2|0,3:2|0:0,0:0:0:0:
229,341,86734,1,2,0:2:0:0:
321,269,86810,1,10,1:2:0:0:
185,188,86961,2,0,P|217:163|232:128,1,80.272003051758,2|0,0:2|0:0,0:0:0:0:
417,291,87189,5,8,1:2:0:0:
425,296,87264,1,4,1:2:0:0:
83,334,87416,5,8,0:2:0:0:
75,329,87492,1,12,1:2:0:0:
