osu file format v14

[General]
AudioFilename: audio.mp3
AudioLeadIn: 0
PreviewTime: 21734
Countdown: 0
SampleSet: Soft
StackLeniency: 0.8
Mode: 0
LetterboxInBreaks: 0
WidescreenStoryboard: 1

[Editor]
DistanceSpacing: 1.2
BeatDivisor: 4
GridSize: 16
TimelineZoom: 2.200001

[Metadata]
Title:Coconut Mall
TitleUnicode:ココナッツモール
Artist:Ohta Asuka, Nagamatsu Ryo
ArtistUnicode:太田あすか、永松亮
Creator:downpour
Version:riffy's Normal
Source:Mario Kart Wii
Tags:nintendo kokonattsu moru hayazaki ost platinum soundtrack video game instrumental jazz fanzhen0019 fanzhen blixys bakari riffy big chungus big_chungus frontier -_frontier_- celektus 太田あすか 永松亮 マリオカートWii
BeatmapID:2433800
BeatmapSetID:1063080

[Difficulty]
HPDrainRate:4
CircleSize:4
OverallDifficulty:4
ApproachRate:5
SliderMultiplier:1.2
SliderTickRate:1

[Events]
//Background and Video events
0,0,"kaffirlime.jpg",0,0
//Break Periods
//Storyboard Layer 0 (Background)
//Storyboard Layer 1 (Fail)
//Storyboard Layer 2 (Pass)
//Storyboard Layer 3 (Foreground)
//Storyboard Layer 4 (Overlay)
//Storyboard Sound Samples
Sample,6825,0,"soft-hitfinish2.wav",70
Sample,14552,0,"burst.wav",70
Sample,21825,0,"burst.wav",70
Sample,29325,0,"burst.wav",70
Sample,44325,0,"soft-hitfinish2.wav",70
Sample,72734,0,"burst.wav",70
Sample,80007,0,"burst.wav",70

[TimingPoints]
674,454.545454545455,4,2,1,30,1,0
674,-100,4,2,1,30,0,0
6999,-100,4,2,1,10,0,0
7037,-100,4,2,1,40,0,0
7567,-100,4,2,1,10,0,0
7643,-100,4,2,1,20,0,0
7719,-100,4,2,1,30,0,0
7795,-100,4,2,1,40,0,0
7870,-100,4,2,1,50,0,0
7946,-100,4,2,1,70,0,0
22492,-100,4,2,1,70,0,1
29764,-100,4,2,1,50,0,0
66128,-100,4,2,1,70,0,0
80674,-100,4,2,1,70,0,1
87492,-100,4,2,1,70,0,0
88401,-100,4,2,1,65,0,0
88855,-100,4,2,1,60,0,0
89310,-100,4,2,1,55,0,0
89764,-100,4,2,1,50,0,0
90219,-100,4,2,1,45,0,0
90674,-100,4,2,1,40,0,0
91128,-100,4,2,1,35,0,0
91583,-100,4,2,1,30,0,0
92037,-100,4,2,1,25,0,0
92492,-100,4,2,1,20,0,0
92946,-100,4,2,1,15,0,0
93401,-100,4,2,1,10,0,0
93855,-100,4,2,1,5,0,0

[Colours]
Combo1 : 255,164,246
Combo2 : 109,69,245
Combo3 : 107,198,245
Combo4 : 245,189,153

[HitObjects]
38,156,674,54,0,L|50:278,1,120.144,2|0,0:2|0:0,0:0:0:0:
49,275,1583,2,0,L|46:337,2,60.0720000000001,0|0|2,0:0|0:0|0:2,0:0:0:0:
150,173,2492,2,0,L|147:235,2,60.0720000000001,2|2|0,0:2|0:2|0:0,0:0:0:0:
251,71,3401,2,0,L|248:133,2,60.0720000000001,0|0|10,0:0|0:0|0:2,0:0:0:0:
382,12,4310,5,2,0:2:0:0:
466,128,4764,2,0,L|463:190,1,60.0720000000001,8|0,0:2|0:0,0:0:0:0:
459,260,5219,1,0,0:0:0:0:
322,212,5674,1,10,0:2:0:0:
226,319,6128,1,2,0:2:0:0:
226,319,6583,5,2,0:3:0:0:
149,197,7037,2,0,L|217:206,1,60.0720000000001,0|0,1:0|0:0,0:0:0:0:
280,214,7492,1,0,1:0:0:0:
422,229,7946,6,0,L|487:218,2,60.0720000000001,2|2|2,3:2|1:2|3:2,0:0:0:0:
330,117,8855,2,0,L|395:106,1,60.0720000000001,0|0,3:0|1:0,0:0:0:0:
460,96,9310,1,0,3:2:0:0:
460,96,9764,1,2,3:2:0:0:
420,234,10219,1,2,3:2:0:0:
301,151,10674,2,0,P|280:205|262:283,1,120.144,2|0,3:2|3:0,0:0:0:0:
193,263,11355,1,2,1:3:0:0:
193,263,11583,6,0,P|201:299|204:326,2,60.0720000000001,2|2|2,3:2|1:2|3:2,0:0:0:0:
113,142,12492,2,0,P|97:179|72:215,1,60.0720000000001,0|0,3:0|1:0,0:0:0:0:
25,233,12946,1,2,3:2:0:0:
101,355,13401,2,0,P|149:350|171:355,1,60.0720000000001,2|2,3:2|1:2,0:0:0:0:
176,281,13855,2,0,P|236:299|298:342,1,120.144,2|0,3:2|3:0,0:0:0:0:
456,333,15219,6,0,L|463:267,2,60.0720000000001,2|2|2,3:2|1:2|3:2,0:0:0:0:
344,241,16128,2,0,L|353:176,1,60.0720000000001,0|0,3:0|1:0,0:0:0:0:
363,110,16583,1,2,3:2:0:0:
257,12,17037,1,2,3:2:0:0:
169,126,17492,1,2,3:2:0:0:
25,117,17946,2,0,P|42:159|56:237,1,120.144,2|0,3:2|3:0,0:0:0:0:
130,249,18628,1,2,1:3:0:0:
130,249,18855,6,0,P|120:296|118:327,2,60.0720000000001,2|2|2,3:2|1:2|3:2,0:0:0:0:
273,230,19764,2,0,P|253:263|242:291,2,60.0720000000001,2|2|0,3:2|1:2|3:0,0:0:0:0:
340,204,20446,1,0,1:0:0:0:
407,229,20674,5,2,3:2:0:0:
331,351,21128,2,0,L|225:370,1,100,2|0,3:2|0:0,0:0:0:0:
41,129,22492,5,2,3:2:0:0:
41,129,22719,1,10,1:2:0:0:
41,129,22946,1,2,3:2:0:0:
145,29,23401,2,0,P|195:23|212:23,1,60.0720000000001,0|8,3:0|1:2,0:0:0:0:
264,62,23855,2,0,L|343:56,1,60.0720000000001,2|8,3:2|1:2,0:0:0:0:
383,17,24310,5,2,3:2:0:0:
361,159,24764,1,2,3:2:0:0:
424,288,25219,2,0,P|380:316|296:325,1,120.144,2|12,3:2|3:2,0:0:0:0:
258,280,25901,1,2,1:3:0:0:
301,222,26128,6,0,L|307:155,2,60.0720000000001,2|10|2,3:2|1:2|3:2,0:0:0:0:
157,210,27037,2,0,L|166:285,1,60.0720000000001,0|8,3:0|1:2,0:0:0:0:
176,340,27492,1,2,3:2:0:0:
68,244,27946,1,2,3:2:0:0:
142,120,28401,2,0,P|188:125|249:179,1,120.144,2|0,3:2|0:0,0:0:0:0:
312,145,29083,2,0,L|383:139,2,60.0720000000001,4|12|2,1:2|1:2|1:2,0:0:0:0:
299,215,29764,6,0,L|288:284,1,60.0720000000001,2|2,3:2|0:2,0:0:0:0:
321,339,30219,2,0,P|381:302|440:297,2,120.012,0|0|0,3:0|3:0|3:0,0:0:0:0:
198,262,31583,6,0,P|199:296|208:330,1,60.0720000000001,2|2,3:2|0:2,0:0:0:0:
145,362,32037,2,0,P|113:353|22:356,2,120.012,0|0|2,3:0|3:0|3:2,0:0:0:0:
90,228,33401,2,0,P|73:191|68:106,1,120.144,2|2,3:2|3:2,0:0:0:0:
202,64,34310,2,0,L|195:131,1,60.0720000000001,0|2,3:0|0:2,0:0:0:0:
186,194,34764,1,0,3:0:0:0:
168,337,35219,5,2,3:2:0:0:
311,321,35674,2,0,L|455:305,2,120.012,2|0|2,3:2|3:0|3:2,0:0:0:0:
168,337,37037,1,2,3:2:0:0:
150,193,37492,2,0,L|134:49,2,120.012,0|0|2,3:0|3:0|3:2,0:0:0:0:
168,335,38855,5,0,3:0:0:0:
263,226,39310,2,0,L|303:181,1,60.0720000000001,0|0,3:0|0:0,0:0:0:0:
353,130,39764,2,0,P|374:158|349:239,1,120.144,0|2,3:0|3:2,0:0:0:0:
335,304,40446,1,2,1:3:0:0:
374,364,40674,6,0,L|499:347,1,120.144,2|2,3:2|3:2,0:0:0:0:
474,204,41583,2,0,L|468:132,1,60.0720000000001,0|2,3:0|0:3,0:0:0:0:
459,72,42037,1,0,3:3:0:0:
314,77,42492,6,0,L|327:219,1,120.144,2|2,3:2|1:2,0:0:0:0:
343,339,43401,2,0,L|203:349,1,120.144,0|2,0:0|3:2,0:0:0:0:
125,241,44310,6,0,B|108:232|71:224|16:194|16:128|49:103|76:98|111:104|126:112|126:112|139:80|168:67|196:68|220:86|237:104|239:125|235:171|209:196|206:216|191:230,1,480.048000000001,4|0,3:2|3:0,0:0:0:0:
269,346,46583,2,0,P|332:361|394:334,2,120,2|2|0,3:2|3:2|3:0,0:0:0:0:
299,280,47719,1,2,1:2:0:0:
322,209,47946,6,0,L|124:182,1,180.216,2|2,3:2|0:2,0:0:0:0:
98,128,48855,2,0,P|103:93|226:33,1,180.216,2|0,3:2|0:0,0:0:0:0:
282,64,49764,5,0,3:0:0:0:
419,19,50219,1,0,3:0:0:0:
498,138,50674,1,2,3:2:0:0:
385,227,51128,2,0,P|341:209|326:192,1,60,0|2,3:0|1:2,0:0:0:0:
273,161,51583,6,0,P|220:176|170:291,1,180.216,2|2,3:2|0:2,0:0:0:0:
216,335,52492,2,0,L|402:352,1,180.216,2|0,3:2|0:0,0:0:0:0:
466,360,53401,1,2,3:2:0:0:
411,226,53855,1,0,3:0:0:0:
455,88,54310,2,0,P|421:50|289:47,1,180.216,2|2,3:2|1:2,0:0:0:0:
299,41,55219,5,0,3:2:0:0:
266,181,55674,2,0,L|278:290,1,100,0|0,3:0|0:0,0:0:0:0:
194,133,56583,1,2,3:2:0:0:
93,30,57037,1,2,3:2:0:0:
21,159,57492,2,0,P|45:200|62:278,1,120.144,2|0,3:2|3:0,0:0:0:0:
136,284,58174,1,0,1:0:0:0:
136,284,58401,2,0,P|131:328|130:356,1,60.0720000000001,2|0,1:2|3:0,0:0:0:0:
197,368,58855,5,2,3:2:0:0:
290,258,59310,1,2,3:2:0:0:
405,346,59764,2,0,P|437:347|471:344,1,60.0720000000001,0|0,3:0|1:0,0:0:0:0:
502,282,60219,1,2,3:2:0:0:
408,172,60674,5,2,3:2:0:0:
494,56,61128,1,2,3:2:0:0:
352,29,61583,2,0,P|328:59|314:83,1,60.0720000000001,0|0,3:0|0:0,0:0:0:0:
250,50,62037,2,0,P|236:88|228:120,1,60.0720000000001,2|0,3:2|1:0,0:0:0:0:
161,128,62492,6,0,P|123:129|98:126,2,60.0720000000001,0|8|0,3:0|0:2|3:0,0:0:0:0:
73,241,63401,2,0,P|52:220|1:140,1,120
126,79,64310,6,0,P|153:114|166:140,2,60.0720000000001,2|10|2,3:2|0:2|3:2,0:0:0:0:
257,53,65219,2,0,P|300:35|432:91,1,180.216,2|2,0:2|1:2,0:0:0:0:
451,140,66128,6,0,P|434:177|426:215,2,60.0720000000001,2|2|2,3:2|1:2|3:2,0:0:0:0:
309,168,67037,2,0,P|309:210|314:242,1,60.0720000000001,0|0,3:0|1:0,0:0:0:0:
344,292,67492,1,0,3:2:0:0:
487,282,67946,1,2,3:2:0:0:
512,139,68401,1,2,3:2:0:0:
386,68,68855,2,0,P|342:79|283:125,1,120.144,2|0,3:2|3:0,0:0:0:0:
218,93,69537,1,2,1:3:0:0:
218,93,69764,6,0,P|200:124|168:155,2,60.0720000000001,2|2|2,3:2|1:2|3:2,0:0:0:0:
218,237,70674,2,0,P|175:241|148:240,1,60.0720000000001,0|0,3:0|1:0,0:0:0:0:
92,211,71128,1,2,3:2:0:0:
64,69,71583,1,2,3:2:0:0:
182,150,72037,2,0,P|221:144|305:155,1,120.144,2|0,3:2|3:0,0:0:0:0:
363,118,72719,2,0,L|357:54,2,60.0720000000001,0|0|2,1:0|1:0|1:2,0:0:0:0:
430,142,73401,6,0,L|413:221,2,60.0720000000001,2|2|2,3:2|1:2|3:2,0:0:0:0:
314,228,74310,2,0,L|299:295,1,60.0720000000001,0|0,3:0|1:0,0:0:0:0:
282,356,74764,1,2,3:2:0:0:
161,276,75219,1,2,3:2:0:0:
23,319,75674,1,2,3:2:0:0:
72,184,76128,2,0,P|67:161|20:77,1,120.144,2|0,3:2|3:0,0:0:0:0:
62,18,76810,1,2,1:3:0:0:
124,54,77037,5,2,3:2:0:0:
265,27,77492,1,2,3:2:0:0:
395,87,77946,2,0,P|379:128|386:221,1,120.144,2|0,3:2|3:0,0:0:0:0:
448,238,78628,1,0,1:0:0:0:
511,203,78855,1,2,3:2:0:0:
492,345,79310,2,0,L|386:355,1,100,2|0,3:2|0:0,0:0:0:0:
157,371,80674,5,2,3:2:0:0:
157,371,80901,1,10,1:2:0:0:
157,371,81128,1,2,3:2:0:0:
90,242,81583,2,0,P|126:248|162:262,1,60.0720000000001,0|8,3:0|1:2,0:0:0:0:
205,298,82037,1,2,3:2:0:0:
339,350,82492,5,2,3:2:0:0:
458,269,82946,1,2,3:2:0:0:
359,163,83401,2,0,P|353:119|391:39,1,120.144,2|12,3:2|3:2,0:0:0:0:
445,19,84083,1,2,1:3:0:0:
482,80,84310,6,0,L|471:148,2,60.0720000000001,2|10|2,3:2|1:2|3:2,0:0:0:0:
457,221,85219,2,0,L|446:289,1,60.0720000000001,0|8,3:0|1:2,0:0:0:0:
435,351,85674,1,2,3:2:0:0:
304,298,86128,1,2,3:2:0:0:
178,368,86583,2,0,P|145:368|72:293,1,120.144,2|0,3:2|0:0,0:0:0:0:
124,261,87264,2,0,L|192:257,1,60.0720000000001,4|12,1:2|1:2,0:0:0:0:
