osu file format v14

[General]
AudioFilename: audio.mp3
AudioLeadIn: 0
PreviewTime: 21734
Countdown: 0
SampleSet: Soft
StackLeniency: 0.5
Mode: 0
LetterboxInBreaks: 0
WidescreenStoryboard: 1

[Editor]
Bookmarks: 31659
DistanceSpacing: 1.3
BeatDivisor: 6
GridSize: 16
TimelineZoom: 3.699999

[Metadata]
Title:Coconut Mall
TitleUnicode:ココナッツモール
Artist:Ohta Asuka, Nagamatsu Ryo
ArtistUnicode:太田あすか、永松亮
Creator:downpour
Version:frontier's Hard
Source:Mario Kart Wii
Tags:nintendo kokonattsu moru hayazaki ost platinum soundtrack video game instrumental jazz fanzhen0019 fanzhen blixys bakari riffy big chungus big_chungus frontier -_frontier_- celektus 太田あすか 永松亮 マリオカートWii
BeatmapID:2457468
BeatmapSetID:1063080

[Difficulty]
HPDrainRate:5
CircleSize:3.5
OverallDifficulty:6
ApproachRate:8
SliderMultiplier:2
SliderTickRate:1

[Events]
//Background and Video events
0,0,"kaffirlime.jpg",0,0
//Break Periods
//Storyboard Layer 0 (Background)
//Storyboard Layer 1 (Fail)
//Storyboard Layer 2 (Pass)
//Storyboard Layer 3 (Foreground)
//Storyboard Layer 4 (Overlay)
//Storyboard Sound Samples
Sample,6825,0,"soft-hitfinish2.wav",70
Sample,14552,0,"burst.wav",70
Sample,21825,0,"burst.wav",70
Sample,29325,0,"burst.wav",70
Sample,44325,0,"soft-hitfinish2.wav",70
Sample,72734,0,"burst.wav",70
Sample,80007,0,"burst.wav",70

[TimingPoints]
674,454.545454545455,4,2,1,30,1,0
674,-100,4,2,1,30,0,0
6999,-100,4,2,1,10,0,0
7037,-100,4,2,1,35,0,0
7492,-100,4,2,1,50,0,0
7567,-100,4,2,1,10,0,0
7643,-100,4,2,1,35,0,0
7719,-100,4,2,1,45,0,0
7795,-100,4,2,1,55,0,0
7870,-100,4,2,1,60,0,0
7946,-100,4,2,1,70,0,0
8097,-100,4,2,1,5,0,0
8174,-100,4,2,1,70,0,0
8325,-100,4,2,1,5,0,0
8401,-100,4,2,1,70,0,0
11734,-100,4,2,1,5,0,0
11810,-100,4,2,1,70,0,0
11961,-100,4,2,1,5,0,0
12037,-100,4,2,1,70,0,0
15370,-100,4,2,1,5,0,0
15446,-100,4,2,1,70,0,0
15597,-100,4,2,1,5,0,0
15674,-100,4,2,1,70,0,0
19234,-100,4,2,1,5,0,0
19310,-100,4,2,1,70,0,0
19537,-100,4,2,1,70,0,0
21128,-124.034734589208,4,2,1,70,0,0
21355,-100,4,2,1,70,0,0
22492,-90.9090909090909,4,2,1,70,0,1
22643,-90.9090909090909,4,2,1,5,0,1
22719,-90.9090909090909,4,2,1,70,0,1
22870,-90.9090909090909,4,2,1,5,0,1
22946,-90.9090909090909,4,2,1,70,0,1
26279,-90.9090909090909,4,2,1,5,0,1
26355,-90.9090909090909,4,2,1,70,0,1
26506,-90.9090909090909,4,2,1,5,0,1
26583,-90.9090909090909,4,2,1,70,0,1
27870,-90.9090909090909,4,2,1,5,0,1
27946,-90.9090909090909,4,2,1,70,0,1
29764,-100,4,2,1,50,0,0
30446,-100,4,2,1,5,0,0
30598,-100,4,2,1,50,0,0
32416,-100,4,2,1,50,0,0
33097,-100,4,2,1,5,0,0
33174,-100,4,2,1,50,0,0
33325,-100,4,2,1,5,0,0
33401,-100,4,2,1,50,0,0
33780,-100,4,2,1,5,0,0
33855,-100,4,2,1,50,0,0
40597,-100,4,2,1,5,0,0
40674,-100,4,2,1,50,0,0
41052,-100,4,2,1,5,0,0
41128,-100,4,2,1,50,0,0
42340,-100,4,2,1,5,0,0
42416,-100,4,2,1,50,0,0
44310,-133.333333333333,4,2,1,50,0,0
46583,-100,4,2,1,50,0,0
51280,-100,4,2,1,5,0,0
51583,-100,4,2,1,50,0,0
61355,-100,4,2,1,5,0,0
61507,-100,4,2,1,50,0,0
61658,-100,4,2,1,5,0,0
61734,-100,4,2,1,50,0,0
66128,-100,4,2,1,70,0,0
66279,-100,4,2,1,5,0,0
66355,-100,4,2,1,70,0,0
66506,-100,4,2,1,5,0,0
66583,-100,4,2,1,70,0,0
69915,-100,4,2,1,5,0,0
69992,-100,4,2,1,70,0,0
70143,-100,4,2,1,5,0,0
70219,-100,4,2,1,70,0,0
73552,-100,4,2,1,5,0,0
73628,-100,4,2,1,70,0,0
73779,-100,4,2,1,5,0,0
73855,-100,4,2,1,70,0,0
77416,-100,4,2,1,5,0,0
77492,-100,4,2,1,70,0,0
79310,-124.034734589208,4,2,1,70,0,0
79537,-100,4,2,1,70,0,0
80674,-90.9090909090909,4,2,1,70,0,1
80825,-90.9090909090909,4,2,1,5,0,1
80901,-90.9090909090909,4,2,1,70,0,1
81052,-90.9090909090909,4,2,1,5,0,1
81128,-90.9090909090909,4,2,1,70,0,1
84461,-90.9090909090909,4,2,1,5,0,1
84537,-90.9090909090909,4,2,1,70,0,1
84688,-90.9090909090909,4,2,1,5,0,1
84765,-90.9090909090909,4,2,1,70,0,1
86052,-90.9090909090909,4,2,1,5,0,1
86128,-90.9090909090909,4,2,1,70,0,1
87492,-100,4,2,1,70,0,0
88401,-100,4,2,1,65,0,0
88855,-100,4,2,1,60,0,0
89310,-100,4,2,1,55,0,0
89764,-100,4,2,1,50,0,0
90219,-100,4,2,1,45,0,0
90674,-100,4,2,1,40,0,0
91128,-100,4,2,1,35,0,0
91583,-100,4,2,1,30,0,0
92037,-100,4,2,1,25,0,0
92492,-100,4,2,1,20,0,0
92946,-100,4,2,1,15,0,0
93401,-100,4,2,1,10,0,0
93855,-100,4,2,1,5,0,0

[Colours]
Combo1 : 255,164,246
Combo2 : 109,69,245
Combo3 : 107,198,245
Combo4 : 245,189,153

[HitObjects]
256,192,674,12,2,6583,0:3:0:0:
96,32,7037,5,0,1:0:0:0:
154,96,7189,2,0,L|139:236,1,133.333333333333,0|0,1:0|1:0,0:0:0:0:
223,328,7719,2,0,L|226:363,2,33.3333333333333,0|0|0,1:0|1:0|1:0,0:0:0:0:
253,296,7946,6,0,P|285:291|320:313,1,66.6666666666667,2|0,3:2|0:0,0:0:0:0:
355,289,8174,2,0,P|381:308|390:348,1,66.6666666666667,2|0,1:2|0:0,0:0:0:0:
423,369,8401,2,0,L|533:353,1,100,2|0,3:2|1:0,0:0:0:0:
481,277,8780,6,0,L|471:211,1,66.6666666666667,2|0,0:2|0:0,0:0:0:0:
430,196,9007,2,0,P|415:149|439:107,1,100,2|2,0:2|0:2,0:0:0:0:
478,87,9310,2,0,P|492:40|468:-1,1,100,0|2,3:2|1:2,0:0:0:0:
338,1,9764,6,0,L|346:117,1,100,2|2,3:2|1:2,0:0:0:0:
233,168,10219,2,0,L|241:52,1,100,2|2,3:2|1:2,0:0:0:0:
166,21,10598,5,0,0:0:0:0:
166,21,10674,2,0,P|123:27|101:57,1,66.6666666666667,2|2,3:2|0:2,0:0:0:0:
64,50,10901,2,0,P|47:90|62:124,1,66.6666666666667,2|2,1:2|0:2,0:0:0:0:
84,141,11128,1,0,0:0:0:0:
0,232,11355,1,2,1:3:0:0:
91,323,11583,6,0,P|124:330|156:323,1,66.6666666666667,2|0,3:2|0:0,0:0:0:0:
199,331,11810,2,0,P|221:306|230:274,1,66.6666666666667,2|0,1:2|0:0,0:0:0:0:
212,235,12037,2,0,L|222:133,1,100,2|0,3:2|1:0,0:0:0:0:
184,57,12416,6,0,P|219:47|257:59,1,66.6666666666667,2|0,0:2|0:0,0:0:0:0:
281,26,12643,2,0,L|396:39,1,100,2|2,0:2|0:2,0:0:0:0:
414,10,12946,2,0,L|425:109,1,100,2|2,3:2|1:2,0:0:0:0:
507,210,13401,6,0,P|522:262|490:309,1,100,2|2,3:2|1:2,0:0:0:0:
386,359,13855,2,0,P|354:340|312:349,1,66.6666666666667,2|2,3:2|1:2,0:0:0:0:
297,308,14083,2,0,P|265:327|223:318,1,66.6666666666667,2|2,0:2|0:2,0:0:0:0:
200,301,14310,1,0,0:0:0:0:
128,350,14461,5,0,1:0:0:0:
128,350,14537,2,0,L|14:369,1,100,0|0,1:0|1:0,0:0:0:0:
45,237,14992,2,0,L|77:231,2,33.3333333333333,2|0|2,3:2|1:0|1:2,0:0:0:0:
13,207,15219,6,0,P|4:175|14:143,1,66.6666666666667,2|0,3:2|0:0,0:0:0:0:
56,131,15446,2,0,P|79:107|111:100,1,66.6666666666667,2|0,1:2|0:0,0:0:0:0:
140,67,15674,2,0,L|268:83,1,100,2|0,3:2|1:0,0:0:0:0:
309,129,16052,6,0,P|351:131|377:95,1,66.6666666666667,2|0,0:2|0:0,0:0:0:0:
398,84,16280,2,0,L|410:197,1,100,2|2,0:2|0:2,0:0:0:0:
442,211,16583,2,0,L|430:324,1,100,2|2,3:2|1:2,0:0:0:0:
318,374,17037,6,0,P|280:344|231:340,1,100,2|2,3:2|1:2,0:0:0:0:
126,263,17492,2,0,P|164:232|213:228,1,100,2|2,3:2|1:2,0:0:0:0:
267,161,17870,1,0,0:0:0:0:
267,161,17946,2,0,L|256:86,1,66.6666666666667,2|2,3:2|0:2,0:0:0:0:
225,64,18174,2,0,P|266:62|291:36,1,66.6666666666667,2|2,1:2|0:2,0:0:0:0:
315,16,18401,1,0,0:0:0:0:
439,51,18628,1,2,1:3:0:0:
404,175,18855,6,0,L|415:283,1,100,2|2,3:2|1:2,0:0:0:0:
294,327,19310,2,0,L|305:219,1,100,2|2,3:2|1:2,0:0:0:0:
240,168,19689,1,0,0:0:0:0:
240,168,19764,2,0,P|201:166|166:193,1,66.6666666666667,2|2,3:2|0:2,0:0:0:0:
140,155,19992,2,0,P|111:181|105:225,1,66.6666666666667,2|2,1:2|0:2,0:0:0:0:
58,328,20370,2,0,B|120:322|99:356|167:346,1,100,2|2,1:2|0:2,0:0:0:0:
193,367,20674,6,0,P|221:328|278:337,1,100,2|2,3:2|1:2,0:0:0:0:
378,355,21128,2,0,L|458:345,1,40.3112887414927,2|0,3:2|0:0,0:0:0:0:
451,365,21355,2,0,L|461:285,1,66.6666666666667,0|2,0:0|0:2,0:0:0:0:
485,267,21583,1,0,0:0:0:0:
503,184,21734,1,0,1:0:0:0:
503,184,21810,2,0,P|519:137|495:77,1,100,0|0,3:0|1:0,0:0:0:0:
396,32,22264,2,0,L|405:-5,2,33.3333333333333,2|2|2,1:2|1:2|1:2,0:0:0:0:
361,47,22492,6,0,P|329:38|290:50,1,73.3333355712891,2|0,3:2|0:0,0:0:0:0:
244,39,22719,2,0,P|220:62|211:101,1,73.3333355712891,10|0,1:2|0:0,0:0:0:0:
190,143,22946,2,0,L|206:258,1,110.000003356934,2|8,3:2|1:2,0:0:0:0:
191,346,23325,6,0,P|238:343|268:318,1,73.3333355712891,2|0,0:2|0:0,0:0:0:0:
300,353,23552,2,0,L|422:364,1,110.000003356934,2|2,0:2|0:2,0:0:0:0:
454,380,23855,2,0,P|486:323|461:268,1,110.000003356934,2|8,3:2|1:2,0:0:0:0:
374,179,24310,6,0,L|360:39,1,110.000003356934,2|10,3:2|1:2,0:0:0:0:
237,137,24764,2,0,L|223:277,1,110.000003356934,2|10,3:2|1:2,0:0:0:0:
154,310,25143,1,0,0:0:0:0:
154,310,25219,2,0,P|110:318|85:302,1,73.3333355712891,2|2,3:2|0:2,0:0:0:0:
79,256,25446,2,0,P|50:221|51:192,1,73.3333355712891,14|2,1:2|0:2,0:0:0:0:
86,162,25674,5,0,0:0:0:0:
151,35,25901,1,2,1:3:0:0:
228,155,26128,6,0,L|236:232,1,73.3333355712891,2|0,3:2|0:0,0:0:0:0:
271,259,26355,2,0,L|263:336,1,73.3333355712891,10|0,1:2|0:0,0:0:0:0:
304,358,26583,2,0,P|366:368|406:334,1,110.000003356934,2|8,3:2|1:2,0:0:0:0:
493,363,26961,6,0,L|486:285,1,73.3333355712891,2|0,0:2|0:0,0:0:0:0:
456,252,27189,2,0,P|490:220|471:150,1,110.000003356934,2|2,0:2|0:2,0:0:0:0:
443,134,27492,2,0,P|409:102|428:32,1,110.000003356934,2|10,3:2|1:2,0:0:0:0:
279,3,27946,6,0,P|220:4|171:64,1,110.000003356934,2|10,3:2|1:2,0:0:0:0:
122,109,28325,1,2,1:2:0:0:
122,109,28401,2,0,P|167:112|197:137,1,73.3333355712891,2|2,3:2|1:2,0:0:0:0:
236,133,28628,2,0,P|255:173|249:211,1,73.3333355712891,10|2,0:2|0:2,0:0:0:0:
184,326,29007,1,8,1:2:0:0:
184,326,29083,2,0,B|243:316|228:353|290:343,1,110.000003356934,4|12,1:2|1:2,0:0:0:0:
429,312,29537,2,0,L|436:355,2,36.6666677856446,2|2|2,1:2|0:2|0:2,0:0:0:0:
456,278,29764,6,0,P|478:247|460:187,1,100,2|2,3:2|0:2,0:0:0:0:
503,113,30143,2,0,P|487:78|426:64,2,100,2|2|2,0:2|0:2|0:2,0:0:0:0:
386,166,30825,1,2,0:2:0:0:
386,166,30901,2,0,L|274:178,2,100,0|0|2,0:0|3:0|0:2,0:0:0:0:
275,97,31583,6,0,P|227:109|203:160,1,100,2|2,3:2|0:2,0:0:0:0:
129,194,31961,2,0,P|115:241|147:287,2,100,2|2|2,0:2|0:2|0:2,0:0:0:0:
242,257,32643,1,2,1:2:0:0:
242,257,32719,2,0,L|321:268,1,66.6666666666667,0|2,1:2|0:2,0:0:0:0:
337,297,32946,2,0,L|416:286,1,66.6666666666667,2|0,3:2|0:0,0:0:0:0:
426,250,33174,2,0,L|505:261,1,66.6666666666667,2|0,0:2|0:0,0:0:0:0:
499,216,33401,6,0,P|528:176|518:128,1,100,2|2,3:2|0:2,0:0:0:0:
415,49,33855,2,0,P|386:88|396:136,1,100,2|2,3:2|0:2,0:0:0:0:
324,186,34234,1,2,0:2:0:0:
324,186,34310,2,0,L|234:171,1,66.6666666666667,0|2,0:0|0:2,0:0:0:0:
228,206,34537,2,0,L|138:221,1,66.6666666666667,2|2,0:2|0:2,0:0:0:0:
79,108,34916,2,0,P|52:148|61:196,1,100,2|2,0:2|0:2,0:0:0:0:
48,236,35219,6,0,P|70:260|54:327,1,100,2|2,3:2|0:2,0:0:0:0:
174,382,35674,2,0,L|281:371,1,100,2|2,3:2|0:2,0:0:0:0:
363,382,36052,1,2,0:2:0:0:
363,382,36128,2,0,P|371:344|362:314,1,66.6666666666667,0|2,0:0|0:2,0:0:0:0:
333,287,36355,2,0,P|325:249|334:219,1,66.6666666666667,0|2,0:0|0:2,0:0:0:0:
363,192,36583,1,2,3:2:0:0:
355,105,36734,1,0,0:0:0:0:
355,105,36810,2,0,P|316:102|289:86,1,66.6666666666667,2|0,1:2|0:0,0:0:0:0:
292,45,37037,6,0,L|174:36,1,100,2|2,3:2|0:2,0:0:0:0:
117,81,37416,2,0,L|-1:90,1,100,2|2,0:2|0:2,0:0:0:0:
7,204,37870,2,0,P|50:197|100:249,1,100,2|2,0:2|0:2,0:0:0:0:
135,215,38174,2,0,L|215:228,1,66.6666666666667,0|2,0:0|0:2,0:0:0:0:
240,207,38401,1,2,3:2:0:0:
331,298,38628,2,0,L|323:342,2,33.3333333333333,2|2|2,0:2|0:2|0:2,0:0:0:0:
304,263,38855,6,0,P|351:271|391:244,1,100,0|2,3:0|0:2,0:0:0:0:
478,253,39234,2,0,P|509:216|505:167,1,100,2|2,0:2|1:2,0:0:0:0:
422,66,39689,2,0,L|317:75,1,100,2|2,0:2|0:2,0:0:0:0:
292,106,39992,2,0,P|257:107|226:85,1,66.6666666666667,2|2,0:2|0:2,0:0:0:0:
199,61,40219,1,2,3:2:0:0:
120,91,40370,1,0,1:0:0:0:
120,91,40446,1,2,1:3:0:0:
6,55,40674,6,0,L|13:165,1,100,2|2,3:2|0:2,0:0:0:0:
125,219,41128,2,0,L|118:329,1,100,2|2,3:2|0:2,0:0:0:0:
189,368,41507,1,2,0:2:0:0:
189,368,41583,2,0,P|222:370|259:352,1,66.6666666666667,0|2,0:0|0:3,0:0:0:0:
295,361,41810,2,0,P|313:333|316:292,1,66.6666666666667,2|2,0:3|0:3,0:0:0:0:
242,193,42189,2,0,L|236:102,1,66.6666666666667,2|0,1:2|0:0,0:0:0:0:
212,90,42416,6,0,P|279:97|325:42,1,133.333333333333,2|0,3:2|0:0,0:0:0:0:
357,27,42795,2,0,L|351:-14,2,33.3333333333333,0|0|2,0:0|0:0|1:2,0:0:0:0:
429,74,43098,2,0,P|457:124|441:178,1,100,2|2,1:2|1:2,0:0:0:0:
419,195,43401,6,0,L|328:204,1,66.6666666666667,0|2,0:0|1:2,0:0:0:0:
318,228,43628,2,0,L|227:219,1,66.6666666666667,2|0,3:2|1:2,0:0:0:0:
226,185,43855,2,0,L|222:151,2,33.3333333333333,2|2|2,3:2|1:2|1:2,0:0:0:0:
188,207,44083,2,0,L|184:240,2,33.3333333333333,2|2|2,3:2|1:2|1:2,0:0:0:0:
102,260,44310,6,0,P|42:98|250:223,1,600.000022888185,4|0,3:2|3:0,0:0:0:0:
417,378,46583,6,0,P|389:321|404:267,1,100,2|0,3:2|0:0,0:0:0:0:
328,197,47037,2,0,P|349:136|431:102,2,150,2|0|0,0:2|0:0|3:0,0:0:0:0:
424,197,47946,6,0,B|237:161|332:309|151:280,1,300,2|2,3:2|0:2,0:0:0:0:
157,280,48855,2,0,P|205:199|261:368,1,400,2|0,3:2|3:0,0:0:0:0:
40,362,50446,6,0,L|-18:353,2,33.3333333333333,2|0|0,0:2|0:0|1:0,0:0:0:0:
64,324,50674,2,0,P|56:253|1:174,2,150,2|0|2,3:2|0:0|1:2,0:0:0:0:
238,316,51583,6,0,B|396:355|325:188|511:239,1,300,2|2,3:2|0:2,0:0:0:0:
505,237,52492,2,0,P|409:306|347:107,1,400,2|2,3:2|3:2,0:0:0:0:
462,22,54083,5,2,0:2:0:0:
462,22,54310,2,0,L|448:194,2,150,2|0|2,3:2|0:0|1:2,0:0:0:0:
343,72,55143,2,0,L|341:107,1,33.3333333333333,0|0,0:0|3:2,0:0:0:0:
274,153,55901,5,2,0:2:0:0:
274,153,56052,1,2,0:2:0:0:
208,105,56507,2,0,L|205:72,1,33.3333333333333,0|2,0:0|3:2,0:0:0:0:
151,21,57037,6,0,P|73:24|38:143,1,200,2|2,3:2|3:2,0:0:0:0:
106,233,57719,1,2,0:2:0:0:
106,233,57870,2,0,L|93:355,2,100,2|2|2,1:2|1:2|0:2,0:0:0:0:
140,203,58401,2,0,P|180:199|230:236,1,100,2|0,1:2|3:0,0:0:0:0:
262,356,58855,5,2,3:2:0:0:
339,368,59310,1,2,3:2:0:0:
416,380,59689,1,2,3:2:0:0:
483,329,59992,6,0,P|501:297|484:254,1,66.6666666666667,0|0,1:0|0:0,0:0:0:0:
471,232,60219,2,0,L|487:124,1,100,2|0,3:2|0:0,0:0:0:0:
402,32,60674,6,0,P|360:4|312:8,1,100,2|0,3:2|0:0,0:0:0:0:
220,100,61128,2,0,P|217:149|244:189,1,100,2|0,3:2|0:0,0:0:0:0:
316,238,61507,6,0,L|309:313,1,66.6666666666667,2|0,0:2|0:0,0:0:0:0:
335,339,61734,2,0,P|293:330|244:363,1,100
207,340,62037,2,0,L|95:327,1,100,2|0,3:2|0:0,0:0:0:0:
14,237,62492,5,0,3:0:0:0:
14,237,64310,6,0,L|136:227,1,100,2|10,3:2|0:2,0:0:0:0:
242,215,64764,2,0,L|364:205,1,100,2|10,3:2|0:2,0:0:0:0:
470,193,65219,6,0,L|475:132,5,33.3333333333333,2|2|10|10|2|2,0:2|0:2|1:2|3:2|0:2|0:2,0:0:0:0:
411,256,65674,2,0,L|416:317,5,33.3333333333333,10|2|2|2|2|2,1:2|1:2|1:2|1:2|1:2|1:2,0:0:0:0:
341,206,66128,6,0,P|336:174|358:139,1,66.6666666666667,2|0,3:2|0:0,0:0:0:0:
334,104,66356,2,0,P|353:78|393:69,1,66.6666666666667,2|0,1:2|0:0,0:0:0:0:
418,40,66583,2,0,L|308:24,1,100,2|0,3:2|1:0,0:0:0:0:
232,17,66962,6,0,L|242:83,1,66.6666666666667,2|0,0:2|0:0,0:0:0:0:
224,122,67189,2,0,P|177:107|135:131,1,100,2|2,0:2|0:2,0:0:0:0:
92,121,67492,2,0,P|67:162|81:209,1,100,0|2,3:2|1:2,0:0:0:0:
8,316,67946,6,0,L|124:324,1,100,2|2,3:2|1:2,0:0:0:0:
223,382,68401,2,0,L|339:374,1,100,2|2,3:2|1:2,0:0:0:0:
403,338,68780,5,0,0:0:0:0:
403,338,68856,2,0,P|429:303|423:266,1,66.6666666666667,2|2,3:2|0:2,0:0:0:0:
455,245,69083,2,0,P|438:204|404:191,1,66.6666666666667,2|2,1:2|0:2,0:0:0:0:
376,195,69310,1,0,0:0:0:0:
371,71,69537,1,2,1:3:0:0:
243,71,69765,6,0,P|211:92|173:87,1,66.6666666666667,2|0,3:2|0:0,0:0:0:0:
151,120,69992,2,0,P|113:112|90:81,1,66.6666666666667,2|0,1:2|0:0,0:0:0:0:
60,65,70219,2,0,L|50:167,1,100,2|0,3:2|1:0,0:0:0:0:
14,243,70598,6,0,P|49:253|87:241,1,66.6666666666667,2|0,0:2|0:0,0:0:0:0:
107,278,70825,2,0,L|222:291,1,100,2|2,0:2|0:2,0:0:0:0:
240,316,71128,2,0,L|251:217,1,100,2|2,3:2|1:2,0:0:0:0:
370,163,71583,6,0,P|385:111|353:64,1,100,2|2,3:2|1:2,0:0:0:0:
256,1,72037,2,0,P|223:0|195:17,1,66.6666666666667,2|2,3:2|1:2,0:0:0:0:
170,54,72265,2,0,P|138:35|96:44,1,66.6666666666667,2|2,0:2|0:2,0:0:0:0:
74,11,72492,1,0,0:0:0:0:
29,86,72643,5,0,1:0:0:0:
29,86,72719,2,0,L|48:200,1,100,0|0,1:0|1:0,0:0:0:0:
140,273,73174,2,0,L|146:241,2,33.3333333333333,2|0|2,1:2|1:0|1:2,0:0:0:0:
132,315,73401,6,0,P|164:306|196:316,1,66.6666666666667,2|0,3:2|0:0,0:0:0:0:
224,347,73628,2,0,P|247:323|279:316,1,66.6666666666667,2|0,1:2|0:0,0:0:0:0:
319,333,73856,2,0,L|335:205,1,100,2|0,3:2|1:0,0:0:0:0:
332,147,74234,6,0,P|291:152|264:181,1,66.6666666666667,2|0,0:2|0:0,0:0:0:0:
234,144,74462,2,0,L|121:156,1,100,2|2,0:2|0:2,0:0:0:0:
99,180,74765,2,0,L|111:67,1,100,2|2,3:2|1:2,0:0:0:0:
219,11,75219,6,0,P|268:14|307:44,1,100,2|2,3:2|1:2,0:0:0:0:
419,112,75674,2,0,P|369:115|331:146,1,100,2|2,3:2|1:2,0:0:0:0:
285,221,76052,1,0,0:0:0:0:
285,221,76128,2,0,L|274:296,1,66.6666666666667,2|2,3:2|0:2,0:0:0:0:
247,320,76355,2,0,P|288:322|313:348,1,66.6666666666667,2|2,1:2|0:2,0:0:0:0:
338,368,76583,1,0,0:0:0:0:
466,348,76810,1,2,1:3:0:0:
446,220,77037,6,0,L|435:112,1,100,2|2,3:2|1:2,0:0:0:0:
335,37,77492,2,0,L|324:145,1,100,2|2,3:2|1:2,0:0:0:0:
260,194,77871,1,0,0:0:0:0:
260,194,77946,2,0,P|221:196|186:169,1,66.6666666666667,2|2,3:2|0:2,0:0:0:0:
160,207,78174,2,0,P|131:181|125:137,1,66.6666666666667,2|2,1:2|0:2,0:0:0:0:
35,59,78552,2,0,L|23:175,1,100,2|2,1:2|0:2,0:0:0:0:
51,193,78855,6,0,P|81:236|66:286,1,100,2|2,3:2|1:2,0:0:0:0:
160,368,79310,2,0,L|240:358,1,40.3112887414927,2|0,3:2|0:0,0:0:0:0:
225,328,79537,2,0,L|305:338,1,66.6666666666667,0|2,0:0|0:2,0:0:0:0:
323,366,79765,1,0,0:0:0:0:
416,339,79916,1,0,1:0:0:0:
416,339,79992,2,0,P|432:292|408:232,1,100,0|0,3:0|1:0,0:0:0:0:
470,125,80446,2,0,L|507:116,2,33.3333333333333,2|2|2,1:2|1:2|1:2,0:0:0:0:
429,151,80674,6,0,P|393:151|359:126,1,73.3333355712891,2|0,3:2|0:0,0:0:0:0:
323,158,80901,2,0,P|297:132|291:90,1,73.3333355712891,10|0,1:2|0:0,0:0:0:0:
315,56,81128,2,0,L|200:72,1,110.000003356934,2|8,3:2|1:2,0:0:0:0:
110,64,81507,6,0,P|113:111|138:141,1,73.3333355712891,2|0,0:2|0:0,0:0:0:0:
162,164,81734,2,0,L|151:286,1,110.000003356934,2|2,0:2|0:2,0:0:0:0:
177,314,82037,2,0,P|234:282|289:307,1,110.000003356934,2|8,3:2|1:2,0:0:0:0:
392,374,82492,6,0,L|406:234,1,110.000003356934,2|10,3:2|1:2,0:0:0:0:
496,156,82946,2,0,L|482:16,1,110.000003356934,2|10,3:2|1:2,0:0:0:0:
397,21,83325,1,0,0:0:0:0:
397,21,83401,2,0,P|353:13|328:29,1,73.3333355712891,2|2,3:2|0:2,0:0:0:0:
322,75,83628,2,0,P|293:110|294:139,1,73.3333355712891,14|2,1:2|0:2,0:0:0:0:
259,170,83856,5,12,3:2:0:0:
158,69,84083,1,2,1:3:0:0:
122,207,84310,6,0,L|130:284,1,73.3333355712891,2|0,3:2|0:0,0:0:0:0:
110,323,84537,2,0,L|187:331,1,73.3333355712891,10|0,1:2|0:0,0:0:0:0:
218,363,84765,2,0,P|263:334|315:346,1,110.000003356934,2|8,3:2|1:2,0:0:0:0:
403,382,85143,6,0,L|396:304,1,73.3333355712891,2|0,0:2|0:0,0:0:0:0:
427,271,85371,2,0,P|390:232|400:180,1,110.000003356934,2|2,0:2|0:2,0:0:0:0:
426,140,85674,2,0,L|300:150,1,110.000003356934,2|10,3:2|1:2,0:0:0:0:
209,54,86128,6,0,P|150:55|101:115,1,110.000003356934,2|10,3:2|1:2,0:0:0:0:
75,174,86507,1,2,1:2:0:0:
75,174,86583,2,0,L|87:252,1,73.3333355712891,2|2,3:2|1:2,0:0:0:0:
123,276,86810,2,0,L|111:354,1,73.3333355712891,10|2,0:2|0:2,0:0:0:0:
256,377,87189,1,8,1:2:0:0:
256,377,87265,2,0,B|315:387|300:350|362:360,1,110.000003356934,4|12,1:2|1:2,0:0:0:0:
