osu file format v14

[General]
AudioFilename: audio.mp3
AudioLeadIn: 0
PreviewTime: 21734
Countdown: 0
SampleSet: Soft
StackLeniency: 0
Mode: 0
LetterboxInBreaks: 0
WidescreenStoryboard: 1

[Editor]
DistanceSpacing: 2.5
BeatDivisor: 12
GridSize: 16
TimelineZoom: 2.311998

[Metadata]
Title:Coconut Mall
TitleUnicode:ココナッツモール
Artist:Ohta Asuka, Nagamatsu Ryo
ArtistUnicode:太田あすか、永松亮
Creator:downpour
Version:blixys' Extra
Source:Mario Kart Wii
Tags:nintendo kokonattsu moru hayazaki ost platinum soundtrack video game instrumental jazz fanzhen0019 fanzhen blixys bakari riffy big chungus big_chungus frontier -_frontier_- celektus 太田あすか 永松亮 マリオカートWii
BeatmapID:2456973
BeatmapSetID:1063080

[Difficulty]
HPDrainRate:4.5
CircleSize:3.8
OverallDifficulty:8.6
ApproachRate:9.3
SliderMultiplier:3.39999990463257
SliderTickRate:1

[Events]
//Background and Video events
0,0,"kaffirlime.jpg",0,0
//Break Periods
//Storyboard Layer 0 (Background)
//Storyboard Layer 1 (Fail)
//Storyboard Layer 2 (Pass)
//Storyboard Layer 3 (Foreground)
//Storyboard Layer 4 (Overlay)
//Storyboard Sound Samples
Sample,6825,0,"soft-hitfinish2.wav",70
Sample,14552,0,"burst.wav",70
Sample,21825,0,"burst.wav",70
Sample,29325,0,"burst.wav",70
Sample,44325,0,"soft-hitfinish2.wav",70
Sample,72734,0,"burst.wav",70
Sample,80007,0,"burst.wav",70

[TimingPoints]
674,454.545454545455,4,2,1,30,1,0
674,-100,4,2,1,30,0,0
6961,-100,4,2,1,35,0,0
6999,-100,4,2,1,25,0,0
7037,-100,4,2,1,35,0,0
7492,-100,4,2,1,50,0,0
7567,-100,4,2,1,25,0,0
7643,-100,4,2,1,35,0,0
7719,-100,4,2,1,45,0,0
7795,-100,4,2,1,55,0,0
7870,-100,4,2,1,60,0,0
7946,-100,4,2,1,70,0,0
21128,-73.2994506880431,4,2,1,70,0,0
21242,-124.576440103648,4,2,1,70,0,0
21507,-100,4,2,1,70,0,0
22492,-66.6666666666667,4,2,1,70,0,1
29310,-100,4,2,1,70,0,1
29764,-59.0277761220932,4,2,1,70,0,0
29992,-118.055552244186,4,2,1,70,0,0
30143,-59.0277761220932,4,2,1,70,0,0
30370,-118.055552244186,4,2,1,70,0,0
31583,-59.0277761220932,4,2,1,70,0,0
31811,-118.055552244186,4,2,1,70,0,0
31962,-59.0277761220932,4,2,1,70,0,0
32189,-118.055552244186,4,2,1,70,0,0
32340,-59.0277761220932,4,2,1,70,0,0
32719,-236.111104488373,4,2,1,70,0,0
33401,-59.0277761220932,4,2,1,70,0,0
33628,-236.111104488373,4,2,1,70,0,0
33855,-59.0277761220932,4,2,1,70,0,0
34083,-236.111104488373,4,2,1,70,0,0
34916,-118.055552244186,4,2,1,70,0,0
35219,-59.0277761220932,4,2,1,70,0,0
35598,-118.055552244,4,2,1,50,0,0
36583,-59.0277761220932,4,2,1,70,0,0
37037,-59.0277761220932,4,2,1,70,0,0
37265,-118.055552244186,4,2,1,70,0,0
37416,-59.0277761220932,4,2,1,70,0,0
37643,-118.055552244186,4,2,1,70,0,0
38855,-59.0277761220932,4,2,1,70,0,0
39083,-118.055552244186,4,2,1,70,0,0
39234,-59.0277761220932,4,2,1,70,0,0
39461,-118.055552244186,4,2,1,70,0,0
40674,-59.0277761220932,4,2,1,70,0,0
40901,-236.111104488373,4,2,1,70,0,0
41128,-59.0277761220932,4,2,1,70,0,0
41356,-236.111104488373,4,2,1,70,0,0
42416,-59.0277761220932,4,2,1,70,0,0
43855,-59.0277761220932,4,2,1,70,0,0
44310,-118.055552244,4,2,1,50,0,0
51583,-111.111111111111,4,2,1,50,0,0
53174,-118.055552244,4,2,1,50,0,0
55219,-100,4,2,1,50,0,0
58855,-95.757362798416,4,2,1,50,0,0
62492,-200,4,2,1,50,0,0
64310,-104.166666666667,4,2,1,50,0,0
65219,-142.857142857143,4,2,1,50,0,0
65446,-125,4,2,1,50,0,0
65674,-111.111111111111,4,2,1,50,0,0
65901,-100,4,2,1,50,0,0
66128,-100,4,2,1,70,0,0
79310,-74.2574236803318,4,2,1,70,0,0
79424,-124.576440103648,4,2,1,70,0,0
79689,-100,4,2,1,70,0,0
80674,-66.6666666666667,4,2,1,70,0,1
87492,-100,4,2,1,70,0,1
88022,-100,4,2,1,70,0,0
88401,-100,4,2,1,65,0,0
88855,-100,4,2,1,60,0,0
89310,-100,4,2,1,55,0,0
89764,-100,4,2,1,50,0,0
90219,-100,4,2,1,45,0,0
90674,-100,4,2,1,40,0,0
91128,-100,4,2,1,35,0,0
91583,-100,4,2,1,30,0,0
92037,-100,4,2,1,25,0,0
92492,-100,4,2,1,20,0,0
92946,-100,4,2,1,15,0,0
93401,-100,4,2,1,10,0,0
93855,-100,4,2,1,5,0,0

[Colours]
Combo1 : 255,164,246
Combo2 : 109,69,245
Combo3 : 107,198,245
Combo4 : 245,189,153

[HitObjects]
256,192,674,12,2,6128,0:2:0:0:
256,0,6583,5,2,0:3:0:0:
15,135,6961,6,0,L|33:342,2,28.6166658639909,0|0|0,1:0|1:0|1:0,1:0:0:0:
29,294,7189,1,0,1:0:0:0:
29,294,7492,6,0,L|33:351,2,56.6666650772095,0|0|0,1:0|1:0|1:0,0:0:0:0:
12,107,7719,2,0,L|6:47,2,56.8593317384721,0|0|0,1:0|1:0|1:0,0:0:0:0:
5,39,7946,6,0,B|35:12|76:5|111:15,1,113.718663476944,2|0,3:2|0:0,0:0:0:0:
7,51,8174,2,0,B|37:24|78:17|113:27,1,113.718663476944,2|0,1:2|0:0,0:0:0:0:
302,130,8401,6,0,B|267:120|226:127|196:154|196:154|196:154|196:154|173:125|136:108|96:113,1,226.689326974869,2|0,3:2|0:0,0:0:0:0:
38,184,8780,6,0,B|65:214|72:255|62:290,1,113.718663476944,2|0,0:2|0:0,0:0:0:0:
50,293,9007,2,0,B|60:258|53:217|26:187,1,113.718663476944,2|0,0:2|0:0,0:0:0:0:
130,358,9234,5,2,0:2:0:0:
133,346,9310,2,0,B|163:373|204:380|239:370,1,113.718663476944,0|0,3:2|0:0,0:0:0:0:
225,161,9537,2,0,B|215:196|222:237|249:267,1,113.718663476944,2|0,1:2|0:0,0:0:0:0:
430,175,9764,6,0,B|395:165|354:172|324:199,1,113.718663476944,2|0,3:2|0:0,0:0:0:0:
348,304,9992,2,0,B|383:314|424:307|454:280,1,113.718663476944,2|0,1:2|0:0,0:0:0:0:
432,185,10219,6,0,B|397:175|356:182|326:209,1,113.718663476944,2|0,3:2|0:0,0:0:0:0:
350,314,10446,2,0,B|385:324|426:317|456:290,1,114.466663455963,2|0,1:2|0:0,0:0:0:0:
502,68,10674,2,0,B|472:41|431:34|396:44,1,113.718663476944,2|2,3:2|0:2,0:0:0:0:
347,112,10901,1,2,1:2:0:0:
347,112,11052,6,0,B|317:109|289:121|272:143|272:143|272:143|272:143|249:123|218:118|192:125,1,169.999995231629,2|0,0:2|1:0,0:0:0:0:
139,187,11355,2,0,B|129:222|136:263|163:293,1,113.718663476944,2|0,1:3|0:0,0:0:0:0:
512,344,11583,6,0,B|482:371|441:378|406:368,1,113.718663476944,2|0,3:2|0:0,0:0:0:0:
509,332,11810,2,0,B|479:359|438:366|403:356,1,113.333330154419,2|0,1:2|0:0,0:0:0:0:
375,274,12037,6,0,B|340:264|299:271|269:298|269:298|269:298|269:298|246:269|209:252|169:257,1,227.437326953888,2|0,3:2|0:0,0:0:0:0:
24,352,12416,2,0,B|54:325|95:318|130:328,1,113.718663476944,2|0,0:2|0:0,0:0:0:0:
133,340,12643,2,0,B|98:330|57:337|27:364,1,113.718663476944,2|0,0:2|0:0,0:0:0:0:
209,243,12870,1,2,0:2:0:0:
212,231,12946,2,0,B|177:241|136:234|106:207,1,113.718663476944,2|0,3:2|0:0,0:0:0:0:
294,123,13174,2,0,B|264:150|223:157|188:147,1,112.970663497925,2|0,1:2|0:0,0:0:0:0:
0,111,13401,6,0,B|18:106|38:110|53:123|53:123|53:123|53:123|64:108|83:100|103:102,1,113.718663476944,2|0,3:2|0:0,0:0:0:0:
105,113,13628,2,0,B|85:110|66:119|55:134|55:134|55:134|55:134|40:120|20:116|2:122,1,113.718663476944,2|0,1:2|1:2,0:0:0:0:
131,32,13855,2,0,B|161:5|202:-2|237:8,1,113.718663476944,2|2,3:2|1:2,0:0:0:0:
286,77,14083,1,2,0:2:0:0:
286,77,14234,6,0,B|316:73|344:86|361:108|361:108|361:108|361:108|383:88|414:82|441:90,1,169.455995246888,2|0,0:2|1:0,0:0:0:0:
449,93,14537,1,0,1:0:0:0:
449,93,14764,5,0,1:0:0:0:
464,108,14840,1,0,1:0:0:0:
468,129,14916,1,0,1:0:0:0:
398,162,14992,5,2,3:2:0:0:
383,177,15067,1,0,1:0:0:0:
379,198,15143,1,2,1:2:0:0:
403,268,15219,6,0,B|438:258|479:265|509:292,1,113.718663476944,2|0,3:2|0:0,0:0:0:0:
398,280,15446,2,0,B|435:270|476:277|506:304,1,114.466663455963,2|0,1:2|0:0,0:0:0:0:
333,334,15674,6,0,B|293:329|256:346|233:375|233:375|233:375|233:375|203:348|162:341|127:351,1,226.689326974869,2|0,3:2|0:0,0:0:0:0:
13,225,16052,2,0,B|40:255|47:296|37:331,1,112.970663497925,2|0,0:2|0:0,0:0:0:0:
25,334,16280,2,0,B|35:299|28:258|1:228,1,112.970663497925,2|0,0:2|0:0,0:0:0:0:
59,149,16507,5,2,0:2:0:0:
71,146,16583,2,0,B|44:116|37:75|47:40,1,113.718663476944,2|0,3:2|0:0,0:0:0:0:
200,0,16810,2,0,B|169:17|145:51|142:92,1,113.333330154419,2|0,1:2|0:0,0:0:0:0:
283,158,17037,6,0,B|248:148|207:155|177:182,1,113.718663476944,2|0,3:2|0:0,0:0:0:0:
201,287,17264,2,0,B|236:297|277:290|307:263,1,114.466663455963,2|0,1:2|0:0,0:0:0:0:
285,168,17492,6,0,B|250:158|209:165|179:192,1,113.718663476944,2|0,3:2|0:0,0:0:0:0:
203,297,17719,2,0,B|238:307|279:300|309:273,1,113.333330154419,2|0,1:2|0:0,0:0:0:0:
389,189,17946,2,0,B|379:224|386:265|413:295,1,113.718663476944,2|2,3:2|0:2,0:0:0:0:
512,341,18174,1,2,1:2:0:0:
512,341,18325,6,0,B|486:333|455:339|433:359|433:359|433:359|433:359|415:337|387:324|358:328,1,170.203995225907,2|0,0:2|1:0,0:0:0:0:
347,335,18628,1,2,1:3:0:0:
31,341,18855,6,0,B|61:314|102:307|137:317,1,113.718663476944,2|0,3:2|0:0,0:0:0:0:
140,328,19083,2,0,B|105:318|64:325|34:352,1,113.718663476944,2|0,1:2|0:0,0:0:0:0:
119,211,19310,6,0,B|154:201|195:208|225:235,1,113.718663476944,2|0,3:2|0:0,0:0:0:0:
222,247,19537,2,0,B|192:220|151:213|116:223,1,114.466663455963,2|0,1:2|0:0,0:0:0:0:
105,117,19764,2,0,B|75:144|34:151|-1:141,1,113.718663476944,2|2,3:2|0:2,0:0:0:0:
204,59,19992,1,2,1:2:0:0:
28,33,20143,5,2,0:2:0:0:
32,37,20219,2,0,B|62:10|103:3|138:13,1,113.718663476944,0|2,0:0|1:2,0:0:0:0:
311,83,20446,2,0,B|281:56|240:49|205:59,1,113.718663476944,0|2,0:0|0:2,0:0:0:0:
373,18,20674,6,0,B|403:45|444:52|479:42,1,113.718663476944,2|0,3:2|0:0,0:0:0:0:
483,29,20901,2,0,B|447:40|406:33|376:6,1,113.333330154419,2|0,1:2|0:0,0:0:0:0:
471,128,21128,2,0,B|485:143|493:161|497:179,1,57.981333296458,2|0,3:2|0:0,0:0:0:0:
459,131,21242,2,0,B|486:161|493:202|483:237,1,113.718663476944,2|0,1:2|0:0,0:0:0:0:
378,261,21507,2,0,B|351:231|344:190|354:155,1,113.718663476944,2|0,0:2|0:0,0:0:0:0:
190,246,21734,5,0,1:0:0:0:
274,228,21810,1,0,3:0:0:0:
198,51,22037,5,0,1:0:0:0:
213,53,22113,1,0,1:0:0:0:
229,54,22189,1,0,1:0:0:0:
298,14,22264,5,2,1:2:0:0:
314,15,22340,1,2,1:2:0:0:
330,17,22416,1,2,1:2:0:0:
403,46,22492,6,0,B|396:72|401:103|421:126|421:126|421:126|421:126|399:143|386:170|390:200,1,170.578001700402,2|0,3:2|0:0,0:0:0:0:
460,344,22719,2,0,B|468:318|462:287|442:264|442:264|442:264|442:264|464:247|476:220|473:190,1,170.578001700402,10|0,1:2|0:0,0:0:0:0:
236,187,22946,2,0,B|266:183|294:196|311:218|311:218|311:218|311:218|333:198|364:192|390:200,1,170.578001700402,2|0,3:2|0:0,0:0:0:0:
335,353,23174,2,0,B|357:336|370:308|366:278,1,85.8500008344652,8|0,1:2|0:0,0:0:0:0:
128,274,23325,6,0,B|158:270|186:283|203:305|203:305|203:305|203:305|226:285|257:280|283:287,1,170.578001700402,2|0,0:2|0:0,0:0:0:0:
281,299,23552,2,0,B|255:292|224:297|201:317|201:317|201:317|201:317|184:295|156:282|126:286,1,170.578001700402,2|0,0:2|0:0,0:0:0:0:
3,198,23780,5,2,0:2:0:0:
2,185,23855,2,0,B|28:178|59:183|82:203|82:203|82:203|82:203|99:181|127:168|157:172,1,170.578001700402,2|0,3:2|0:0,0:0:0:0:
155,160,24083,2,0,B|125:156|97:169|80:191|80:191|80:191|80:191|57:171|26:166|0:173,1,169.456001731873,8|0,1:2|0:0,0:0:0:0:
12,62,24310,6,0,B|57:22|118:11|171:26,1,170.578001700402,2|0,3:2|0:0,0:0:0:0:
168,14,24537,2,0,B|116:-1|54:10|9:50,1,171.70000166893,10|0,1:2|0:0,0:0:0:0:
241,67,24764,6,0,B|286:108|348:118|400:103,1,170.578001700402,2|0,3:2|0:0,0:0:0:0:
397,115,24992,2,0,B|344:130|283:120|238:79,1,170.578001700402,10|0,1:2|0:0,0:0:0:0:
482,193,25219,6,0,B|452:189|424:202|407:224|407:224|407:224|407:224|384:204|353:199|327:206,1,170.578001700402,2|2,3:2|0:2,0:0:0:0:
320,214,25446,1,14,1:2:0:0:
461,338,25598,5,2,0:2:0:0:
458,350,25674,2,0,B|406:365|344:354|299:314,1,170.578001700402,0|0,0:0|1:0,0:0:0:0:
296,326,25901,2,0,B|341:366|402:377|455:362,1,170.000001716614,2|0,1:3|0:0,0:0:0:0:
318,239,26128,6,0,B|292:232|261:237|238:257|238:257|238:257|238:257|221:235|194:222|164:226,1,170.578001700402,2|0,3:2|0:0,0:0:0:0:
20,296,26355,2,0,B|46:304|77:298|100:278|100:278|100:278|100:278|117:300|144:312|174:309,1,170.578001700402,10|0,1:2|0:0,0:0:0:0:
56,63,26583,2,0,B|48:89|54:120|74:142|74:142|74:142|74:142|52:159|39:187|43:217,1,170.578001700402,2|0,3:2|0:0,0:0:0:0:
208,118,26810,2,0,B|191:96|163:83|133:87,1,85.8500008344652,8|0,1:2|0:0,0:0:0:0:
376,4,26961,6,0,B|346:0|318:13|301:35|301:35|301:35|301:35|278:15|247:10|221:17,1,171.70000166893,2|0,0:2|0:0,0:0:0:0:
223,29,27189,2,0,B|249:22|280:27|303:47|303:47|303:47|303:47|320:25|348:12|378:16,1,170.578001700402,2|0,0:2|0:0,0:0:0:0:
492,164,27416,5,2,0:2:0:0:
493,151,27492,2,0,B|467:144|436:149|413:169|413:169|413:169|413:169|396:147|368:134|338:138,1,169.456001731873,2|0,3:2|0:0,0:0:0:0:
340,126,27719,2,0,B|370:122|398:135|415:157|415:157|415:157|415:157|438:137|469:132|495:139,1,169.456001731873,10|0,1:2|0:0,0:0:0:0:
481,264,27946,6,0,B|429:249|367:260|322:300,1,170.000001716614,2|0,3:2|0:0,0:0:0:0:
319,288,28174,2,0,B|364:248|425:237|478:252,1,170.578001700402,10|2,1:2|1:2,0:0:0:0:
278,366,28401,2,0,B|225:381|164:370|119:330,1,170.578001700402,2|2,3:2|1:2,0:0:0:0:
111,316,28628,1,10,0:2:0:0:
289,357,28780,1,2,0:2:0:0:
32,112,29007,5,8,1:2:0:0:
25,191,29083,1,4,1:2:0:0:
176,34,29234,5,8,0:2:0:0:
183,113,29310,1,4,1:2:0:0:
400,32,29461,1,0,1:0:0:0:
432,14,29537,1,2,1:2:0:0:
448,16,29613,1,2,0:0:0:0:
464,17,29689,1,2,0:0:0:0:
479,18,29764,6,0,B|471:114|471:114|375:106,1,192,2|0,3:2|0:0,0:0:0:0:
374,122,29992,2,0,B|370:169,1,48,2|0,0:2|0:0,0:0:0:0:
368,185,30143,2,0,B|273:177|273:177|264:273,1,192,2|0,0:2|0:0,0:0:0:0:
280,274,30370,2,0,B|328:278,1,48,2|0,0:2|0:0,0:0:0:0:
112,179,30598,6,0,B|108:227,1,48.0000010663202,2|0,0:2|0:0,0:0:0:0:
178,345,30825,2,0,B|130:341,1,48.0000010663202,2|0,0:2|0:0,0:0:0:0:
8,266,31052,5,2,0:2:0:0:
8,266,31128,1,0,3:0:0:0:
8,266,31355,1,2,0:2:0:0:
8,266,31583,2,0,B|104:275|104:275|112:179,1,192,2|0,3:2|0:0,0:0:0:0:
128,180,31811,2,0,B|176:185,1,48,2|0,0:2|0:0,0:0:0:0:
135,101,31962,2,0,B|143:5|143:5|48:-2,1,192,2|0,0:2|0:0,0:0:0:0:
46,13,32189,2,0,B|42:60,1,48,2|0,0:2|0:0,0:0:0:0:
223,12,32416,2,0,L|414:29,1,192.000004265281,2|0,0:2|0:0,0:0:0:0:
510,37,32643,5,2,1:2:0:0:
504,101,32719,6,0,B|509:53,1,48.0000010663202,0|2,1:2|0:2,0:0:0:0:
387,155,32946,6,0,B|435:159,1,48,2|0,3:2|0:0,0:0:0:0:
435,159,33174,2,0,B|387:155,1,48,2|0,0:2|0:0,0:0:0:0:
483,340,33401,6,0,B|388:332|388:332|396:236,1,192,2|0,3:2|0:0,0:0:0:0:
332,230,33629,2,0,B|380:235,1,48,2|0,0:2|0:0,0:0:0:0:
305,356,33855,2,0,B|210:348|210:348|218:252,1,192,2|0,3:2|1:0,0:0:0:0:
154,247,34083,2,0,B|202:251,1,48,2|2,0:2|0:2,0:0:0:0:
129,357,34310,5,0,0:0:0:0:
37,124,34461,1,2,0:2:0:0:
28,220,34537,1,2,0:2:0:0:
159,6,34689,1,2,0:2:0:0:
159,6,34916,2,0,B|255:15,1,96.0000021326403,2|0,0:2|0:0,0:0:0:0:
438,127,35143,5,2,0:2:0:0:
422,126,35219,2,0,B|326:117|326:117|335:22,1,192,2|0,3:2|0:0,0:0:0:0:
351,23,35446,1,2,0:2:0:0:
415,390,35598,5,0,1:0:0:0:
422,310,35674,2,0,B|430:215,1,96.0000021326403,2|0,3:2|1:0,0:0:0:0:
366,209,35901,2,0,B|430:215,1,48.0000010663202,2|0,0:2|0:0,0:0:0:0:
202,251,36052,6,0,B|106:243,1,96.0000021326403,2|0,0:2|0:0,0:0:0:0:
194,347,36280,2,0,B|289:355,1,96.0000021326403,2|0,0:2|0:0,0:0:0:0:
203,235,36507,1,2,0:2:0:0:
202,251,36583,2,0,B|106:243|106:243|98:338,1,192,2|0,3:2|1:0,0:0:0:0:
194,347,36810,2,0,B|289:355|289:355|298:259,1,192,2|0,1:2|0:0,0:0:0:0:
27,236,37037,6,0,B|35:140|35:140|131:148,1,192,2|0,3:2|0:0,0:0:0:0:
132,133,37265,2,0,B|136:85,1,48,2|0,0:2|0:0,0:0:0:0:
308,148,37416,2,0,B|316:52|316:52|220:44,1,192,2|0,0:2|0:0,0:0:0:0:
219,60,37643,2,0,B|215:108,1,48,2|0,0:2|0:0,0:0:0:0:
487,115,37870,6,0,B|491:68,1,48,2|0,0:2|0:0,0:0:0:0:
414,29,38098,2,0,B|410:77,1,48,2|0,0:2|0:0,0:0:0:0:
398,220,38325,1,2,0:2:0:0:
396,236,38401,1,2,3:2:0:0:
396,236,38628,5,2,0:2:0:0:
395,252,38704,1,2,0:2:0:0:
393,268,38780,1,2,0:2:0:0:
392,284,38855,6,0,B|296:275|296:275|288:371,1,192,0|0,3:0|0:0,0:0:0:0:
272,370,39083,2,0,B|224:365,1,48,2|0,0:2|0:0,0:0:0:0:
81,353,39234,6,0,B|90:251|90:251|1:243,1,192,2|0,0:2|0:0,0:0:0:0:
97,354,39462,2,0,B|145:358,1,48,2|0,1:2|0:0,0:0:0:0:
212,139,39689,2,0,L|199:283,1,144.00000319896,2|2,0:2|0:2,0:0:0:0:
220,44,39992,2,0,L|212:139,1,96.0000021326403,2|2,0:2|0:2,0:0:0:0:
122,67,40219,5,2,3:2:0:0:
313,84,40446,1,2,1:3:0:0:
313,84,40674,6,0,B|409:92|409:92|400:188,1,192,2|0,3:2|0:0,0:0:0:0:
464,194,40902,2,0,B|416:190,1,48,2|0,0:2|0:0,0:0:0:0:
257,352,41128,2,0,B|353:361|353:361|361:265,1,192,2|0,3:2|0:0,0:0:0:0:
425,271,41356,2,0,B|377:266,1,48,2|2,0:2|0:2,0:0:0:0:
178,345,41583,5,0,0:0:0:0:
11,234,41734,1,2,0:3:0:0:
106,243,41810,1,2,0:3:0:0:
75,47,41961,1,2,0:3:0:0:
75,47,42189,2,0,L|71:95,1,48.0000010663202,2|0,1:2|0:0,0:0:0:0:
158,22,42416,1,2,3:2:0:0:
159,6,42492,6,0,B|255:15|255:15|247:110,1,192
262,112,42719,2,0,B|342:119,3,72.0000015994802,0|2|2|2,0:0|0:2|1:2|1:2,0:0:0:0:
255,15,42946,6,0,B|247:110,1,96.0000021326403,2|0,1:2|0:0,0:0:0:0:
240,190,43098,1,2,1:2:0:0:
240,190,43325,6,0,B|231:286|231:286|136:277,1,192,2|0,1:2|0:0,0:0:0:0:
120,276,43552,1,2,1:2:0:0:
104,275,43628,2,0,B|8:266|8:266|16:171,1,192,2|0,3:2|1:2,0:0:0:0:
81,4,43855,6,0,L|85:51,1,48.0000010663202,2|0,3:2|0:2,1:2:0:0:
97,2,43931,2,0,L|101:49,1,48.0000010663202,2|0,1:2|0:2,1:2:0:0:
113,1,44007,2,0,L|117:48,1,48.0000010663202,2|0,1:2|0:2,1:2:0:0:
195,67,44083,6,2,L|199:20,1,48.0000010663202,2|2,3:2|1:2,1:2:0:0:
211,69,44158,2,2,L|215:22,1,48.0000010663202,2|2,1:2|1:2,1:2:0:0:
227,71,44234,2,2,L|231:24,1,48.0000010663202,2|2,1:2|1:2,1:2:0:0:
307,20,44310,6,0,L|316:123,1,96.3264021326409,4|0,3:2|0:0,0:0:0:0:
331,107,44537,2,0,L|323:12,1,96.3264021326409
462,108,44764,6,0,L|452:211,1,96.3264021326409,0|0,3:0|0:0,0:0:0:0:
437,195,44992,2,0,L|446:100,1,96.3264021326409
299,123,45219,6,0,L|308:226,1,96.3264021326409,0|0,3:0|0:0,0:0:0:0:
323,210,45446,2,0,L|315:115,1,96.3264021326409
468,211,45674,6,0,L|458:314,1,95.6928021326399,0|0,3:0|0:0,0:0:0:0:
443,298,45901,2,0,L|452:203,1,95.6928021326399
353,342,46128,6,0,L|250:352,1,95.6928021326399,0|0,3:0|0:0,0:0:0:0:
266,367,46355,2,0,L|361:358,1,96.3264021326409
74,384,46583,6,0,P|56:338|66:293,1,96.3264021326409,2|0,3:2|0:0,0:0:0:0:
73,207,46810,2,0,P|90:252|80:297,1,96.3264021326409,2|0,0:2|0:0,0:0:0:0:
52,123,47037,6,0,P|43:170|59:213,1,96.3264021326409,2|0,0:2|0:0,0:0:0:0:
132,155,47264,1,0,0:0:0:0:
132,155,47416,1,2,0:2:0:0:
140,173,47492,2,0,L|235:164,1,96.3264021326409,0|2,3:0|0:2,0:0:0:0:
244,181,47719,2,0,L|149:190,1,96.3264021326409,0|0,1:0|0:0,0:0:0:0:
0,5,47946,6,0,L|249:29,1,240.499205331602,2|0,3:2|0:0,0:0:0:0:
310,116,48401,2,0,L|405:106,1,96.3264021326409,0|0,3:0|0:0,0:0:0:0:
500,96,48628,1,2,0:2:0:0:
0,20,48855,6,0,L|238:43,1,240.499205331602,2|0,3:2|0:0,0:0:0:0:
310,101,49310,2,0,L|405:91,1,96.3264021326409,0|0,3:0|0:0,0:0:0:0:
500,81,49537,1,0,0:0:0:0:
388,208,49764,6,0,L|491:218,1,96.3264021326409,0|0,3:0|0:0,0:0:0:0:
475,233,49992,2,0,L|380:224,1,96.3264021326409,0|0,0:0|1:0,0:0:0:0:
328,288,50219,2,0,L|233:297,1,96.3264021326409,0|0,3:0|1:0,0:0:0:0:
225,313,50446,2,0,L|320:304,1,96.3264021326409,2|0,0:2|1:0,0:0:0:0:
163,364,50674,6,0,P|145:318|155:273,1,96.3264021326409,2|0,3:2|1:0,0:0:0:0:
166,258,50901,1,0,1:0:0:0:
44,124,51128,6,0,P|62:170|52:215,1,96.3264021326409,0|0,3:0|0:0,0:0:0:0:
41,230,51355,1,2,1:2:0:0:
0,5,51583,6,0,P|112:53|239:28,1,254.999985065461,2|0,3:2|0:0,0:0:0:0:
310,101,52037,2,0,P|357:81|406:91,1,101.999994026184,0|0,3:0|0:0,0:0:0:0:
479,156,52264,1,2,0:2:0:0:
0,20,52492,6,0,P|112:68|239:43,1,254.999985065461,2|0,3:2|0:0,0:0:0:0:
310,116,52946,2,0,P|356:96|405:106,1,101.999994026184,0|0,3:0|0:0,0:0:0:0:
479,171,53173,1,2,0:2:0:0:
403,291,53401,6,0,L|498:300,1,96.3264021326409,2|0,3:2|0:0,0:0:0:0:
506,316,53628,2,0,L|411:307,1,96.3264021326409
345,214,53855,2,0,L|249:223,1,96.3264021326409,0|0,3:0|0:0,0:0:0:0:
258,239,54083,2,0,L|353:230,1,96.3264021326409,2|0,0:2|0:0,0:0:0:0:
166,381,54310,6,0,P|148:335|158:290,1,96.3264021326409,2|0,3:2|0:0,0:0:0:0:
169,275,54537,2,0,L|105:269,1,48.480001066321
180,259,54689,2,0,P|189:212|172:169,1,96.3264021326409,2|0,0:2|0:0,0:0:0:0:
57,121,54916,1,0,1:0:0:0:
45,136,54992,2,0,P|35:182|53:226,1,96.3264021326409,2|0,1:2|0:0,0:0:0:0:
5,34,55219,6,0,B|35:7|76:0|111:10,1,113.718663476944,0|0,3:2|0:0,0:0:0:0:
114,22,55446,2,0,B|79:12|38:19|8:46,1,114.466663455963
11,58,55674,2,0,B|41:31|82:24|117:34,1,113.718663476944,0|0,3:0|0:0,0:0:0:0:
205,58,55901,2,0,B|220:71|237:80|255:84,1,57.2333317279817,2|0,0:2|0:0,0:0:0:0:
208,46,56052,5,2,0:2:0:0:
211,34,56128,2,0,B|241:61|282:68|317:58,1,113.718663476944,0|0,3:0|0:0,0:0:0:0:
320,46,56355,2,0,B|285:56|244:49|214:22,1,113.718663476944
449,122,56583,6,0,B|422:92|415:51|425:16,1,113.718663476944,2|0,3:2|0:0,0:0:0:0:
413,19,56810,2,0,B|403:54|410:95|437:125,1,113.333330154419,0|0,1:0|0:0,0:0:0:0:
503,234,57037,6,0,B|473:207|432:200|397:210,1,113.718663476944,2|0,3:2|0:0,0:0:0:0:
394,222,57264,2,0,B|429:212|470:219|500:246,1,114.466663455963,0|0,0:0|1:0,0:0:0:0:
439,330,57492,6,0,B|424:343|407:352|389:356,1,57.2333317279817,2|0,3:2|0:0,0:0:0:0:
436,318,57643,1,0,0:0:0:0:
433,306,57719,2,0,B|418:319|401:328|383:332,1,57.2333317279817,2|0,0:2|0:0,0:0:0:0:
299,291,57870,6,0,B|264:301|223:294|193:267,1,113.718663476944,2|0,1:2|0:0,0:0:0:0:
190,279,58098,2,0,B|220:306|261:313|296:303,1,113.718663476944,2|0,1:2|0:0,0:0:0:0:
128,362,58325,5,2,0:2:0:0:
125,350,58401,2,0,B|95:377|54:384|19:374,1,113.718663476944,2|0,1:2|0:0,0:0:0:0:
16,362,58628,2,0,B|51:372|92:365|122:338,1,113.718663476944,0|0,3:0|0:0,0:0:0:0:
29,162,58855,6,0,B|19:197|19:197|26:238|26:238|53:268,1,118.757096220726,2|0,3:2|0:0,0:0:0:0:
65,265,59083,2,0,B|38:235|38:235|31:194|31:194|41:159,1,118.757096220726
131,5,59310,6,0,B|104:35|104:35|97:76|97:76|107:111,1,118.757096220726,2|0,3:2|0:0,0:0:0:0:
113,57,59537,2,0,B|116:38|116:38|143:8,1,59.1773451368973
214,124,59689,6,0,B|187:154|187:154|180:195|180:195|190:230,1,118.757096220726,2|0,3:2|0:0,0:0:0:0:
202,233,59916,2,0,B|192:198|192:198|199:157|199:157|226:127,1,118.757096220726
325,6,60143,5,0,0:0:0:0:
337,3,60219,2,0,B|327:38|327:38|334:79|334:79|361:109,1,118.757096220726,2|0,3:2|1:0,0:0:0:0:
373,106,60446,2,0,B|346:76|346:76|339:35|339:35|349:0,1,119.538237176533
471,355,60674,6,0,B|498:325|498:325|505:284|505:284|495:249,1,118.757096220726,2|0,3:2|0:0,0:0:0:0:
483,246,60901,2,0,B|493:281|493:281|486:322|486:322|459:352,1,118.354690808597
408,208,61128,6,0,B|418:173|418:173|411:132|411:132|384:102,1,119.538237176533,2|0,3:2|0:0,0:0:0:0:
373,106,61355,2,0,B|400:136|400:136|403:155,1,60.5502595440734
326,312,61507,6,0,B|336:277|336:277|329:236|329:236|302:206,1,118.354690808597,2|0,0:2|0:0,0:0:0:0:
290,209,61734,2,0,B|317:239|317:239|324:280|324:280|314:315,1,118.354690808597
174,199,61961,5,0,0:0:0:0:
162,196,62037,2,0,B|190:166|190:166|197:125|197:125|187:90,1,119.538237176533,2|0,3:2|1:0,0:0:0:0:
175,89,62264,2,0,B|185:124|185:124|178:165|178:165|151:195,1,118.354690808597
32,32,62492,6,0,L|26:95,1,56.6666650772095,0|0,3:0|0:0,0:0:0:0:
81,196,62719,2,0,L|86:132,1,56.6666650772095,8|0,0:0|0:0,0:0:0:0:
159,43,62946,2,0,L|153:106,1,56.6666650772095,0|0,3:0|0:0,0:0:0:0:
209,208,63174,2,0,L|211:176,1,28.3333325386048,8|0,0:0|0:0,0:0:0:0:
287,54,63325,6,0,L|281:117,1,56.6666650772095
336,219,63552,2,0,L|341:155,1,56.6666650772095
414,65,63780,1,0,0:0:0:0:
414,65,63855,6,0,L|408:128,1,56.6666650772095,0|0,3:0|0:0,0:0:0:0:
209,208,64083,2,0,L|214:144,1,56.6666650772095,8|0,0:0|0:0,0:0:0:0:
279,336,64310,6,0,L|388:346,1,109.052547006374,2|2,0:2|0:2,0:0:0:0:
264,335,64537,2,0,L|155:325,1,109.052547006374,10|2,0:2|1:2,0:0:0:0:
371,344,64764,6,0,L|480:354,1,109.052547006374,2|2,3:2|1:2,0:0:0:0:
172,327,64992,2,0,L|63:317,1,108.335239039041,10|2,0:2|1:2,0:0:0:0:
55,238,65219,5,2,0:0:0:0:
25,234,65294,1,2,0:0:0:0:
0,220,65370,1,10,1:0:0:0:
76,139,65447,5,2,3:0:0:0:
55,112,65522,1,2,0:0:0:0:
49,79,65598,1,2,0:0:0:0:
160,85,65674,5,10,1:0:0:0:
166,47,65749,1,2,1:0:0:0:
189,18,65825,1,2,1:0:0:0:
258,106,65902,5,2,3:0:0:0:
288,84,65977,1,2,1:0:0:0:
326,79,66053,1,2,1:0:0:0:
371,155,66128,6,0,B|401:128|442:121|477:131,1,113.718663476944,2|0,3:2|0:0,0:0:0:0:
374,167,66355,2,0,B|404:140|445:133|480:143,1,114.466663455963,2|0,1:2|0:0,0:0:0:0:
493,259,66583,6,0,B|458:249|417:256|387:283|387:283|387:283|387:283|364:254|327:237|287:242,1,226.689326974869,2|0,3:2|0:0,0:0:0:0:
229,381,66961,6,0,B|239:346|232:305|205:275,1,113.718663476944,2|0,0:2|0:0,0:0:0:0:
193,278,67189,2,0,B|220:308|227:349|217:384,1,113.718663476944,2|0,0:2|0:0,0:0:0:0:
70,296,67416,5,2,0:2:0:0:
82,293,67492,2,0,B|55:263|48:222|58:187,1,113.718663476944,0|0,3:2|0:0,0:0:0:0:
279,115,67719,2,0,B|244:124|212:150|200:189,1,113.718663476944,0|0,1:2|0:0,0:0:0:0:
130,126,67946,6,0,B|100:99|59:92|24:102,1,113.718663476944,2|0,3:2|0:0,0:0:0:0:
176,51,68174,2,0,B|206:24|247:17|282:27,1,113.718663476944,2|0,1:2|0:0,0:0:0:0:
279,15,68401,6,0,B|244:5|203:12|173:39,1,113.718663476944,2|0,3:2|0:0,0:0:0:0:
21,114,68628,2,0,B|56:104|97:111|127:138,1,114.466663455963,2|0,1:2|0:0,0:0:0:0:
151,219,68855,2,0,B|181:246|222:253|257:243,1,113.718663476944,2|2,3:2|0:2,0:0:0:0:
261,138,69083,5,2,1:2:0:0:
261,138,69234,2,0,B|287:130|318:135|340:155|340:155|340:155|340:155|357:134|385:121|415:125,1,169.999995231629,2|0,0:2|1:0,0:0:0:0:
406,208,69537,2,0,B|441:198|482:205|512:232,1,113.718663476944,2|0,1:3|0:0,0:0:0:0:
394,327,69764,6,0,B|424:354|465:361|500:351,1,113.718663476944,2|0,3:2|0:0,0:0:0:0:
391,339,69992,2,0,B|421:366|462:373|497:363,1,113.718663476944,2|0,1:2|0:0,0:0:0:0:
323,282,70219,2,0,B|283:277|246:294|223:323|223:323|223:323|223:323|193:296|152:289|117:299,1,226.689326974869,2|0,3:2|0:0,0:0:0:0:
36,344,70598,2,0,B|46:309|39:268|12:238,1,113.718663476944,2|0,0:2|0:0,0:0:0:0:
0,241,70825,2,0,B|27:271|34:312|24:347,1,114.466663455963,2|0,0:2|0:0,0:0:0:0:
109,217,71052,5,2,0:2:0:0:
121,214,71128,2,0,B|94:184|87:143|97:108,1,113.718663476944,2|0,3:2|0:0,0:0:0:0:
308,117,71355,2,0,B|278:144|237:151|202:141,1,113.333330154419,2|0,1:2|0:0,0:0:0:0:
12,0,71583,6,0,B|32:-2|50:6|62:20|62:20|62:20|62:20|77:7|97:3|115:8,1,113.718663476944,2|0,3:2|0:0,0:0:0:0:
114,19,71810,2,0,B|96:14|76:17|61:31|61:31|61:31|61:31|49:16|31:8|11:10,1,113.718663476944,2|0,1:2|1:2,0:0:0:0:
202,94,72037,2,0,B|232:121|273:128|308:118,1,113.718663476944,2|2,3:2|1:2,0:0:0:0:
275,15,72264,5,2,0:2:0:0:
275,15,72416,2,0,B|301:8|332:13|354:33|354:33|354:33|354:33|371:12|399:0|429:3,1,170.203995225907,2|0,0:2|1:0,0:0:0:0:
448,9,72719,1,0,1:0:0:0:
448,9,72946,5,0,1:0:0:0:
463,24,73022,1,0,1:0:0:0:
467,45,73098,1,0,1:0:0:0:
378,127,73174,5,2,1:2:0:0:
393,112,73249,1,0,1:0:0:0:
414,108,73325,1,2,1:2:0:0:
477,161,73401,6,0,B|467:196|474:237|501:267,1,113.718663476944,2|0,3:2|0:0,0:0:0:0:
465,164,73628,2,0,B|455:199|462:240|489:270,1,114.466663455963,2|0,1:2|0:0,0:0:0:0:
441,331,73855,2,0,B|406:321|365:328|335:355|335:355|335:355|335:355|312:326|275:309|235:314,1,226.689326974869,2|0,3:2|0:0,0:0:0:0:
47,379,74234,2,0,B|82:389|123:382|153:355,1,113.333330154419,2|0,0:2|0:0,0:0:0:0:
150,343,74461,2,0,B|120:370|79:377|44:367,1,113.718663476944,2|0,0:2|0:0,0:0:0:0:
0,236,74689,5,2,0:2:0:0:
3,248,74764,2,0,B|33:221|74:214|109:224,1,114.466663455963,2|0,3:2|0:0,0:0:0:0:
279,171,74992,2,0,B|244:181|203:174|173:147,1,113.718663476944,2|0,1:2|0:0,0:0:0:0:
22,20,75219,6,0,B|12:55|19:96|46:126,1,113.718663476944,2|0,3:2|0:0,0:0:0:0:
173,147,75446,2,0,B|183:112|176:71|149:41,1,113.718663476944,2|0,1:2|0:0,0:0:0:0:
10,23,75674,6,0,B|0:58|7:99|34:129,1,113.718663476944,2|0,3:2|0:0,0:0:0:0:
161,150,75901,2,0,B|171:115|164:74|137:44,1,113.718663476944,2|0,1:2|0:0,0:0:0:0:
227,14,76128,2,0,B|257:41|298:48|333:38,1,113.718663476944,2|2,3:2|0:2,0:0:0:0:
274,130,76355,1,2,1:2:0:0:
274,130,76507,2,0,B|300:122|330:127|353:148|353:148|353:148|353:148|370:126|398:113|428:117,1,169.999995231629,2|0,0:2|1:0,0:0:0:0:
452,133,76810,2,0,B|425:103|418:62|428:27,1,113.718663476944,2|0,1:3|0:0,0:0:0:0:
471,233,77037,6,0,B|481:268|474:309|447:339,1,113.718663476944,2|0,3:2|0:0,0:0:0:0:
320,360,77264,2,0,B|310:325|317:284|344:254,1,113.718663476944,2|0,1:2|0:0,0:0:0:0:
483,236,77492,6,0,B|493:271|486:312|459:342,1,113.718663476944,2|0,3:2|0:0,0:0:0:0:
332,363,77719,2,0,B|322:328|329:287|356:257,1,113.718663476944,2|0,1:2|0:0,0:0:0:0:
238,350,77946,2,0,B|208:377|167:384|132:374,1,113.718663476944,2|2,3:2|0:2,0:0:0:0:
271,246,78174,1,2,1:2:0:0:
161,266,78325,5,2,0:2:0:0:
165,270,78401,2,0,B|195:243|236:236|271:246,1,113.718663476944,0|2,0:0|1:2,0:0:0:0:
132,374,78628,2,0,B|97:384|56:377|26:350,1,113.718663476944,0|2,0:0|0:2,0:0:0:0:
106,173,78855,6,0,B|71:163|30:170|0:197,1,113.718663476944,2|0,3:2|0:0,0:0:0:0:
3,209,79083,2,0,B|33:182|74:175|109:185,1,113.718663476944,2|0,1:2|0:0,0:0:0:0:
290,134,79310,2,0,B|303:119|312:102|316:84,1,57.2333333174389,2|0,3:2|0:0,0:0:0:0:
278,131,79424,2,0,B|305:101|312:60|302:25,1,113.718663476944,2|0,1:2|0:0,0:0:0:0:
197,1,79689,2,0,B|170:31|163:72|173:107,1,112.970663497925,2|0,0:2|0:0,0:0:0:0:
9,16,79916,5,0,1:0:0:0:
93,34,79992,1,0,3:0:0:0:
512,54,80219,5,0,1:0:0:0:
497,56,80295,1,0,1:0:0:0:
481,57,80370,1,0,1:0:0:0:
376,19,80446,5,2,1:2:0:0:
392,17,80522,1,2,1:2:0:0:
408,16,80598,1,2,1:2:0:0:
409,100,80674,6,0,B|402:126|407:157|427:180|427:180|427:180|427:180|405:197|392:224|396:254,1,170.578001700402,2|0,3:2|0:0,0:0:0:0:
252,320,80901,2,0,B|278:327|309:322|332:302|332:302|332:302|332:302|349:324|376:337|406:333,1,170.578001700402,10|0,1:2|0:0,0:0:0:0:
276,240,81128,2,0,B|250:233|219:238|196:258|196:258|196:258|196:258|179:236|152:223|122:227,1,170.578001700402,2|0,3:2|0:0,0:0:0:0:
99,384,81355,2,0,B|121:367|134:339|130:309,1,85.8500008344652,8|0,1:2|0:0,0:0:0:0:
177,123,81507,6,0,B|147:119|119:132|102:154|102:154|102:154|102:154|79:134|48:129|22:136,1,170.578001700402,2|0,0:2|0:0,0:0:0:0:
24,148,81734,2,0,B|50:141|81:146|104:166|104:166|104:166|104:166|121:144|149:131|179:135,1,170.578001700402,2|0,0:2|0:0,0:0:0:0:
127,0,81961,5,2,0:2:0:0:
126,12,82037,2,0,B|156:8|184:21|201:43|201:43|201:43|201:43|224:23|255:18|281:25,1,170.578001700402,2|0,3:2|0:0,0:0:0:0:
279,37,82264,2,0,B|253:30|222:35|199:55|199:55|199:55|199:55|182:33|154:20|124:24,1,170.578001700402,8|0,1:2|0:0,0:0:0:0:
308,152,82492,6,0,B|353:112|414:101|467:116,1,170.578001700402,2|0,3:2|0:0,0:0:0:0:
464,104,82719,2,0,B|412:89|350:100|305:140,1,170.000001716614,10|0,1:2|0:0,0:0:0:0:
353,250,82946,6,0,B|405:235|467:246|512:286,1,170.578001700402,2|0,3:2|0:0,0:0:0:0:
509,298,83174,2,0,B|464:258|403:247|350:262,1,170.578001700402,10|0,1:2|0:0,0:0:0:0:
302,335,83401,6,0,B|257:375|196:386|143:371,1,170.578001700402,2|2,3:2|0:2,0:0:0:0:
129,355,83628,1,14,1:2:0:0:
23,197,83780,5,2,0:2:0:0:
22,209,83855,2,0,B|52:205|80:218|97:240|97:240|97:240|97:240|120:220|151:215|177:222,1,171.70000166893,12|0,3:2|1:0,0:0:0:0:
175,234,84083,2,0,B|149:227|118:232|95:252|95:252|95:252|95:252|78:230|50:217|20:221,1,170.578001700402,2|0,1:3|0:0,0:0:0:0:
17,21,84310,6,0,B|43:28|74:23|97:3|97:3|97:3|97:3|114:25|141:38|171:34,1,170.578001700402,2|0,3:2|0:0,0:0:0:0:
250,24,84537,2,0,B|254:54|241:81|219:98|219:98|219:98|219:98|239:121|244:152|237:178,1,170.578001700402,10|0,1:2|0:0,0:0:0:0:
144,308,84764,2,0,B|140:278|153:251|175:234|175:234|175:234|175:234|155:211|150:180|157:154,1,170.578001700402,2|0,3:2|0:0,0:0:0:0:
312,209,84992,2,0,B|295:187|267:174|237:178,1,84.7280008659365,8|0,1:2|0:0,0:0:0:0:
306,81,85143,6,0,B|332:74|363:79|386:99|386:99|386:99|386:99|403:77|431:64|461:68,1,170.578001700402,2|0,0:2|0:0,0:0:0:0:
463,80,85370,2,0,B|433:76|405:89|388:111|388:111|388:111|388:111|365:91|334:86|308:93,1,170.578001700402,2|0,0:2|0:0,0:0:0:0:
312,209,85598,5,2,0:2:0:0:
311,221,85674,2,0,B|341:217|369:230|386:252|386:252|386:252|386:252|409:232|440:227|466:234,1,170.578001700402,2|0,3:2|0:0,0:0:0:0:
464,246,85901,2,0,B|438:239|407:244|384:264|384:264|384:264|384:264|367:242|339:229|309:233,1,170.578001700402,10|0,1:2|0:0,0:0:0:0:
206,318,86128,6,0,B|258:303|320:314|365:354,1,170.578001700402,2|0,3:2|0:0,0:0:0:0:
362,366,86355,2,0,B|317:326|256:315|203:330,1,171.70000166893,10|2,1:2|1:2,0:0:0:0:
11,267,86583,2,0,B|64:282|125:271|170:231,1,170.578001700402,2|2,3:2|1:2,0:0:0:0:
178,216,86810,1,10,0:2:0:0:
0,258,86962,1,2,0:2:0:0:
40,42,87189,5,8,1:2:0:0:
33,121,87265,1,4,1:2:0:0:
223,0,87416,5,8,1:2:0:0:
230,79,87492,1,4,1:2:0:0:
456,56,87643,1,0,1:0:0:0:
424,38,87719,1,2,1:2:0:0:
408,39,87795,1,0,0:0:0:0:
392,41,87871,1,0,0:0:0:0:
376,43,87946,1,2,3:0:0:0:
