osu file format v14

[General]
AudioFilename: modorenai.mp3
AudioLeadIn: 0
PreviewTime: 66052
Countdown: 0
SampleSet: None
StackLeniency: 0.7
Mode: 0
LetterboxInBreaks: 0
WidescreenStoryboard: 1

[Editor]
Bookmarks: 15923,28310,34503,40697,53084,67019,79406,91793,104181
DistanceSpacing: 1
BeatDivisor: 2
GridSize: 4
TimelineZoom: 2.799999

[Metadata]
Title:Hatsurei! Dai Juuichigou Sakusen EO2 Boss Sentou
TitleUnicode:発令!第十一号作戦 EO2ボス戦闘
Artist:Ohkoshi Kaori
ArtistUnicode:大越 香里
Creator:ryuu
Version:E-1
Source:艦隊これくしょん -艦これ-
Tags:kantai collection kancolle
BeatmapID:822744
BeatmapSetID:367940

[Difficulty]
HPDrainRate:2
CircleSize:2
OverallDifficulty:2
ApproachRate:2
SliderMultiplier:0.7
SliderTickRate:1

[Events]
//Background and Video events
0,0,"anchoragewateroni.png",0,0
//Break Periods
2,85793,88678
//Storyboard Layer 0 (Background)
//Storyboard Layer 1 (Fail)
//Storyboard Layer 2 (Pass)
//Storyboard Layer 3 (Foreground)
//Storyboard Sound Samples

[TimingPoints]
15916,387.096774193548,4,2,1,20,1,0
18238,-100,4,2,1,25,0,0
19012,-100,4,2,1,35,0,0
21335,-100,4,2,1,50,0,0
22109,-100,4,2,1,35,0,0
22496,-100,4,2,1,50,0,0
22883,-100,4,2,1,35,0,0
22980,-100,4,2,1,50,0,0
24819,-100,4,2,1,40,0,0
25206,-100,4,2,1,45,0,0
25303,-100,4,2,1,30,0,0
25980,-100,4,2,1,50,0,0
26077,-100,4,2,1,30,0,0
26754,-100,4,2,1,55,0,0
28303,-100,4,1,1,40,0,0
40690,-100,4,2,2,40,0,0
60819,-100,4,2,2,30,0,0
60915,-100,4,2,2,40,0,0
63915,-100,4,2,2,30,0,0
64012,-100,4,2,2,40,0,0
64690,-100,4,2,2,35,0,0
65270,-100,4,2,1,50,0,0
67012,-100,4,1,1,50,0,1
79351,-100,4,1,1,60,0,0
79399,-100,4,1,1,60,0,1
85593,-100,4,1,1,50,0,0
90238,-100,4,2,1,60,0,0
91786,-100,4,1,1,50,0,0
104174,-100,4,2,2,25,0,0
105680,387.096774193548,4,2,2,25,1,0
107276,387.096774193548,4,2,2,25,1,0
107663,-100,4,2,2,15,0,0
108005,387.096774193548,4,2,2,25,1,0
108820,387.096774193548,4,2,2,25,1,0
110410,387.096774193548,4,2,2,25,1,0
111925,387.096774193548,4,2,2,25,1,0
112640,387.096774193548,4,2,2,15,1,0
113134,387.096774193548,4,2,2,25,1,0
113437,387.096774193548,4,2,2,25,1,0
116526,387.096774193548,4,2,2,25,1,0
118058,387.096774193548,4,2,2,25,1,0
119606,-100,4,2,2,15,0,0
125606,-100,4,2,2,5,0,0

[Colours]
Combo1 : 207,207,207
Combo2 : 171,166,219
Combo3 : 252,157,152
Combo4 : 216,187,184

[HitObjects]
380,124,15916,6,0,L|236:120,1,140,0|2,0:0|0:0,0:0:0:0:
104,84,17464,1,0,0:0:0:0:
36,208,18238,2,0,L|44:300,1,70,2|2,0:0|0:0,0:0:0:0:
80,336,19012,6,0,P|152:352|232:328,1,140,2|0,0:3|0:0,0:0:0:0:
272,208,20561,2,0,P|344:192|424:216,1,140,2|2,0:3|0:0,0:0:0:0:
488,320,22109,5,4,0:3:0:0:
352,280,22883,1,2,0:1:0:0:
228,348,23657,2,0,L|88:340,1,140,2|0,0:3|0:0,0:0:0:0:
24,216,25206,6,0,P|12:148|36:68,1,140,4|2,0:3|0:1,0:0:0:0:
168,56,26754,2,0,L|320:44,1,140,4|0,0:3|0:0,0:0:0:0:
396,156,28303,6,0,L|244:168,1,140,4|2,0:0|0:0,0:0:0:0:
136,236,29851,2,0,L|40:224,2,70,0|0|2,0:0|0:0|0:0,0:0:0:0:
248,320,31399,2,0,P|316:336|392:312,1,140,4|2,0:0|0:0,0:0:0:0:
464,204,32948,2,0,L|472:124,2,70,0|8|0,0:0|0:0|0:0,0:0:0:0:
324,184,34496,5,4,0:0:0:0:
188,220,35270,1,8,0:0:0:0:
52,180,36045,2,0,L|40:32,1,140,0|4,0:0|0:3,0:0:0:0:
176,80,37593,1,4,0:0:0:0:
308,32,38367,1,8,0:0:0:0:
412,124,39141,2,0,P|421:204|408:272,1,140,0|0,0:0|0:0,0:0:0:0:
288,328,40690,6,0,L|212:324,2,70,4|2|0,0:0|0:0|0:0,0:0:0:0:
244,196,42238,2,0,L|80:188,1,140,4|0,0:0|0:0,0:0:0:0:
84,52,43786,2,0,L|14:48,2,70,4|2|0,0:0|0:0|0:0,0:0:0:0:
104,192,45335,2,0,P|96:263|120:339,1,140,4|0,0:0|0:0,0:0:0:0:
252,348,46883,6,0,L|340:344,1,70,4|2,0:0|0:0,0:0:0:0:
380,304,47657,1,0,0:0:0:0:
428,172,48432,2,0,P|440:104|420:12,1,140,4|0,0:0|0:0,0:0:0:0:
288,32,49980,2,0,L|200:28,1,70,4|2,0:0|0:0,0:0:0:0:
164,76,50754,1,0,0:0:0:0:
84,192,51528,2,0,P|156:208|252:188,1,140,4|0,0:0|0:0,0:0:0:0:
288,324,53077,6,0,L|436:308,2,140,8|8|0,0:3|0:3|0:0,0:0:0:0:
152,280,55399,2,0,P|160:240|152:200,1,70,0|8,0:0|0:1,0:0:0:0:
92,180,56174,2,0,P|80:112|88:36,2,140,8|8|0,0:3|0:3|0:0,0:0:0:0:
120,316,58496,2,0,L|208:312,1,70,0|8,0:0|0:1,0:0:0:0:
252,348,59270,6,0,P|328:328|416:348,1,140,4|10,0:0|0:3,0:0:0:0:
468,220,60819,1,2,0:3:0:0:
368,120,61593,2,0,P|360:88|376:28,1,70,0|8,0:0|0:1,0:0:0:0:
300,24,62367,2,0,B|232:64|168:40|80:16|0:52,1,280,8|12,0:3|0:3,0:0:0:0:
88,168,64690,2,0,P|104:220|88:296,1,105,10|10,0:1|0:1,0:0:0:0:
412,316,67012,6,0,P|404:280|412:240,1,70,4|0,0:1|0:0,0:0:0:0:
428,180,67786,2,0,P|344:192|280:172,1,140,0|0,0:0|2:0,0:0:0:0:
188,84,69335,2,0,L|108:80,1,70,0|0,0:0|0:0,0:0:0:0:
52,60,70109,2,0,L|60:208,1,140,4|0,0:0|0:0,0:0:0:0:
128,320,71657,2,0,P|196:304|292:328,1,140,0|0,0:0|0:0,0:0:0:0:
400,264,73206,6,0,L|408:180,2,70,4|2|0,0:0|0:0|0:0,0:0:0:0:
268,316,74754,2,0,P|200:332|104:308,1,140,0|0,0:0|0:0,0:0:0:0:
60,200,76303,2,0,L|52:40,2,140,0|0|4,0:0|0:0|0:0,0:0:0:0:
200,236,78625,2,0,L|204:332,1,70,4|4,0:0|0:3,0:0:0:0:
264,336,79399,6,0,P|304:340|340:328,1,70,4|4,0:0|0:0,0:0:0:0:
392,296,80174,2,0,L|400:124,1,140,4|4,0:0|0:0,0:0:0:0:
400,88,81335,1,4,0:0:0:0:
340,52,81722,2,0,P|300:44|256:56,1,70,4|4,0:0|0:0,0:0:0:0:
268,120,82496,6,0,P|192:128|112:112,1,140,4|4,0:0|0:0,0:0:0:0:
64,92,83657,1,4,0:0:0:0:
36,156,84045,2,0,L|44:312,1,140,4|4,0:0|0:0,0:0:0:0:
176,336,85593,1,4,0:3:0:0:
420,108,90238,6,0,B|360:128|316:108|264:88|192:112,1,210,4|10,0:3|0:1,0:0:0:0:
156,68,91786,6,0,L|164:216,1,140,4|2,0:0|0:0,0:0:0:0:
288,276,93335,2,0,L|284:352,2,70,0|0|8,0:0|0:0|0:0,0:0:0:0:
404,196,94883,2,0,P|420:128|408:52,1,140,4|2,0:0|0:0,0:0:0:0:
272,84,96432,2,0,L|200:80,1,70,0|2,0:0|0:0,0:0:0:0:
156,132,97206,2,0,L|84:128,1,70,2|2,0:0|0:0,0:0:0:0:
52,188,97980,6,0,P|48:260|64:340,1,140,4|2,0:0|0:0,0:0:0:0:
200,336,99528,2,0,L|288:332,2,70,0|0|10,0:0|0:0|0:0,0:0:0:0:
120,220,101077,1,4,0:0:0:0:
188,100,101851,1,2,0:0:0:0:
324,128,102625,6,0,L|416:124,1,70,0|2,0:0|0:0,0:0:0:0:
452,164,103399,2,0,P|456:236|436:304,1,140,10|8,0:0|0:3,0:0:0:0:
256,192,104561,12,8,119606,0:3:0:0:
