osu file format v14

[General]
AudioFilename: audio.mp3
AudioLeadIn: 0
PreviewTime: 64382
Countdown: 0
SampleSet: Soft
StackLeniency: 0.7
Mode: 0
LetterboxInBreaks: 0
WidescreenStoryboard: 0

[Editor]
Bookmarks: 740,13494,24991,36488,47985,56607,65230,76727,88224,95410,107266,118404,129901,138523,147146,158643,170140,177326,188823,200320,214691,226188,237685,257985
DistanceSpacing: 1
BeatDivisor: 4
GridSize: 4
TimelineZoom: 2.1

[Metadata]
Title:Snow Wings (M@STER VERSION)
TitleUnicode:Snow Wings(M@STER VERSION)
Artist:Ohashi Ayaka, Fukuhara Ayaka, Hara Sayuri, Yamashita Nanami, Nagashima Mina
ArtistUnicode:大橋彩香, 福原綾香, 原紗友里, 山下七海, 長島光那
Creator:Andrea
Version:Wing of Snow
Source:アイドルマスター シンデレラガールズ スターライトステージ
Tags:osuplayer111 Sekai Sekaii Sekai-nyan anime japanese IM@S IMAS Idols IDOLMASTER THE iDOLM@STER Cinderella Girls Starlight Stage full version Xmas Christmas Uzuki Shimamura 島村卯月 Rin Shibuya 渋谷凛 Mio Honda 本田未央 Yui Ohtsuki 大槻唯 Haruna Kamijo 上条春菜
BeatmapID:2252962
BeatmapSetID:1076704

[Difficulty]
HPDrainRate:7
CircleSize:5
OverallDifficulty:8
ApproachRate:9
SliderMultiplier:1.6
SliderTickRate:1

[Events]
//Background and Video events
0,0,"bg.jpg",0,0
//Break Periods
//Storyboard Layer 0 (Background)
//Storyboard Layer 1 (Fail)
//Storyboard Layer 2 (Pass)
//Storyboard Layer 3 (Foreground)
//Storyboard Layer 4 (Overlay)
//Storyboard Sound Samples

[TimingPoints]
794,375,4,2,1,60,1,0
794,-133.333333333333,4,2,1,60,0,0
1544,375,4,2,1,60,1,0
1544,-133.333333333333,4,2,1,60,0,0
13356,-133.333333333333,4,2,1,70,0,0
13544,359.281437125748,4,2,1,70,1,0
13544,-117.647058823529,4,2,1,70,0,0
18573,-100,4,2,1,70,0,0
25041,-100,4,2,1,70,0,0
36538,-100,4,2,1,75,0,0
48035,-117.647058823529,4,2,1,60,0,0
53783,-100,4,2,1,70,0,0
65011,-100,4,2,1,60,0,0
65280,-100,4,2,1,80,0,1
87196,-100,4,2,1,70,0,1
88274,-100,4,2,1,80,0,1
94741,-100,4,2,1,60,0,1
95460,-100,4,2,1,70,0,0
106957,-100,4,2,1,60,0,0
107585,-100,4,2,1,5,0,0
107675,-100,4,2,1,60,0,0
108394,-117.647058823529,4,2,1,60,0,0
108753,-117.647058823529,4,2,1,5,0,0
108933,-117.647058823529,4,2,1,60,0,0
110100,-117.647058823529,4,2,1,5,0,0
110190,-100,4,2,1,60,0,0
110460,-100,4,2,1,5,0,0
110549,-100,4,2,1,60,0,0
111268,-117.647058823529,4,2,1,60,0,0
111627,-117.647058823529,4,2,1,5,0,0
111807,-117.647058823529,4,2,1,60,0,0
112705,-100,4,2,1,70,0,0
118454,-100,4,2,1,75,0,0
129951,-117.647058823529,4,2,1,60,0,0
135699,-100,4,2,1,70,0,0
146927,-100,4,2,1,60,0,0
147196,-100,4,2,1,80,0,1
169112,-100,4,2,1,70,0,1
170190,-100,4,2,1,80,0,1
176657,-100,4,2,1,60,0,1
177376,-100,4,2,1,70,0,0
180250,-100,4,2,1,50,0,0
180789,-100,4,2,1,70,0,0
193454,-100,4,2,1,5,0,0
193543,-100,4,2,1,70,0,0
199651,-100,4,2,1,60,0,0
200370,-117.647058823529,4,2,1,60,0,0
201807,-100,4,2,1,70,0,0
203064,-117.647058823529,4,2,1,60,0,0
204681,-100,4,2,1,70,0,0
213304,-100,4,2,1,60,0,0
214741,-117.647058823529,4,2,1,60,0,0
220490,-100,4,2,1,70,0,0
226238,-100,4,2,1,80,0,1
231268,-100,4,2,1,70,0,1
231627,-100,4,2,1,80,0,1
236657,-100,4,2,1,70,0,1
237735,-100,4,2,1,80,0,1
244202,-100,4,2,1,60,0,1
244921,-100,4,2,1,70,0,0

[Colours]
Combo1 : 92,116,226
Combo2 : 170,170,255
SliderBorder : 82,140,228
SliderTrackOverride : 213,227,249

[HitObjects]
204,64,794,6,0,P|256:39|308:64,1,120.000004577637,2|2,0:0|0:0,0:0:0:0:
308,232,1544,1,2,0:0:0:0:
256,296,1731,1,0,0:0:0:0:
204,232,1919,1,2,0:0:0:0:
256,168,2106,1,0,0:0:0:0:
460,40,2856,5,2,0:0:0:0:
460,40,2950,1,0,0:0:0:0:
460,40,3044,2,0,P|468:72|460:96,1,60.0000022888184,0|2,0:0|0:0,0:0:0:0:
416,168,3419,1,0,0:0:0:0:
372,240,3606,1,2,0:0:0:0:
140,240,4356,5,2,0:0:0:0:
140,240,4450,1,0,0:0:0:0:
140,240,4544,2,0,P|88:265|36:240,1,120.000004577637,0|2,0:0|0:0,0:0:0:0:
35,144,5106,2,0,P|87:119|140:144,1,120.000004577637,0|2,0:0|0:0,0:0:0:0:
256,268,5856,5,2,0:0:0:0:
256,268,5950,1,0,0:0:0:0:
256,268,6044,2,0,P|316:268|364:316,1,120.000004577637,0|2,0:0|0:0,0:0:0:0:
312,376,6606,2,0,L|424:316,1,120.000004577637,0|2,0:0|0:0,0:0:0:0:
417,65,7544,5,2,0:0:0:0:
95,65,8481,1,2,0:0:0:0:
95,65,8669,1,0,0:0:0:0:
256,112,9044,1,2,0:0:0:0:
228,300,10544,6,0,P|256:308|284:300,1,60.0000022888184,2|0,0:0|0:0,0:0:0:0:
336,220,10919,2,0,P|344:191|336:163,1,60.0000022888184,0|2,0:0|0:0,0:0:0:0:
284,83,11294,2,0,P|256:75|228:84,1,60.0000022888184
175,163,11669,2,0,P|167:191|176:220,1,60.0000022888184,2|0,0:0|0:0,0:0:0:0:
256,192,12044,1,2,0:0:0:0:
256,192,13356,5,2,0:0:0:0:
256,192,13450,1,0,0:0:0:0:
256,192,13544,2,0,B|276:256|228:256|256:324,1,136.000002593994,0|2,0:0|0:0,0:0:0:0:
396,192,14262,2,0,B|424:124|376:124|396:60,1,136.000002593994,2|0,0:0|0:0,0:0:0:0:
472,92,14801,1,2,0:0:0:0:
328,152,14981,6,0,L|256:140,1,68.0000012969971,2|0,0:0|0:0,0:0:0:0:
188,228,15340,2,0,L|255:239,1,68.0000012969971,2|0,0:0|0:0,0:0:0:0:
184,320,15699,2,0,L|44:300,1,136.000002593994,2|0,0:0|0:0,0:0:0:0:
44,192,16238,5,2,0:0:0:0:
44,192,16328,1,0,0:0:0:0:
44,192,16418,2,0,P|32:160|44:128,1,68.0000012969971,0|0,1:0|0:0,0:0:0:0:
120,76,16777,2,0,P|132:108|120:140,1,68.0000012969971,2|0,0:0|0:0,0:0:0:0:
124,240,17136,2,0,B|188:260|188:212|256:240,1,136.000002593994,2|0,0:0|0:0,0:0:0:0:
384,308,17675,5,2,0:0:0:0:
384,308,17765,1,0,0:0:0:0:
384,308,17855,2,0,L|316:319,1,68.0000012969971,0|0,1:0|0:0,0:0:0:0:
356,232,18214,2,0,L|423:220,1,68.0000012969971,2|0,0:0|0:0,0:0:0:0:
344,100,18573,5,8,0:0:0:0:
324,88,18663,1,8,0:0:0:0:
304,76,18753,1,8,0:0:0:0:
284,60,18843,1,8,0:0:0:0:
264,48,18933,2,0,P|228:32|192:48,1,80,8|2,0:0|0:0,0:0:0:0:
76,84,19292,6,0,L|200:200,1,160,4|8,0:0|0:0,0:0:0:0:
256,272,19831,1,0,0:0:0:0:
156,284,20011,2,0,L|100:228,1,80,2|0,0:0|0:0,0:0:0:0:
200,84,20370,2,0,L|256:140,1,80,8|0,0:0|0:0,0:0:0:0:
380,236,20729,5,2,0:0:0:0:
380,148,20909,1,0,0:0:0:0:
456,264,21088,1,8,0:0:0:0:
456,120,21268,1,0,0:0:0:0:
456,120,21358,1,0,0:0:0:0:
456,120,21448,2,0,P|432:92|392:72,1,80,2|0,0:0|0:0,0:0:0:0:
318,188,21807,2,0,P|342:216|382:236,1,80,8|0,0:0|0:0,0:0:0:0:
208,116,22166,5,4,0:0:0:0:
304,116,22346,1,0,0:0:0:0:
192,24,22526,1,8,0:0:0:0:
320,24,22705,1,0,0:0:0:0:
208,116,22885,2,0,L|152:184,1,80,4|0,0:0|0:0,0:0:0:0:
304,116,23244,2,0,L|360:184,1,80,8|0,0:0|0:0,0:0:0:0:
496,268,23603,6,0,P|460:284|424:268,1,80,4|0,0:0|0:0,0:0:0:0:
424,116,23963,2,0,P|460:101|496:117,1,80,12|0,0:0|0:0,0:0:0:0:
496,268,24322,2,0,P|460:284|424:268,1,80,4|0,0:0|0:0,0:0:0:0:
340,192,24681,1,8,0:0:0:0:
424,116,24861,1,0,0:0:0:0:
424,268,25041,6,0,B|392:316|340:316|340:316|280:316,1,160,4|8,0:0|0:0,0:0:0:0:
204,204,25579,1,0,0:0:0:0:
204,204,25759,2,0,P|188:168|204:132,1,80,2|0,0:0|0:0,0:0:0:0:
308,132,26118,2,0,P|323:168|308:204,1,80,8|0,0:0|0:0,0:0:0:0:
204,204,26478,6,0,B|148:204|148:204|104:228|104:228|48:228,1,160,2|8,0:0|0:0,0:0:0:0:
172,280,27017,1,0,0:0:0:0:
172,280,27106,1,0,0:0:0:0:
172,280,27196,2,0,B|216:280|216:280|248:300,1,80,2|0,0:0|0:0,0:0:0:0:
88,152,27555,2,0,B|44:152|44:152|12:132,1,80,8|0,0:0|0:0,0:0:0:0:
100,36,27915,6,0,B|176:12|176:60|256:36,1,160,2|8,0:0|0:0,0:0:0:0:
332,96,28454,1,0,0:0:0:0:
408,156,28633,1,2,0:0:0:0:
408,156,28723,2,0,P|448:156|480:180,1,80
456,256,28993,2,0,P|416:256|384:232,1,80,8|0,0:0|0:0,0:0:0:0:
332,96,29352,6,0,B|256:120|256:72|176:96,1,160,2|8,0:0|0:0,0:0:0:0:
63,176,29891,2,0,B|139:152|139:200|219:176,1,160,2|0,0:0|0:0,0:0:0:0:
336,260,30430,2,0,P|352:296|336:332,1,80,8|0,0:0|0:0,0:0:0:0:
220,176,30789,6,0,P|256:160|292:176,1,80,2|0,0:0|0:0,0:0:0:0:
175,331,31148,2,0,P|160:295|176:260,1,80,8|0,0:0|0:0,0:0:0:0:
336,260,31508,2,0,P|416:260|464:200,1,160,2|8,0:0|0:0,0:0:0:0:
463,202,32046,1,0,0:0:0:0:
384,88,32226,6,0,B|344:88|344:88|312:112,1,80,2|0,0:0|0:0,0:0:0:0:
200,112,32585,2,0,B|168:88|168:88|128:88,1,80,8|0,0:0|0:0,0:0:0:0:
256,192,32945,2,0,B|232:268|284:268|256:352,1,160,2|8,0:0|0:0,0:0:0:0:
328,228,33484,6,0,B|404:204|404:256|488:228,1,160,4|2,0:0|0:0,0:0:0:0:
332,96,34023,1,8,0:0:0:0:
332,96,34202,2,0,B|256:120|256:68|172:96,1,160,4|2,0:0|0:0,0:0:0:0:
27,229,34741,1,8,0:0:0:0:
27,229,34921,2,0,B|108:256|108:204|184:228,1,160,4|8,0:0|0:0,0:0:0:0:
140,300,35460,1,8,0:0:0:0:
72,160,35639,2,0,L|56:124,3,26.6666666666667,8|8|8|8,0:0|0:0|0:0|0:0,0:0:0:0:
112,44,35999,5,2,0:0:0:0:
156,128,36178,1,2,0:0:0:0:
200,8,36358,1,2,0:0:0:0:
244,92,36538,6,0,B|324:118|324:66|400:90,1,160,4|8,0:0|0:0,0:0:0:0:
476,144,37076,1,0,0:0:0:0:
476,144,37256,2,0,L|416:208,1,80,2|0,0:0|0:0,0:0:0:0:
432,324,37615,2,0,L|486:265,1,80,8|0,0:0|0:0,0:0:0:0:
292,328,37975,5,2,0:0:0:0:
292,328,38064,2,0,P|256:311|220:326,1,80
144,304,38334,2,0,P|129:268|145:232,1,80,8|0,0:0|0:0,0:0:0:0:
264,156,38693,2,0,P|278:191|262:227,1,80,2|0,0:0|0:0,0:0:0:0:
145,151,39052,2,0,P|129:115|144:80,1,80,8|0,0:0|0:0,0:0:0:0:
300,80,39412,6,0,L|472:68,1,160,2|8,0:0|0:0,0:0:0:0:
504,164,39951,1,0,0:0:0:0:
504,164,40130,2,0,L|408:172,1,80,2|0,0:0|0:0,0:0:0:0:
356,268,40490,2,0,L|435:261,1,80,8|0,0:0|0:0,0:0:0:0:
208,256,40849,6,0,P|167:191|208:128,1,160,2|8,0:0|0:0,0:0:0:0:
304,128,41388,1,0,0:0:0:0:
256,52,41567,1,2,0:0:0:0:
256,52,41657,2,0,P|220:35|184:50,1,80
136,127,41927,2,0,P|171:143|207:128,1,80,8|0,0:0|0:0,0:0:0:0:
380,103,42286,6,0,L|292:131,1,80,4|0,0:0|0:0,0:0:0:0:
396,196,42645,2,0,L|472:171,1,80,8|0,0:0|0:0,0:0:0:0:
384,280,43005,1,4,0:0:0:0:
384,280,43184,1,4,0:0:0:0:
256,136,43543,1,2,0:0:0:0:
168,248,43723,6,0,P|132:262|96:246,1,80,4|0,0:0|0:0,0:0:0:0:
96,137,44082,2,0,P|132:121|168:136,1,80,8|0,0:0|0:0,0:0:0:0:
256,192,44442,1,4,0:0:0:0:
256,192,44621,1,4,0:0:0:0:
412,292,44801,1,2,0:0:0:0:
412,292,44981,6,0,B|336:268|336:320|255:293,1,160,4|2,0:0|0:0,0:0:0:0:
160,228,45520,2,0,P|146:192|162:156,1,80,8|4,0:0|0:0,0:0:0:0:
220,76,45879,2,0,P|256:62|292:78,1,80,2|0,0:0|0:0,0:0:0:0:
350,156,46238,2,0,P|365:191|352:228,1,80,10|0,0:0|0:0,0:0:0:0:
255,293,46597,5,4,0:0:0:0:
140,84,47136,1,4,0:0:0:0:
372,84,47496,1,4,0:0:0:0:
255,293,48035,6,0,L|255:365,1,68.0000012969971,4|0,0:0|0:0,0:0:0:0:
172,292,48394,2,0,L|172:220,1,68.0000012969971,2|0,0:0|0:0,0:0:0:0:
204,148,48753,2,0,P|256:111|308:148,1,136.000002593994,8|0,0:0|0:0,0:0:0:0:
340,224,49292,1,0,0:0:0:0:
340,224,49472,2,0,L|340:292,1,68.0000012969971,0|0,1:0|0:0,0:0:0:0:
256,328,49831,1,2,0:0:0:0:
172,292,50011,2,0,L|132:292,2,34.0000006484985,0|0|8,0:0|0:0|0:0,0:0:0:0:
256,36,50909,5,0,1:0:0:0:
256,36,51088,1,0,1:0:0:0:
336,36,51268,2,0,P|372:36|400:56,1,68.0000012969971,2|0,0:0|0:0,0:0:0:0:
460,104,51627,2,0,L|380:216,1,136.000002593994,8|2,0:0|0:0,0:0:0:0:
488,208,52166,1,0,0:0:0:0:
488,208,52346,2,0,L|447:262,1,68.0000012969971,0|0,1:0|0:0,0:0:0:0:
376,300,52705,1,2,0:0:0:0:
304,336,52885,2,0,L|264:336,2,34.0000006484985,0|0|8,0:0|0:0|0:0,0:0:0:0:
132,260,53424,1,2,0:0:0:0:
88,192,53603,1,0,0:0:0:0:
132,124,53783,6,0,P|212:124|256:64,1,160,4|2,0:0|0:0,0:0:0:0:
172,16,54322,1,0,0:0:0:0:
172,16,54502,2,0,L|336:16,1,160,0|8,1:0|0:0,0:0:0:0:
360,36,54951,1,8,0:0:0:0:
384,56,55041,1,8,0:0:0:0:
408,76,55130,1,8,0:0:0:0:
432,96,55220,6,0,P|472:96|504:120,1,80,4|2,0:0|0:0,0:0:0:0:
503,265,55579,2,0,P|471:288|432:288,1,80,4|2,0:0|0:0,0:0:0:0:
380,192,55939,2,0,B|304:168|304:224|220:192,1,160,0|0,1:0|1:0,0:0:0:0:
104,132,56478,1,0,1:0:0:0:
104,132,56567,1,0,1:0:0:0:
104,132,56657,6,0,P|68:116|32:131,1,80,4|0,0:0|0:0,0:0:0:0:
32,252,57017,2,0,P|68:267|104:252,1,80,8|0,0:0|0:0,0:0:0:0:
175,132,57376,2,0,P|139:117|104:132,1,80,8|0,0:0|0:0,0:0:0:0:
103,251,57736,2,0,P|139:266|174:251,1,80,12|0,0:0|0:0,0:0:0:0:
323,127,58094,6,0,B|359:110|359:110|396:128,1,80,12|0,0:0|0:0,0:0:0:0:
504,192,58454,1,8,0:0:0:0:
504,192,58543,1,0,0:0:0:0:
504,192,58633,1,0,0:0:0:0:
396,256,58813,2,0,B|359:274|359:274|323:257,1,80,8|8,0:0|0:0,0:0:0:0:
292,192,59083,1,8,0:0:0:0:
292,192,59173,2,0,B|255:174|255:174|219:191,1,80,12|0,0:0|0:0,0:0:0:0:
328,100,59532,6,0,B|256:65|256:65|184:101,1,160,4|8,0:0|0:0,0:0:0:0:
256,168,60070,1,0,0:0:0:0:
328,100,60250,2,0,B|345:64|345:64|327:27,1,80,2|0,0:0|0:0,0:0:0:0:
185,28,60609,2,0,B|167:65|167:65|184:101,1,80,8|0,0:0|0:0,0:0:0:0:
258,324,60969,6,0,B|282:248|230:248|256:168,1,160,4|8,0:0|0:0,0:0:0:0:
328,196,61508,1,0,0:0:0:0:
192,288,61687,2,0,L|112:308,1,80,2|0,0:0|0:0,0:0:0:0:
178,187,62046,2,0,L|255:167,1,80,8|0,0:0|0:0,0:0:0:0:
408,132,62406,6,0,P|443:116|479:131,1,80,4|8,0:0|0:0,0:0:0:0:
479,252,62765,2,0,P|443:267|408:252,1,80,2|8,0:0|0:0,0:0:0:0:
308,192,63124,1,4,0:0:0:0:
308,192,63304,1,4,0:0:0:0:
104,64,63663,1,4,0:0:0:0:
104,320,64023,1,0,1:0:0:0:
104,320,64112,1,0,1:0:0:0:
104,320,64202,1,0,1:0:0:0:
192,216,64382,5,0,1:0:0:0:
217,186,64471,1,0,1:0:0:0:
255,175,64561,1,0,1:0:0:0:
295,186,64651,1,0,1:0:0:0:
320,216,64741,1,0,1:0:0:0:
319,255,64831,1,0,1:0:0:0:
295,285,64920,1,0,1:0:0:0:
255,295,65010,1,0,1:0:0:0:
217,285,65100,1,0,1:0:0:0:
193,255,65190,1,0,1:0:0:0:
192,216,65280,6,0,P|152:216|120:192,1,80,4|0,0:0|0:0,0:0:0:0:
124,48,65639,2,0,P|164:48|196:72,1,80,8|0,0:0|0:0,0:0:0:0:
320,216,65999,2,0,P|360:216|392:192,1,80,2|0,0:0|0:0,0:0:0:0:
388,48,66358,2,0,P|348:48|316:72,1,80,8|0,0:0|0:0,0:0:0:0:
184,148,66717,5,2,0:0:0:0:
328,148,66897,1,0,0:0:0:0:
208,232,67076,1,8,0:0:0:0:
304,232,67256,1,0,0:0:0:0:
304,232,67346,1,0,0:0:0:0:
304,232,67436,2,0,P|319:268|304:303,1,80,2|0,0:0|0:0,0:0:0:0:
184,148,67795,2,0,P|169:112|184:77,1,80,8|0,0:0|0:0,0:0:0:0:
328,76,68154,6,0,B|388:76|388:76|424:96|424:96|492:96,1,160,2|8,0:0|0:0,0:0:0:0:
368,152,68693,2,0,B|328:152|328:152|296:176,1,80
240,224,68963,1,0,0:0:0:0:
240,224,69052,2,0,B|208:248|208:248|168:248,1,80,2|8,0:0|0:0,0:0:0:0:
104,164,69412,1,0,0:0:0:0:
44,80,69591,5,2,0:0:0:0:
136,28,69771,1,0,0:0:0:0:
196,112,69951,2,0,B|240:152|284:152|284:152|348:152,1,160,8|2,0:0|0:0,0:0:0:0:
432,208,70490,1,0,0:0:0:0:
432,208,70579,1,0,0:0:0:0:
432,208,70669,2,0,P|447:244|432:279,1,80,8|0,0:0|0:0,0:0:0:0:
345,152,71029,6,0,P|330:116|345:81,1,80,4|0,0:0|0:0,0:0:0:0:
256,28,71388,1,8,0:0:0:0:
167,80,71567,2,0,P|87:80|35:136,1,160,2|0,0:0|0:0,0:0:0:0:
158,221,72106,2,0,L|120:152,1,80,8|0,0:0|0:0,0:0:0:0:
256,240,72466,6,0,L|294:309,1,80,4|0,0:0|0:0,0:0:0:0:
400,304,72825,1,8,0:0:0:0:
400,304,73005,2,0,L|320:164,1,160,2|0,0:0|0:0,0:0:0:0:
264,80,73543,1,8,0:0:0:0:
116,128,73723,6,0,B|79:110|79:110|43:127,1,80,4|0,0:0|0:0,0:0:0:0:
43,257,74082,2,0,B|79:274|79:274|116:256,1,80,0|8,0:0|0:0,0:0:0:0:
200,192,74442,2,0,B|272:168|272:224|356:192,1,160,4|0,0:0|0:0,0:0:0:0:
236,264,74981,2,0,B|254:301|254:301|237:337,1,80,8|0,0:0|0:0,0:0:0:0:
355,192,75340,6,0,B|323:108|379:108|355:36,1,160,4|8,0:0|0:0,0:0:0:0:
424,144,75879,1,0,0:0:0:0:
284,72,76058,2,0,P|244:72|212:96,1,80,8|0,0:0|0:0,0:0:0:0:
424,144,76418,2,0,P|464:144|496:120,1,80,12|0,0:0|0:0,0:0:0:0:
404,264,76777,6,0,L|248:312,1,160,4|8,0:0|0:0,0:0:0:0:
152,344,77316,1,0,0:0:0:0:
212,240,77496,2,0,L|296:216,1,80,2|0,0:0|0:0,0:0:0:0:
452,328,77855,2,0,L|375:349,1,80,8|0,0:0|0:0,0:0:0:0:
428,192,78214,6,0,P|443:156|428:121,1,80,2|0,0:0|0:0,0:0:0:0:
332,52,78573,2,0,P|316:87|331:123,1,80,8|0,0:0|0:0,0:0:0:0:
292,192,78843,1,0,0:0:0:0:
292,192,78933,2,0,P|256:206|220:191,1,80,2|0,0:0|0:0,0:0:0:0:
132,104,79292,2,0,P|167:89|203:104,1,80,8|0,0:0|0:0,0:0:0:0:
180,288,79651,6,0,B|256:312|256:260|336:286,1,160,2|8,0:0|0:0,0:0:0:0:
440,316,80190,1,0,0:0:0:0:
476,228,80370,1,2,0:0:0:0:
476,228,80460,2,0,B|494:191|494:191|477:155,1,80
408,108,80729,2,0,B|391:144|391:144|409:181,1,80,8|0,0:0|0:0,0:0:0:0:
312,72,81088,5,2,0:0:0:0:
200,72,81268,1,0,0:0:0:0:
304,156,81448,1,8,0:0:0:0:
208,156,81627,1,0,0:0:0:0:
312,72,81807,2,0,L|352:48,2,40,0|8|8,1:0|0:0|0:0,0:0:0:0:
208,156,82166,5,8,0:0:0:0:
304,156,82346,1,0,0:0:0:0:
200,72,82526,1,4,0:0:0:0:
256,232,82705,1,4,0:0:0:0:
256,232,83064,1,4,0:0:0:0:
500,36,83603,5,8,0:0:0:0:
428,112,83783,1,0,0:0:0:0:
500,36,83963,1,4,0:0:0:0:
360,192,84142,1,4,0:0:0:0:
360,192,84502,1,4,0:0:0:0:
500,36,84861,1,0,0:0:0:0:
500,36,85041,2,0,B|464:19|464:19|427:37,1,80,8|0,0:0|0:0,0:0:0:0:
220,136,85400,6,0,B|256:153|256:153|293:135,1,80,4|0,0:0|0:0,0:0:0:0:
304,232,85759,2,0,L|380:184,1,80,8|0,0:0|0:0,0:0:0:0:
344,308,86118,2,0,L|276:350,1,80,4|0,0:0|0:0,0:0:0:0:
304,232,86478,1,8,0:0:0:0:
376,384,86657,2,0,L|516:292,1,160,4|2,0:0|0:0,0:0:0:0:
460,192,87196,1,8,0:0:0:0:
460,192,87286,1,8,0:0:0:0:
460,192,87376,1,8,0:0:0:0:
384,116,87555,5,8,0:0:0:0:
359,86,87645,1,8,0:0:0:0:
319,75,87735,1,8,0:0:0:0:
281,86,87825,1,8,0:0:0:0:
256,116,87914,1,8,0:0:0:0:
236,148,88005,1,8,0:0:0:0:
205,172,88094,1,8,0:0:0:0:
166,176,88184,1,8,0:0:0:0:
129,157,88274,5,4,0:0:0:0:
36,316,88454,1,4,0:0:0:0:
36,316,88813,1,4,0:0:0:0:
344,292,89172,6,0,B|362:329|362:329|345:365,1,80,2|8,0:0|0:0,0:0:0:0:
256,325,89532,1,2,0:0:0:0:
167,364,89711,1,4,0:0:0:0:
96,192,89891,1,4,0:0:0:0:
96,192,90250,1,4,0:0:0:0:
156,12,90609,5,2,0:0:0:0:
304,92,90789,1,8,0:0:0:0:
208,92,90969,1,0,0:0:0:0:
356,12,91148,2,0,P|440:12|492:64,1,160,4|8,0:0|0:0,0:0:0:0:
460,152,91687,1,0,0:0:0:0:
396,280,91867,2,0,P|411:315|395:351,1,80,4|0,0:0|0:0,0:0:0:0:
304,316,92226,1,8,0:0:0:0:
368,190,92406,6,0,B|288:164|288:216|212:192,1,160,4|2,0:0|0:0,0:0:0:0:
88,244,92945,1,8,0:0:0:0:
8,192,93124,1,0,0:0:0:0:
88,140,93304,1,8,0:0:0:0:
88,140,93484,1,8,0:0:0:0:
212,192,93663,1,8,0:0:0:0:
212,192,93843,1,8,0:0:0:0:
352,112,94023,5,4,0:0:0:0:
492,192,94202,1,4,0:0:0:0:
352,272,94382,1,4,0:0:0:0:
352,272,94741,6,0,P|308:272|280:296,1,80,2|0,0:0|0:0,0:0:0:0:
208,352,95100,1,0,0:0:0:0:
148,276,95280,1,2,0:0:0:0:
148,276,95370,1,0,0:0:0:0:
148,276,95460,6,0,L|52:144,1,160,4|8,0:0|0:0,0:0:0:0:
93,47,95999,1,0,0:0:0:0:
93,47,96178,2,0,L|144:112,1,80,2|0,0:0|0:0,0:0:0:0:
274,103,96538,2,0,L|224:40,1,80,8|0,0:0|0:0,0:0:0:0:
316,192,96897,5,2,0:0:0:0:
196,192,97076,1,0,0:0:0:0:
256,280,97256,1,8,0:0:0:0:
324,200,97436,1,0,0:0:0:0:
324,200,97526,1,0,0:0:0:0:
324,200,97615,2,0,B|361:182|361:182|397:199,1,80,2|0,0:0|0:0,0:0:0:0:
256,280,97975,2,0,B|219:298|219:298|183:281,1,80,8|0,0:0|0:0,0:0:0:0:
104,320,98244,1,0,0:0:0:0:
104,320,98334,6,0,L|184:364,1,80,2|0,0:0|0:0,0:0:0:0:
120,232,98693,2,0,L|49:193,1,80,8|0,0:0|0:0,0:0:0:0:
124,120,99052,1,2,0:0:0:0:
124,120,99142,2,0,P|109:83|125:48,1,80
200,12,99412,2,0,P|216:47|201:83,1,80,8|0,0:0|0:0,0:0:0:0:
256,288,99771,5,2,0:0:0:0:
212,152,99951,1,0,0:0:0:0:
327,236,100130,1,12,0:0:0:0:
184,236,100310,1,0,0:0:0:0:
300,152,100490,1,4,0:0:0:0:
327,236,100669,1,0,0:0:0:0:
372,104,100849,1,12,0:0:0:0:
416,240,101029,1,2,0:0:0:0:
416,240,101118,1,0,0:0:0:0:
416,240,101208,6,0,L|312:384,1,160,4|8,0:0|0:0,0:0:0:0:
448,332,101747,1,0,0:0:0:0:
277,299,101927,2,0,L|333:227,1,80,2|0,0:0|0:0,0:0:0:0:
497,268,102286,2,0,L|447:331,1,80,8|0,0:0|0:0,0:0:0:0:
408,168,102645,5,2,0:0:0:0:
345,105,102825,1,0,0:0:0:0:
408,43,103005,1,8,0:0:0:0:
470,105,103184,1,0,0:0:0:0:
470,105,103274,1,0,0:0:0:0:
470,105,103364,2,0,P|492:68|488:32,1,80,2|0,0:0|0:0,0:0:0:0:
326,32,103723,2,0,P|323:71|344:104,1,80,8|0,0:0|0:0,0:0:0:0:
204,192,104082,5,4,0:0:0:0:
308,192,104262,1,0,0:0:0:0:
180,192,104442,1,8,0:0:0:0:
332,192,104621,1,0,0:0:0:0:
152,192,104801,2,0,L|132:108,1,80,4|0,0:0|0:0,0:0:0:0:
378,114,105160,2,0,L|360:192,1,80,8|0,0:0|0:0,0:0:0:0:
256,288,105520,6,0,L|216:324,3,40,4|0|0|0,0:0|0:0|0:0|0:0,0:0:0:0:
132,304,105879,2,0,L|161:277,3,40,12|0|0|0,0:0|0:0|0:0|0:0,0:0:0:0:
68,256,106238,1,4,0:0:0:0:
38,230,106327,1,0,0:0:0:0:
27,192,106417,1,0,0:0:0:0:
37,154,106507,1,0,0:0:0:0:
67,128,106597,2,0,P|102:113|138:129,1,80,8|0,0:0|0:0,0:0:0:0:
256,208,106957,2,0,P|221:223|185:207,1,80,2|0,0:0|0:0,0:0:0:0:
316,128,107316,6,0,P|376:128|420:164,1,120,4|0,0:0|0:0,0:0:0:0:
348,200,107675,2,0,L|296:316,2,120,8|8|8,0:0|0:0|0:0,0:0:0:0:
316,128,108394,6,0,P|216:128|140:60,1,204.000003890991,4|0,0:0|0:0,0:0:0:0:
84,4,109112,2,0,L|36:52,1,68.0000012969971,8|0,0:0|0:0,0:0:0:0:
93,110,109472,2,0,L|141:62,1,68.0000012969971,2|0,0:0|0:0,0:0:0:0:
204,8,109831,2,0,P|256:8|296:36,1,102.000001945496
344,92,110190,6,0,B|392:92|392:92|420:108|420:108|464:108,1,120,4|0,0:0|0:0,0:0:0:0:
364,168,110549,2,0,B|316:168|316:168|288:152|288:152|244:152,2,120,8|8|8,0:0|0:0|0:0,0:0:0:0:
248,152,111268,6,0,P|268:224|168:272,1,204.000003890991,4|0,0:0|0:0,0:0:0:0:
132,204,111987,2,0,L|132:348,1,136.000002593994,8|0,0:0|0:0,0:0:0:0:
52,340,112526,1,2,0:0:0:0:
52,340,112705,6,0,L|52:256,1,80,4|0,0:0|0:0,0:0:0:0:
212,204,113064,2,0,L|212:288,1,80,8|0,0:0|0:0,0:0:0:0:
256,348,113334,1,0,0:0:0:0:
256,348,113424,2,0,B|336:322|336:374|412:350,1,160,2|8,0:0|0:0,0:0:0:0:
376,208,113963,1,0,0:0:0:0:
376,208,114142,6,0,P|391:245|375:280,1,80,2|0,0:0|0:0,0:0:0:0:
256,192,114502,2,0,P|241:155|257:120,1,80,8|0,0:0|0:0,0:0:0:0:
330,107,114771,1,0,0:0:0:0:
330,107,114861,2,0,P|345:71|330:35,1,80,2|0,0:0|0:0,0:0:0:0:
256,24,115130,1,0,0:0:0:0:
256,24,115220,1,8,0:0:0:0:
100,72,115400,6,0,B|100:132|100:132|80:164|80:164|80:228,1,160,4|0,0:0|0:0,0:0:0:0:
80,300,115849,1,0,0:0:0:0:
80,300,115939,1,8,0:0:0:0:
236,178,116118,2,0,B|236:118|236:118|256:86|256:86|256:22,1,160,4|0,0:0|0:0,0:0:0:0:
328,24,116567,1,0,0:0:0:0:
328,24,116657,1,8,0:0:0:0:
464,168,116837,6,0,B|464:228|464:228|444:260|444:260|444:324,1,160,4|8,0:0|0:0,0:0:0:0:
384,200,117376,1,8,0:0:0:0:
384,200,117555,2,0,L|384:164,3,26.6666666666667,8|8|8|8,0:0|0:0|0:0|0:0,0:0:0:0:
356,87,117915,1,2,0:0:0:0:
208,156,118094,1,2,0:0:0:0:
304,156,118274,1,2,0:0:0:0:
156,87,118454,6,0,B|84:51|84:51|12:86,1,160,4|8,0:0|0:0,0:0:0:0:
84,168,118993,1,0,0:0:0:0:
156,87,119172,2,0,P|171:51|156:15,1,80,2|0,0:0|0:0,0:0:0:0:
12,13,119532,2,0,P|-3:49|11:85,1,80,8|0,0:0|0:0,0:0:0:0:
106,244,119891,5,2,0:0:0:0:
106,244,119981,2,0,L|82:164,1,80
20,276,120250,2,0,L|42:352,1,80,8|0,0:0|0:0,0:0:0:0:
176,192,120609,2,0,L|153:115,1,80,2|0,0:0|0:0,0:0:0:0:
304,20,120969,1,8,0:0:0:0:
208,20,121148,1,0,0:0:0:0:
356,192,121328,6,0,P|396:256|355:319,1,160,2|8,0:0|0:0,0:0:0:0:
256,368,121867,1,0,0:0:0:0:
157,319,122046,2,0,B|139:282|139:282|156:246,1,80,2|0,0:0|0:0,0:0:0:0:
356,246,122406,2,0,B|373:282|373:282|355:319,1,80,8|0,0:0|0:0,0:0:0:0:
256,124,122765,6,0,B|280:200|228:200|254:280,1,160,2|8,0:0|0:0,0:0:0:0:
348,128,123304,1,0,0:0:0:0:
255,52,123484,1,2,0:0:0:0:
255,52,123573,2,0,P|218:36|182:51,1,80
183,124,123843,2,0,P|219:139|255:124,1,80,8|0,0:0|0:0,0:0:0:0:
468,184,124202,6,0,L|376:192,1,80,4|0,0:0|0:0,0:0:0:0:
425,279,124561,2,0,L|504:272,1,80,8|0,0:0|0:0,0:0:0:0:
378,358,124921,1,4,0:0:0:0:
378,358,125100,1,4,0:0:0:0:
160,192,125460,5,2,0:0:0:0:
80,128,125639,2,0,P|43:112|7:127,1,80,4|0,0:0|0:0,0:0:0:0:
7,256,125999,2,0,P|43:271|80:256,1,80,8|0,0:0|0:0,0:0:0:0:
160,192,126358,1,4,0:0:0:0:
160,192,126538,1,4,0:0:0:0:
256,108,126717,1,2,0:0:0:0:
256,108,126897,6,0,P|320:67|383:108,1,160,4|0,0:0|0:0,0:0:0:0:
488,192,127436,2,0,L|404:192,1,80,10|4,0:0|0:0,0:0:0:0:
348,280,127795,2,0,L|428:280,1,80
360,360,128154,2,0,L|276:360,1,80,10|4,0:0|0:0,0:0:0:0:
256,192,128514,5,4,0:0:0:0:
16,296,129052,1,4,0:0:0:0:
16,88,129412,1,4,0:0:0:0:
256,192,129951,6,0,L|328:192,1,68.0000012969971,4|0,0:0|0:0,0:0:0:0:
372,260,130310,2,0,L|444:260,1,68.0000012969971,2|0,0:0|0:0,0:0:0:0:
484,192,130669,2,0,B|484:144|452:124|452:124|452:64,1,136.000002593994,8|2,0:0|0:0,0:0:0:0:
384,20,131208,1,0,0:0:0:0:
384,20,131388,2,0,P|352:31|320:20,1,68.0000012969971,0|0,1:0|0:0,0:0:0:0:
256,68,131747,1,0,0:0:0:0:
192,20,131927,2,0,L|152:20,2,34.0000006484985,0|0|8,0:0|0:0|0:0,0:0:0:0:
256,340,132825,5,0,1:0:0:0:
256,340,133005,1,0,1:0:0:0:
184,300,133184,2,0,P|173:268|184:236,1,68.0000012969971,2|0,0:0|0:0,0:0:0:0:
204,156,133543,2,0,P|256:119|308:156,1,136.000002593994,8|2,0:0|0:0,0:0:0:0:
328,236,134082,1,0,0:0:0:0:
328,236,134262,2,0,P|338:268|328:300,1,68.0000012969971,0|0,1:0|0:0,0:0:0:0:
256,340,134621,1,2,0:0:0:0:
184,300,134801,2,0,L|144:300,2,34.0000006484985,0|0|8,0:0|0:0|0:0,0:0:0:0:
184,136,135340,1,2,0:0:0:0:
256,96,135520,1,0,0:0:0:0:
328,136,135699,6,0,P|408:136|464:188,1,160,4|2,0:0|0:0,0:0:0:0:
408,336,136238,1,0,0:0:0:0:
408,336,136418,2,0,P|328:336|272:284,1,160,0|8,1:0|0:0,0:0:0:0:
256,256,136867,1,8,0:0:0:0:
240,228,136957,1,8,0:0:0:0:
224,200,137046,1,8,0:0:0:0:
208,172,137136,6,0,P|168:172|136:144,1,80,4|2,0:0|0:0,0:0:0:0:
200,4,137496,2,0,P|240:4|272:32,1,80,4|2,0:0|0:0,0:0:0:0:
360,112,137855,2,0,B|329:192|385:192|361:268,1,160,0|0,1:0|1:0,0:0:0:0:
256,356,138394,1,0,1:0:0:0:
256,356,138484,1,0,1:0:0:0:
256,356,138573,6,0,P|219:370|184:354,1,80,4|0,0:0|0:0,0:0:0:0:
80,240,138933,2,0,P|117:226|152:242,1,80,8|0,0:0|0:0,0:0:0:0:
240,288,139292,2,0,P|255:252|241:216,1,80,8|0,0:0|0:0,0:0:0:0:
108,308,139652,2,0,P|92:343|106:379,1,80,12|0,0:0|0:0,0:0:0:0:
96,168,140011,6,0,L|84:76,1,80,12|0,0:0|0:0,0:0:0:0:
161,1,140370,1,8,0:0:0:0:
161,1,140460,1,0,0:0:0:0:
161,1,140549,1,0,0:0:0:0:
256,68,140729,2,0,L|266:147,1,80,8|8,0:0|0:0,0:0:0:0:
340,124,140999,1,8,0:0:0:0:
340,124,141088,2,0,L|329:44,1,80,12|0,0:0|0:0,0:0:0:0:
324,268,141448,6,0,B|288:268|256:304|256:304|230:268|188:268,1,160,4|8,0:0|0:0,0:0:0:0:
256,184,141987,1,0,0:0:0:0:
324,268,142166,2,0,P|338:304|323:340,1,80,2|0,0:0|0:0,0:0:0:0:
188,340,142526,2,0,P|173:303|187:267,1,80,8|0,0:0|0:0,0:0:0:0:
324,116,142885,6,0,B|288:116|256:80|256:80|230:116|188:116,1,160,4|8,0:0|0:0,0:0:0:0:
256,4,143424,1,0,0:0:0:0:
187,116,143603,2,0,B|170:152|170:152|188:189,1,80,2|0,0:0|0:0,0:0:0:0:
322,188,143963,2,0,B|340:151|340:151|323:115,1,80,8|0,0:0|0:0,0:0:0:0:
187,267,144322,6,0,P|173:303|188:340,1,80,4|8,0:0|0:0,0:0:0:0:
323,340,144681,2,0,P|338:304|324:268,1,80,2|8,0:0|0:0,0:0:0:0:
256,184,145041,1,4,0:0:0:0:
256,184,145220,1,4,0:0:0:0:
112,56,145579,1,4,0:0:0:0:
112,328,145939,1,0,1:0:0:0:
112,328,146029,1,0,1:0:0:0:
112,328,146118,1,0,1:0:0:0:
192,192,146298,5,0,1:0:0:0:
217,162,146387,1,0,1:0:0:0:
255,151,146477,1,0,1:0:0:0:
295,162,146567,1,0,1:0:0:0:
320,192,146657,1,0,1:0:0:0:
319,231,146747,1,0,1:0:0:0:
295,261,146836,1,0,1:0:0:0:
255,271,146926,1,0,1:0:0:0:
217,261,147016,1,0,1:0:0:0:
193,231,147106,1,0,1:0:0:0:
192,192,147196,6,0,P|152:192|120:168,1,80,4|0,0:0|0:0,0:0:0:0:
184,28,147555,2,0,P|224:28|256:52,1,80,8|0,0:0|0:0,0:0:0:0:
332,108,147915,1,2,0:0:0:0:
412,160,148094,1,0,0:0:0:0:
360,240,148274,1,8,0:0:0:0:
280,188,148453,1,0,0:0:0:0:
412,160,148633,2,0,P|448:175|484:161,1,80,2|0,0:0|0:0,0:0:0:0:
280,188,148993,6,0,P|244:173|208:187,1,80,8|0,0:0|0:0,0:0:0:0:
152,228,149262,1,0,0:0:0:0:
152,228,149352,1,2,0:0:0:0:
104,376,149532,1,0,0:0:0:0:
56,228,149711,1,8,0:0:0:0:
181,319,149891,1,0,0:0:0:0:
26,319,150070,6,0,L|26:159,1,160,2|8,0:0|0:0,0:0:0:0:
26,62,150609,1,0,0:0:0:0:
168,28,150789,1,2,0:0:0:0:
168,28,150879,1,0,0:0:0:0:
168,28,150969,2,0,B|151:64|151:64|169:101,1,80,0|8,0:0|0:0,0:0:0:0:
343,101,151328,5,0,0:0:0:0:
343,101,151508,2,0,B|361:64|361:64|344:28,1,80,2|0,0:0|0:0,0:0:0:0:
256,152,151867,2,0,B|232:224|280:224|256:312,1,160,8|2,0:0|0:0,0:0:0:0:
328,192,152406,1,0,0:0:0:0:
328,192,152496,1,0,0:0:0:0:
328,192,152585,1,8,0:0:0:0:
184,268,152765,1,0,0:0:0:0:
328,192,152945,6,0,P|368:192|400:216,1,80,4|0,0:0|0:0,0:0:0:0:
256,309,153304,1,8,0:0:0:0:
256,309,153484,2,0,P|176:309|124:249,1,160,2|0,0:0|0:0,0:0:0:0:
128,156,154023,2,0,P|164:141|200:155,1,80,8|0,0:0|0:0,0:0:0:0:
384,156,154382,6,0,P|348:141|312:155,1,80,4|0,0:0|0:0,0:0:0:0:
348,244,154741,1,8,0:0:0:0:
348,244,154921,2,0,L|348:80,1,160,2|0,0:0|0:0,0:0:0:0:
348,84,155460,1,8,0:0:0:0:
164,84,155639,6,0,L|164:244,1,160,4|0,0:0|0:0,0:0:0:0:
191,356,156178,1,8,0:0:0:0:
319,356,156358,2,0,P|256:315|192:356,1,160,4|0,0:0|0:0,0:0:0:0:
164,244,156897,2,0,P|124:244|92:212,1,80,8|0,0:0|0:0,0:0:0:0:
136,60,157256,2,0,P|216:60|276:112,1,160,4|8,0:0|0:0,0:0:0:0:
274,109,157795,1,0,0:0:0:0:
328,228,157975,5,8,0:0:0:0:
376,376,158154,1,0,0:0:0:0:
250,285,158334,1,12,0:0:0:0:
405,285,158514,1,0,0:0:0:0:
280,376,158693,6,0,L|117:339,1,160,4|8,0:0|0:0,0:0:0:0:
84,240,159232,1,0,0:0:0:0:
84,240,159412,2,0,L|168:260,1,80,2|0,0:0|0:0,0:0:0:0:
128,148,159771,2,0,L|50:129,1,80,8|0,0:0|0:0,0:0:0:0:
220,76,160130,2,0,P|256:61|292:75,1,80,2|0,0:0|0:0,0:0:0:0:
396,176,160490,2,0,P|360:191|324:177,1,80,8|0,0:0|0:0,0:0:0:0:
256,156,160759,1,0,0:0:0:0:
256,156,160849,5,2,0:0:0:0:
140,260,161029,1,0,0:0:0:0:
294,244,161208,1,8,0:0:0:0:
160,166,161388,1,0,0:0:0:0:
224,309,161567,6,0,B|241:345|241:345|223:382,1,80,2|0,0:0|0:0,0:0:0:0:
72,296,161927,2,0,B|54:259|54:259|71:223,1,80,8|0,0:0|0:0,0:0:0:0:
160,126,162286,2,0,L|160:166,2,40,2|0|0,0:0|0:0|0:0,0:0:0:0:
255,117,162645,2,0,B|272:81|272:81|254:44,1,80,8|0,0:0|0:0,0:0:0:0:
298,208,163005,5,2,0:0:0:0:
255,117,163184,1,0,0:0:0:0:
346,75,163364,1,8,0:0:0:0:
388,165,163543,1,0,0:0:0:0:
298,208,163723,2,0,L|280:252,2,40,0|8|8,1:0|0:0|0:0,0:0:0:0:
346,75,164082,5,8,0:0:0:0:
464,160,164262,1,0,0:0:0:0:
320,60,164442,1,4,0:0:0:0:
464,160,164621,1,4,0:0:0:0:
464,160,164981,1,4,0:0:0:0:
166,75,165520,5,8,0:0:0:0:
48,160,165700,1,0,0:0:0:0:
192,60,165880,1,4,0:0:0:0:
48,160,166059,1,4,0:0:0:0:
48,160,166419,1,4,0:0:0:0:
256,28,166777,1,0,0:0:0:0:
256,28,166957,2,0,L|256:112,1,80,8|0,0:0|0:0,0:0:0:0:
328,264,167316,6,0,B|346:227|346:227|329:191,1,80,4|0,0:0|0:0,0:0:0:0:
183,191,167675,2,0,B|166:227|166:227|184:264,1,80,8|0,0:0|0:0,0:0:0:0:
220,328,167945,1,0,0:0:0:0:
220,328,168035,2,0,B|257:346|257:346|293:329,1,80,4|0,0:0|0:0,0:0:0:0:
256,232,168394,1,8,0:0:0:0:
131,131,168573,2,0,L|259:235,1,160,4|0,0:0|0:0,0:0:0:0:
355,175,169112,1,8,0:0:0:0:
355,175,169202,1,8,0:0:0:0:
355,175,169292,1,8,0:0:0:0:
279,99,169471,5,8,0:0:0:0:
254,69,169561,1,8,0:0:0:0:
214,58,169651,1,8,0:0:0:0:
176,69,169741,1,8,0:0:0:0:
151,99,169830,1,8,0:0:0:0:
131,131,169921,1,8,0:0:0:0:
100,155,170010,1,8,0:0:0:0:
61,159,170100,1,8,0:0:0:0:
24,140,170190,5,4,0:0:0:0:
100,0,170370,1,4,0:0:0:0:
100,0,170729,1,4,0:0:0:0:
256,152,171088,6,0,B|273:188|273:188|255:225,1,80,2|8,0:0|0:0,0:0:0:0:
208,308,171448,1,2,0:0:0:0:
304,308,171627,1,4,0:0:0:0:
416,192,171807,1,4,0:0:0:0:
416,192,172166,1,4,0:0:0:0:
320,24,172526,5,2,0:0:0:0:
192,24,172705,1,8,0:0:0:0:
256,96,172885,1,0,0:0:0:0:
128,96,173064,2,0,P|48:96|0:156,1,160,4|8,0:0|0:0,0:0:0:0:
72,220,173603,1,0,0:0:0:0:
220,220,173783,2,0,P|256:205|292:219,1,80,4|0,0:0|0:0,0:0:0:0:
256,308,174142,1,8,0:0:0:0:
404,308,174322,6,0,B|380:228|428:228|404:148,1,160,4|2,0:0|0:0,0:0:0:0:
332,72,174861,1,8,0:0:0:0:
256,12,175041,1,0,0:0:0:0:
180,72,175220,1,8,0:0:0:0:
180,72,175400,1,8,0:0:0:0:
256,192,175579,1,8,0:0:0:0:
256,192,175759,1,8,0:0:0:0:
172,328,175939,5,4,0:0:0:0:
256,192,176118,1,4,0:0:0:0:
340,328,176298,1,4,0:0:0:0:
340,328,176657,6,0,P|376:343|412:329,1,80,2|0,0:0|0:0,0:0:0:0:
328,192,177017,2,0,P|292:177|256:191,1,80,2|0,0:0|0:0,0:0:0:0:
172,328,177376,5,4,1:2:0:0:
257,53,177915,1,0,1:0:0:0:
420,112,178274,1,0,1:0:0:0:
420,112,178364,1,0,1:0:0:0:
420,112,178454,2,0,L|447:35,1,80,0|0,1:0|0:0,0:0:0:0:
396,192,178813,6,0,B|324:168|324:216|236:192,1,160,0|0,1:0|0:0,0:0:0:0:
88,260,179352,1,2,1:2:0:0:
88,260,179442,1,0,1:0:0:0:
88,260,179532,2,0,B|88:224|124:192|124:192|88:166|88:124,1,160,0|0,1:0|0:0,0:0:0:0:
160,48,180070,1,0,0:0:0:0:
224,192,180250,6,0,L|192:192,6,26.6666666666667,4|0|0|0|0|0|0,1:2|1:0|1:0|1:0|1:0|1:0|1:0,0:0:0:0:
296,104,180789,1,4,1:2:0:0:
368,192,180969,2,0,B|386:229|386:229|369:265,1,80,0|2,0:0|0:0,0:0:0:0:
223,264,181328,2,0,B|206:228|206:228|224:191,1,80,0|0,1:0|0:0,0:0:0:0:
411,103,181687,6,0,B|359:79|359:127|295:103,2,120,0|0|0,1:0|1:0|1:0,0:0:0:0:
328,40,182406,1,0,1:0:0:0:
380,172,182585,1,0,1:0:0:0:
380,172,182675,1,0,1:0:0:0:
380,172,182765,1,0,1:0:0:0:
328,40,182945,1,0,1:0:0:0:
168,72,183124,5,4,1:2:0:0:
32,27,183304,1,0,0:0:0:0:
116,143,183484,1,2,0:0:0:0:
116,0,183663,1,0,0:0:0:0:
32,115,183843,1,2,0:0:0:0:
168,72,184023,2,0,L|208:144,1,80,2|0,0:0|0:0,0:0:0:0:
256,224,184382,5,4,1:2:0:0:
380,28,184741,1,4,1:2:0:0:
132,28,185100,1,4,1:2:0:0:
132,28,185280,2,0,B|95:10|95:10|59:27,1,80,4|0,1:2|0:0,0:0:0:0:
60,132,185639,2,0,B|97:150|97:150|133:133,1,80,8|0,0:0|0:0,0:0:0:0:
184,80,185909,1,0,0:0:0:0:
184,80,185999,6,0,B|269:103|269:55|341:79,1,160,0|2,1:0|0:0,0:0:0:0:
344,60,186717,2,0,B|272:36|272:84|186:60,1,160,0|2,1:0|0:0,0:0:0:0:
312,264,187436,6,0,P|327:300|313:336,1,80,0|0,1:0|1:0,0:0:0:0:
199,336,187795,2,0,P|184:300|200:264,1,80
256,220,188064,1,0,1:0:0:0:
256,220,188154,1,0,1:0:0:0:
185,149,188334,1,2,0:0:0:0:
256,78,188514,1,0,1:0:0:0:
256,78,188603,1,0,1:0:0:0:
256,78,188693,1,2,1:2:0:0:
326,149,188873,6,0,B|362:132|362:132|399:150,1,80,4|0,0:0|0:0,0:0:0:0:
292,264,189232,2,0,B|256:281|256:281|219:263,1,80,8|0,0:0|0:0,0:0:0:0:
113,150,189591,2,0,B|150:132|150:132|186:149,1,80,2|0,0:0|0:0,0:0:0:0:
256,72,189951,1,8,0:0:0:0:
326,149,190130,1,0,0:0:0:0:
186,149,190310,6,0,P|146:212|186:277,1,160,2|8,0:0|0:0,0:0:0:0:
320,276,190849,1,0,0:0:0:0:
320,276,190939,1,0,0:0:0:0:
320,276,191029,2,0,P|356:291|392:275,1,80,2|0,0:0|0:0,0:0:0:0:
456,192,191388,1,8,0:0:0:0:
391,109,191567,1,0,0:0:0:0:
256,109,191747,6,0,B|220:109|188:73|188:73|162:109|120:109,1,160,2|8,0:0|0:0,0:0:0:0:
56,192,192286,1,0,0:0:0:0:
119,275,192466,1,2,0:0:0:0:
119,275,192555,1,0,0:0:0:0:
119,275,192645,2,0,P|104:311|120:347,1,80,0|8,0:0|0:0,0:0:0:0:
224,348,193005,1,0,0:0:0:0:
360,348,193184,6,0,P|416:348|460:304,1,120,2|0,0:0|0:0,0:0:0:0:
388,280,193543,2,0,L|348:204,1,80,4|4,0:0|0:0,0:0:0:0:
219,121,193903,2,0,B|256:103|256:103|292:120,1,80,0|2,0:0|0:0,0:0:0:0:
161,209,194262,2,0,L|124:280,1,80,4|0,0:0|0:0,0:0:0:0:
319,355,194621,6,0,P|256:315|191:355,1,160,4|8,0:0|0:0,0:0:0:0:
124,280,195160,1,0,0:0:0:0:
56,200,195340,1,2,0:0:0:0:
136,132,195520,1,0,0:0:0:0:
204,212,195700,1,8,0:0:0:0:
344,104,195879,6,0,P|407:64|472:104,1,160,4|4,0:0|0:0,0:0:0:0:
472,104,196418,1,0,0:0:0:0:
472,279,196597,2,0,P|408:320|344:280,1,160,4|2,0:0|0:0,0:0:0:0:
256,336,197136,1,8,0:0:0:0:
168,280,197316,1,0,0:0:0:0:
256,156,197496,6,0,B|256:128|256:128|252:120|252:120|260:120|260:120|256:116|256:116|256:80,1,80,4|0,0:0|0:0,0:0:0:0:
300,28,197765,1,0,0:0:0:0:
300,28,197855,2,0,P|340:28|372:52,1,80,8|0,0:0|0:0,0:0:0:0:
492,156,198214,2,0,P|507:192|491:228,1,80,4|0,0:0|0:0,0:0:0:0:
371,333,198573,2,0,P|339:356|300:356,1,80,8|0,0:0|0:0,0:0:0:0:
256,260,198933,5,4,0:0:0:0:
256,124,199112,1,8,0:0:0:0:
256,124,199202,1,8,0:0:0:0:
256,124,199292,1,8,0:0:0:0:
176,192,199472,1,0,0:0:0:0:
336,192,199651,2,0,P|396:192|440:152,2,120,0|0|0,1:0|1:0|1:0,0:0:0:0:
256,124,200370,6,0,L|182:99,1,68.0000012969971,4|0,0:0|0:0,0:0:0:0:
111,170,200729,2,0,L|175:191,1,68.0000012969971,2|0,0:0|0:0,0:0:0:0:
125,264,201088,1,8,0:0:0:0:
260,217,201268,1,0,0:0:0:0:
179,335,201448,1,2,0:0:0:0:
175,191,201627,1,0,0:0:0:0:
262,306,201807,6,0,P|297:321|333:306,1,80,0|0,1:0|1:0,0:0:0:0:
175,191,202166,2,0,P|139:175|103:190,2,80,0|0|0,1:0|1:0|0:0,0:0:0:0:
256,120,202705,1,2,0:0:0:0:
256,120,202795,1,2,0:0:0:0:
256,120,202885,1,2,0:0:0:0:
352,192,203064,6,0,L|424:204,1,68.0000012969971,4|0,0:0|0:0,0:0:0:0:
324,269,203424,1,0,0:0:0:0:
324,269,203603,2,0,L|256:257,1,68.0000012969971,2|0,0:0|0:0,0:0:0:0:
160,240,203963,1,8,0:0:0:0:
256,120,204142,1,0,0:0:0:0:
256,257,204322,1,0,1:0:0:0:
176,146,204502,1,0,1:0:0:0:
176,146,204591,1,0,1:0:0:0:
176,146,204681,6,0,B|158:109|158:109|175:73,1,80,0|0,1:0|1:0,0:0:0:0:
338,73,205041,2,0,B|355:109|355:109|337:146,1,80,0|0,1:0|1:0,0:0:0:0:
256,257,205400,2,0,L|256:217,2,40,0|0|0,1:0|1:0|1:0,1:0:0:0:
320,332,205759,1,0,1:0:0:0:
295,362,205849,1,0,1:0:0:0:
255,373,205939,1,0,1:0:0:0:
217,362,206029,1,0,1:0:0:0:
192,332,206118,5,4,0:0:0:0:
448,48,206837,1,4,0:0:0:0:
64,48,207555,1,4,0:0:0:0:
448,336,208274,1,4,0:0:0:0:
360,264,208454,1,0,1:0:0:0:
360,264,208543,1,0,1:0:0:0:
360,264,208633,2,0,B|336:232|336:232|336:192,1,80,0|0,1:0|0:0,0:0:0:0:
188,88,208993,6,0,B|230:88|256:52|256:52|288:88|324:88,1,160,4|8,0:0|0:0,0:0:0:0:
256,168,209532,1,0,0:0:0:0:
188,88,209711,2,0,P|173:52|187:16,1,80,2|0,0:0|0:0,0:0:0:0:
325,15,210070,2,0,P|339:51|324:87,1,80,8|0,0:0|0:0,0:0:0:0:
184,196,210430,6,0,B|256:160|256:160|328:195,1,160,2|8,0:0|0:0,0:0:0:0:
115,122,210969,1,0,0:0:0:0:
115,122,211148,2,0,L|191:86,1,80,2|0,0:0|0:0,0:0:0:0:
324,87,211508,2,0,L|397:122,1,80,8|0,0:0|0:0,0:0:0:0:
468,242,211867,6,0,P|433:258|397:243,1,80,4|8,0:0|0:0,0:0:0:0:
397,122,212226,2,0,P|433:107|468:122,1,80,2|8,0:0|0:0,0:0:0:0:
396,242,212585,2,0,P|361:258|325:243,1,80,0|8,0:0|0:0,0:0:0:0:
325,122,212944,2,0,P|361:107|396:122,1,80,8|2,0:0|0:0,0:0:0:0:
236,192,213304,2,0,B|176:168|176:216|120:192,2,120,8|8|8,3:0|3:0|3:0,0:0:0:0:
131,111,214023,5,0,1:0:0:0:
131,111,214112,2,0,P|99:87|59:88,1,80,0|0,1:0|1:0,1:0:0:0:
49,170,214382,2,0,P|80:193|120:192,1,80,0|0,1:0|0:0,0:0:0:0:
251,101,214741,5,4,0:0:0:0:
256,104,215280,1,0,0:0:0:0:
256,104,215460,2,0,P|296:104|320:120,1,68.0000012969971,2|0,0:0|0:0,0:0:0:0:
384,192,215819,1,0,0:0:0:0:
318,266,215999,2,0,P|256:290|193:266,1,136.000002593994,4|4,0:0|0:0,0:0:0:0:
256,104,216717,5,0,0:0:0:0:
208,28,216897,2,0,P|256:14|304:28,2,102.000001945496,2|0|2,0:0|0:0|0:0,0:0:0:0:
256,104,217615,1,4,0:0:0:0:
256,104,218154,1,0,0:0:0:0:
256,104,218334,2,0,L|256:176,1,68.0000012969971,2|0,0:0|0:0,0:0:0:0:
194,245,218693,1,0,0:0:0:0:
194,245,218873,2,0,P|256:268|318:244,1,136.000002593994,4|4,0:0|0:0,0:0:0:0:
326,56,219591,5,2,0:0:0:0:
294,80,219681,1,0,0:0:0:0:
256,91,219771,1,0,1:0:0:0:
218,80,219861,1,0,1:0:0:0:
186,56,219951,1,0,1:0:0:0:
80,56,220130,2,0,P|69:87|81:118,1,68.0000012969971,0|0,1:0|0:0,0:0:0:0:
152,260,220490,5,4,0:0:0:0:
304,336,220669,1,0,0:0:0:0:
208,336,220849,1,8,0:0:0:0:
360,260,221029,2,0,B|412:236|412:192|412:192|412:116,1,160,2|0,0:0|0:0,0:0:0:0:
344,56,221567,5,8,0:0:0:0:
256,156,221747,1,0,0:0:0:0:
256,16,221927,1,4,0:0:0:0:
256,156,222106,1,0,0:0:0:0:
168,56,222286,1,8,0:0:0:0:
256,156,222466,2,0,B|228:232|284:232|256:312,1,160,2|0,0:0|0:0,0:0:0:0:
256,311,223005,1,8,0:0:0:0:
336,188,223184,6,0,B|364:112|308:112|336:32,1,160,4|2,0:0|0:0,0:0:0:0:
335,32,223723,1,8,0:0:0:0:
176,32,223903,2,0,B|204:112|148:112|176:188,1,160,4|2,0:0|0:0,0:0:0:0:
256,264,224442,1,8,0:0:0:0:
337,187,224621,1,0,0:0:0:0:
175,187,224801,6,0,P|95:187|52:124,1,160,4|8,0:0|0:0,0:0:0:0:
176,52,225340,1,0,0:0:0:0:
176,52,225520,2,0,L|132:128,1,80,8|0,0:0|0:0,0:0:0:0:
376,121,225879,2,0,L|336:52,1,80,12|0,0:0|0:0,0:0:0:0:
256,192,226238,6,0,B|224:264|288:264|256:348,1,160,4|8,0:0|0:0,0:0:0:0:
328,192,226777,1,0,0:0:0:0:
184,192,226957,2,0,P|169:157|184:121,1,80,2|0,0:0|0:0,0:0:0:0:
256,24,227316,1,8,0:0:0:0:
124,60,227496,6,0,L|256:156,1,160,2|0,0:0|0:0,0:0:0:0:
376,160,228035,1,8,0:0:0:0:
320,71,228214,1,0,0:0:0:0:
320,71,228304,1,0,0:0:0:0:
320,71,228394,2,0,L|244:15,1,80,2|0,0:0|0:0,0:0:0:0:
253,154,228753,2,0,L|317:201,1,80,8|0,0:0|0:0,0:0:0:0:
192,360,229112,6,0,P|257:319|320:360,1,160,4|8,0:0|0:0,0:0:0:0:
256,240,229651,1,0,0:0:0:0:
192,360,229831,1,2,0:0:0:0:
192,360,229921,2,0,B|174:323|174:323|191:287,1,80
256,240,230190,2,0,B|274:203|274:203|257:167,1,80,8|0,0:0|0:0,0:0:0:0:
420,108,230549,6,0,L|340:148,1,80,2|0,0:0|0:0,0:0:0:0:
348,240,230909,2,0,L|420:276,1,80,8|0,0:0|0:0,0:0:0:0:
320,360,231268,1,8,0:0:0:0:
295,330,231358,1,8,0:0:0:0:
255,319,231448,1,8,0:0:0:0:
217,330,231538,1,8,0:0:0:0:
192,360,231627,5,8,0:0:0:0:
256,232,231807,1,0,0:0:0:0:
320,360,231987,1,4,0:0:0:0:
256,208,232166,1,4,0:0:0:0:
256,208,232526,1,4,0:0:0:0:
320,0,233064,5,8,0:0:0:0:
256,128,233244,1,0,0:0:0:0:
192,0,233424,1,4,0:0:0:0:
256,152,233603,1,4,0:0:0:0:
256,152,233963,1,4,0:0:0:0:
160,292,234322,1,0,0:0:0:0:
160,292,234502,2,0,P|145:256|159:220,1,80,8|0,0:0|0:0,0:0:0:0:
84,116,234861,6,0,P|120:101|156:115,1,80,4|0,0:0|0:0,0:0:0:0:
320,224,235220,2,0,P|284:239|248:225,1,80,8|0,0:0|0:0,0:0:0:0:
159,219,235490,1,0,0:0:0:0:
159,219,235579,2,0,P|144:255|160:292,1,80,4|0,0:0|0:0,0:0:0:0:
256,352,235939,1,8,0:0:0:0:
320,224,236118,2,0,B|392:192|392:256|476:224,1,160,4|0,0:0|0:0,0:0:0:0:
392,126,236657,1,8,0:0:0:0:
392,126,236747,1,8,0:0:0:0:
392,126,236837,1,8,0:0:0:0:
256,124,237016,5,8,0:0:0:0:
231,154,237106,1,8,0:0:0:0:
191,165,237196,1,8,0:0:0:0:
153,154,237286,1,8,0:0:0:0:
128,124,237375,1,8,0:0:0:0:
108,92,237466,1,8,0:0:0:0:
77,68,237555,1,8,0:0:0:0:
38,64,237645,1,8,0:0:0:0:
1,83,237735,5,4,0:0:0:0:
40,240,237915,1,4,0:0:0:0:
40,240,238274,1,4,0:0:0:0:
220,308,238633,6,0,B|256:325|256:325|293:307,1,80,2|8,0:0|0:0,0:0:0:0:
316,212,238993,1,2,0:0:0:0:
340,120,239172,1,4,0:0:0:0:
172,120,239352,1,4,0:0:0:0:
172,120,239711,1,4,0:0:0:0:
340,28,240070,5,2,0:0:0:0:
172,28,240250,1,8,0:0:0:0:
256,72,240430,1,0,0:0:0:0:
88,72,240609,2,0,B|88:132|88:132|64:168|64:168|64:224,1,160,4|8,0:0|0:0,0:0:0:0:
64,224,241148,1,0,0:0:0:0:
16,104,241328,2,0,L|16:20,1,80,4|0,0:0|0:0,0:0:0:0:
88,72,241687,1,8,0:0:0:0:
140,192,241867,6,0,B|140:252|140:252|116:288|116:288|116:344,1,160,4|2,0:0|0:0,0:0:0:0:
208,344,242406,1,8,0:0:0:0:
308,344,242585,1,0,0:0:0:0:
356,260,242765,1,8,0:0:0:0:
356,260,242945,1,8,0:0:0:0:
356,124,243124,1,8,0:0:0:0:
356,124,243304,1,8,0:0:0:0:
156,124,243484,5,4,0:0:0:0:
256,0,243663,1,4,0:0:0:0:
356,124,243843,1,4,0:0:0:0:
356,124,244202,6,0,P|400:124|428:144,1,80,2|0,0:0|0:0,0:0:0:0:
400,236,244561,1,0,0:0:0:0:
372,328,244741,1,2,0:0:0:0:
372,328,244831,1,0,0:0:0:0:
372,328,244921,6,0,B|300:296|300:360|216:328,1,160,4|8,0:0|0:0,0:0:0:0:
104,256,245460,1,0,0:0:0:0:
104,256,245639,2,0,B|176:288|176:224|260:256,1,160,2|8,0:0|0:0,0:0:0:0:
140,188,246178,1,0,0:0:0:0:
140,188,246358,2,0,P|125:151|140:115,1,80,2|0,0:0|0:0,0:0:0:0:
256,88,246717,1,8,0:0:0:0:
371,115,246897,1,0,0:0:0:0:
371,115,246987,1,0,0:0:0:0:
371,115,247076,6,0,P|386:151|372:188,1,80,2|0,0:0|0:0,0:0:0:0:
320,292,247436,1,8,0:0:0:0:
192,292,247615,1,0,0:0:0:0:
192,292,247705,1,0,0:0:0:0:
192,292,247795,2,0,B|155:310|155:310|119:293,1,80,2|0,0:0|0:0,0:0:0:0:
119,91,248154,2,0,B|155:74|155:74|192:92,1,80,8|0,0:0|0:0,0:0:0:0:
256,192,248514,2,0,B|312:192|312:192|360:212|360:212|416:212,1,160,2|8,0:0|0:0,0:0:0:0:
304,268,249052,1,0,0:0:0:0:
304,268,249142,1,0,0:0:0:0:
304,268,249232,6,0,B|264:268|264:268|228:288,1,80,2|0,0:0|0:0,0:0:0:0:
376,136,249591,2,0,B|416:136|416:136|452:116,1,80,12|0,0:0|0:0,0:0:0:0:
360,16,249951,1,4,0:0:0:0:
256,96,250130,1,0,0:0:0:0:
152,16,250310,1,12,0:0:0:0:
68,156,250490,1,0,0:0:0:0:
68,156,250579,1,0,0:0:0:0:
68,156,250669,6,0,P|53:192|67:228,1,80,4|0,0:0|0:0,0:0:0:0:
188,348,251029,2,0,P|202:311|188:275,1,80,8|0,0:0|0:0,0:0:0:0:
112,312,251388,2,0,L|272:312,1,160,2|8,0:0|0:0,0:0:0:0:
352,260,251927,1,0,0:0:0:0:
432,208,252106,1,2,0:0:0:0:
380,128,252286,1,0,0:0:0:0:
300,180,252465,1,8,0:0:0:0:
216,40,252645,5,0,0:0:0:0:
216,40,252735,1,0,0:0:0:0:
216,40,252825,2,0,B|179:22|179:22|143:39,1,80,2|0,0:0|0:0,0:0:0:0:
56,76,253184,1,8,0:0:0:0:
143,199,253364,1,0,0:0:0:0:
143,199,253454,1,0,0:0:0:0:
143,199,253543,6,0,B|179:216|179:216|216:198,1,80,4|0,0:0|0:0,0:0:0:0:
369,199,253903,2,0,B|333:216|333:216|296:198,1,80,8|0,0:0|0:0,0:0:0:0:
180,328,254262,2,0,B|256:353|256:353|332:328,1,160,4|8,0:0|0:0,0:0:0:0:
256,192,254801,1,0,0:0:0:0:
180,56,254981,2,0,B|256:31|256:31|332:56,1,160,4|12,0:0|0:0,0:0:0:0:
424,80,255520,1,0,0:0:0:0:
424,80,255609,1,0,0:0:0:0:
424,80,255699,6,0,P|438:116|423:152,1,80,4|0,0:0|0:0,0:0:0:0:
424,304,256058,2,0,P|438:267|423:231,1,80,8|0,0:0|0:0,0:0:0:0:
340,116,256418,1,4,0:0:0:0:
340,116,256597,1,6,0:0:0:0:
340,268,256777,1,2,0:0:0:0:
340,268,256957,6,0,P|264:268|196:224,1,160,0|2,0:0|0:0,0:0:0:0:
168,192,257406,1,2,0:0:0:0:
140,164,257496,1,2,0:0:0:0:
128,128,257585,1,2,0:0:0:0:
128,88,257675,1,2,0:0:0:0:
140,52,257765,1,2,0:0:0:0:
168,24,257854,1,4,0:0:0:0:
344,24,258035,1,4,0:0:0:0:
