osu file format v14

[General]
AudioFilename: audio.mp3
AudioLeadIn: 1500
PreviewTime: 51835
Countdown: 0
SampleSet: Soft
StackLeniency: 0.7
Mode: 0
LetterboxInBreaks: 0
WidescreenStoryboard: 0

[Editor]
Bookmarks: 21247,82491,82573
DistanceSpacing: 0.8
BeatDivisor: 4
GridSize: 4
TimelineZoom: 2

[Metadata]
Title:Wagamama MIRROR HEART (TV Size)
TitleUnicode:ワガママMIRROR HEART (TV Size)
Artist:Ohashi Ayaka
ArtistUnicode:大橋彩香
Creator:eINess
Version:Normal
Source:政宗くんのリベンジ
Tags:Masamune kun no Revenge OP opening Neoskylove Frostings walaowey Affirmation Matsubara Kanon
BeatmapID:1176296
BeatmapSetID:555617

[Difficulty]
HPDrainRate:3.5
CircleSize:3.5
OverallDifficulty:4
ApproachRate:5
SliderMultiplier:1.2
SliderTickRate:1

[Events]
//Background and Video events
Video,1333,"Revenge.avi"
0,0,"Normal.jpg",0,0
//Break Periods
//Storyboard Layer 0 (Background)
//Storyboard Layer 1 (Fail)
//Storyboard Layer 2 (Pass)
//Storyboard Layer 3 (Foreground)
//Storyboard Sound Samples

[TimingPoints]
-292,331.491712707182,4,2,2,35,1,0
1531,-100,4,2,2,50,0,0
6835,-100,4,2,2,50,0,0
8492,-100,4,2,1,30,0,0
8658,-100,4,2,1,40,0,0
8989,-100,4,2,2,70,0,0
13962,-100,4,2,1,50,0,0
14293,-100,4,2,1,80,0,0
19597,-100,4,2,5,70,0,0
29210,-100,4,2,1,40,0,0
29376,-100,4,2,5,55,0,0
29542,-100,4,2,1,60,0,0
29873,-100,4,2,1,70,0,0
30039,-100,4,2,1,80,0,0
40813,-100,4,2,1,70,0,0
46116,-100,4,2,2,60,0,0
48105,-100,4,2,1,80,0,0
48768,-100,4,2,1,70,0,0
51752,-100,4,2,2,70,0,0
51917,-100,4,2,2,70,0,0
52415,-100,4,2,1,50,0,0
52746,-100,4,2,1,90,0,1
63022,-100,4,2,1,90,0,1
63354,-100,4,2,1,70,0,1
63685,-100,4,2,1,80,0,1
64017,-100,4,2,1,90,0,1
73962,-100,4,2,1,90,0,0
76614,-100,4,2,1,90,0,1
84569,-100,4,2,1,90,0,0

[Colours]
Combo1 : 255,132,255
Combo2 : 128,255,128
Combo3 : 0,128,192
Combo4 : 255,128,64
Combo5 : 128,128,255
Combo6 : 175,95,95

[HitObjects]
153,56,1531,6,0,P|123:90|186:195,1,180,2|2,0:0|0:0,0:0:0:0:
257,142,2359,2,0,P|322:136|397:163,1,120,2|0,0:0|0:0,0:0:0:0:
413,179,2857,1,2,0:0:0:0:
293,329,3520,6,0,L|220:311,1,60,0|2,0:0|0:0,0:0:0:0:
144,346,4017,1,0,0:0:0:0:
55,309,4348,1,2,0:0:0:0:
55,212,4680,1,0,0:0:0:0:
131,153,5011,6,0,L|141:21,1,120,2|0,0:0|0:0,0:0:0:0:
223,81,5674,2,0,L|213:200,1,120,2|0,0:0|0:0,0:0:0:0:
280,270,6337,2,0,P|337:245|426:318,1,180,2|2,0:0|0:0,0:0:0:0:
193,58,8989,6,0,L|73:71,1,120,6|2,0:0|0:0,0:0:0:0:
24,153,9652,1,2,0:0:0:0:
58,186,9818,2,0,L|191:173,1,120,2|6,0:0|0:0,0:0:0:0:
256,119,10481,2,0,P|289:114|319:116,1,60,0|0,0:0|3:0,0:0:0:0:
388,52,10978,2,0,P|413:110|391:178,1,120,2|0,0:0|3:0,0:0:0:0:
371,201,11475,1,0,3:0:0:0:
371,201,11641,6,0,L|505:188,1,120,6|2,0:0|0:0,0:0:0:0:
457,279,12304,2,0,L|337:290,1,120,2|0,0:0|0:0,0:0:0:0:
289,294,12801,1,6,0:0:0:0:
151,337,13299,2,0,P|157:273|157:254,1,60,2|0,0:0|3:0,0:0:0:0:
98,200,13796,2,0,P|107:153|117:135,1,60,0|8,3:0|0:0,0:0:0:0:
202,108,14293,6,0,L|194:32,2,60,6|0|8,0:0|0:0|0:0,0:0:0:0:
235,142,14790,1,2,0:0:0:0:
327,117,15122,2,8,P|371:112|397:123,1,60,10|8,0:0|0:0,0:0:0:0:
411,157,15453,2,8,B|397:212|397:212|401:274|401:274|378:349,1,180,12|8,0:0|0:0,0:0:0:0:
337,344,16116,1,0,0:0:0:0:
337,344,16282,2,8,P|245:324|214:306,1,120,0|8,1:0|0:0,0:0:0:0:
145,244,16945,6,0,P|84:249|32:305,1,120,2|2,0:0|0:0,0:0:0:0:
13,325,17442,2,0,L|-3:178,1,120,4|2,0:0|0:0,0:0:0:0:
35,172,17940,1,0,1:0:0:0:
35,172,18105,2,0,P|68:120|40:53,1,120,14|0,0:0|0:0,0:0:0:0:
26,27,18603,1,12,0:0:0:0:
241,311,19597,6,0,P|325:317|363:281,1,120,6|2,0:0|0:0,0:0:0:0:
426,240,20260,1,2,0:0:0:0:
426,240,20426,2,0,L|420:169,1,60,0|2,3:0|3:2,0:0:0:0:
355,109,20923,2,0,P|388:87|486:109,2,120,2|2|2,3:2|3:2|3:2,0:0:0:0:
293,182,21917,1,0,1:0:0:0:
197,169,22249,6,0,L|209:43,2,120,2|2|2,3:2|3:2|0:0,0:0:0:0:
120,227,23243,1,2,3:2:0:0:
152,317,23575,2,0,P|94:320|45:288,2,120,2|2|2,0:0|0:0|0:0,0:0:0:0:
231,261,24569,1,0,1:0:0:0:
289,337,24901,6,0,P|323:283|314:215,1,120,6|2,0:0|0:0,0:0:0:0:
246,166,25564,1,2,0:0:0:0:
246,166,25730,2,0,P|254:123|269:103,1,60,2|2,3:2|3:2,0:0:0:0:
358,122,26227,2,0,B|408:108|408:108|421:89|421:89|484:73,2,120,2|2|2,3:2|3:2|3:2,0:0:0:0:
427,188,27221,1,0,1:0:0:0:
501,250,27553,6,0,P|460:239|395:295,1,120,2|2,3:2|0:0,0:0:0:0:
373,320,28050,1,0,3:0:0:0:
373,320,28216,2,0,L|232:302,1,120,2|2,0:0|3:2,0:0:0:0:
163,334,28879,2,0,P|162:275|197:227,1,120,2|6,0:0|0:0,0:0:0:0:
251,147,29542,2,0,L|310:157,2,60,4|2|8,0:3|0:0|0:3,0:0:0:0:
222,108,30039,6,0,L|75:132,1,120,6|2,0:0|3:0,0:0:0:0:
56,138,30536,1,8,0:0:0:0:
13,224,30868,1,4,3:0:0:0:
13,224,31033,2,0,L|29:301,1,60,0|8,0:0|0:0,0:0:0:0:
57,318,31365,2,0,P|107:345|186:320,1,120,2|2,0:3|0:0,0:0:0:0:
210,312,31862,1,8,0:0:0:0:
189,217,32194,2,0,L|200:88,1,120,4|8,3:0|0:0,0:0:0:0:
275,39,32857,6,0,P|326:31|401:74,1,120,6|8,0:0|0:0,0:0:0:0:
425,86,33354,2,0,B|407:152|407:152|410:222,1,120,2|2,3:0|0:0,0:0:0:0:
416,251,33851,1,8,0:0:0:0:
333,300,34183,2,0,L|322:165,1,120,0|8,1:0|0:0,0:0:0:0:
267,99,34846,2,0,P|241:85|213:75,1,60,4|0,3:0|3:0,0:0:0:0:
172,96,35177,2,0,P|143:86|117:71,1,60,8|0,0:0|3:0,0:0:0:0:
80,40,35509,6,0,P|86:107|96:184,1,120,6|8,0:0|0:0,0:0:0:0:
124,196,36006,2,0,P|116:264|96:336,1,120,2|0,0:3|0:0,0:0:0:0:
80,356,36503,1,8,0:0:0:0:
176,352,36835,2,0,P|232:336|300:348,1,120,0|8,1:0|0:0,0:0:0:0:
376,296,37498,2,0,P|412:312|448:320,2,60,2|4|8,3:2|0:3|0:0,0:0:0:0:
340,264,37995,6,0,L|328:136,1,120,6|2,0:0|0:3,0:0:0:0:
324,96,38492,1,8,0:0:0:0:
244,148,38824,2,0,P|196:156|120:116,1,120,4|8,0:3|0:3,0:0:0:0:
92,100,39321,1,12,0:0:0:0:
20,164,39652,2,0,L|24:228,1,60,6|4,0:0|3:0,0:0:0:0:
28,272,39984,1,12,0:0:0:0:
100,336,40315,2,0,P|156:328|176:320,1,60,2|8,3:2|0:0,0:0:0:0:
220,256,40813,6,0,L|212:172,2,60,12|8|8,0:0|0:0|0:0,0:0:0:0:
256,288,41310,2,0,L|264:372,2,60,2|4|2,0:3|3:0|3:0,0:0:0:0:
332,232,41973,2,0,P|391:242|449:257,1,120,6|2,0:0|0:0,0:0:0:0:
496,272,42470,1,8,0:0:0:0:
496,176,42801,2,0,P|436:165|378:150,1,120,4|8,3:0|0:0,0:0:0:0:
304,92,43464,6,0,P|320:52|324:28,2,60,12|8|8,0:0|0:0|0:0,0:0:0:0:
272,128,43962,2,0,P|256:168|252:192,2,60,2|4|2,0:3|3:0|0:3,0:0:0:0:
212,52,44625,2,0,P|160:40|100:88,1,120,6|2,0:0|0:0,0:0:0:0:
88,120,45122,1,8,0:0:0:0:
116,212,45453,2,0,L|188:204,2,60,8|4|8,0:0|0:3|0:0,0:0:0:0:
80,300,46116,6,0,B|216:284|216:284|264:308,1,180,2|2,0:0|0:0,0:0:0:0:
396,332,47111,2,0,P|324:328|312:216,1,180,2|2,0:0|0:0,0:0:0:0:
392,128,48105,1,8,0:0:0:0:
360,36,48437,1,8,0:0:0:0:
268,60,48768,6,0,P|212:76|132:64,1,120,6|8,0:0|0:0,0:0:0:0:
104,56,49266,2,0,P|145:96|175:171,1,120,2|4,0:0|0:3,0:0:0:0:
172,200,49763,2,0,L|156:264,1,60,8|6,0:0|0:0,0:0:0:0:
232,320,50260,2,0,L|246:261,1,60,8|8,0:0|0:0,0:0:0:0:
336,228,50757,6,0,P|384:248|436:240,2,90,8|8|8,0:0|0:0|0:0,0:0:0:0:
328,180,51420,2,0,L|316:60,1,120,10|2,0:0|0:0,0:0:0:0:
36,132,52746,6,0,P|112:108|172:120,1,120,6|8,0:0|0:0,0:0:0:0:
188,144,53243,2,0,L|176:272,1,120,2|0,0:3|0:0,0:0:0:0:
172,312,53741,1,8,0:0:0:0:
260,352,54072,2,0,P|308:340|324:328,1,60,6|0,0:0|0:0,0:0:0:0:
356,308,54404,2,0,P|404:320|420:332,1,60,8|0,0:0|3:0,0:0:0:0:
452,348,54735,2,0,P|436:296|448:212,1,120,0|8,1:0|0:0,0:0:0:0:
484,144,55398,6,0,L|344:164,1,120,6|8,0:0|0:0,0:0:0:0:
300,232,56061,2,0,L|181:215,1,120,4|8,1:2|0:0,0:0:0:0:
120,140,56724,2,0,P|136:96|140:72,2,60,6|2|8,0:0|0:3|0:0,0:0:0:0:
80,168,57221,2,0,L|96:308,1,120,6|0,0:0|1:0,0:0:0:0:
104,336,57719,1,8,0:0:0:0:
196,368,58050,6,0,P|240:348|264:328,1,60,6|2,0:0|0:3,0:0:0:0:
296,344,58382,2,0,P|324:305|336:276,1,60,8|0,0:0|0:0,0:0:0:0:
364,260,58713,2,0,L|220:228,1,120,0|8,1:0|0:0,0:0:0:0:
216,196,59210,1,2,0:3:0:0:
216,196,59376,2,0,L|98:222,1,120,6|8,0:0|0:0,0:0:0:0:
20,164,60039,2,0,P|16:104|68:44,1,120,0|8,1:0|1:2,0:0:0:0:
140,24,60702,6,0,P|197:40|236:110,1,120,6|8,0:0|0:0,0:0:0:0:
252,132,61199,2,0,P|320:128|380:84,1,120,2|2,0:3|0:3,0:0:0:0:
404,76,61696,1,8,0:0:0:0:
404,76,61862,2,0,P|390:146|384:216,1,120,6|4,0:0|3:0,0:0:0:0:
404,240,62359,1,8,0:0:0:0:
368,328,62691,2,0,L|288:320,1,60,0|0,1:0|0:0,0:0:0:0:
284,280,63022,2,0,L|224:285,1,60,8|0,0:0|0:0,0:0:0:0:
184,312,63354,6,0,P|156:332|64:320,2,120,10|10|10,0:0|0:0|0:0,0:0:0:0:
144,172,64514,1,6,0:0:0:0:
168,128,64680,2,0,L|316:112,1,120,0|8,1:0|0:0,0:0:0:0:
356,48,65343,2,0,L|496:64,1,120,0|8,1:0|0:0,0:0:0:0:
508,152,66006,6,0,L|496:228,2,60,4|2|8,3:0|0:0|0:0,0:0:0:0:
416,180,66669,2,0,L|404:256,2,60,4|2|8,3:0|0:0|0:0,0:0:0:0:
324,200,67332,2,0,L|300:317,1,120,6|8,1:2|0:0,0:0:0:0:
268,352,67829,2,0,P|216:320|144:328,1,120,6|0,1:2|1:0,0:0:0:0:
116,344,68326,1,8,0:0:0:0:
40,284,68658,6,0,L|64:156,1,120,6|8,0:0|0:0,0:0:0:0:
88,124,69155,2,0,P|156:140|204:92,1,120,2|2,3:0|0:3,0:0:0:0:
224,76,69652,1,8,0:0:0:0:
308,28,69984,2,0,P|316:100|292:144,1,120,6|8,0:0|0:0,0:0:0:0:
264,176,70481,2,0,L|276:300,1,120,2|2,0:3|0:3,0:0:0:0:
280,344,70978,1,8,0:0:0:0:
188,324,71310,6,0,L|129:337,1,60,6|0,0:0|0:0,0:0:0:0:
84,316,71641,2,2,P|72:288|72:248,1,60,8|2,0:0|3:0,0:0:0:0:
96,216,71973,1,0,1:0:0:0:
124,176,72138,2,0,L|108:92,2,60,2|8|4,1:3|0:0|0:0,0:0:0:0:
208,224,72801,2,0,L|224:156,1,60,2|8,0:0|0:0,0:0:0:0:
236,120,73133,1,2,3:0:0:0:
236,120,73299,2,0,P|288:100|368:124,1,120,8|0,0:0|1:0,0:0:0:0:
412,188,73962,6,0,L|472:180,1,60,6|8,0:0|0:0,0:0:0:0:
504,272,74459,2,0,L|444:280,1,60,6|8,0:0|0:0,0:0:0:0:
376,348,74956,2,0,L|316:356,1,60,6|8,0:0|0:0,0:0:0:0:
264,276,75453,2,0,L|204:284,1,60,2|8,0:3|0:0,0:0:0:0:
164,256,75785,1,2,0:3:0:0:
164,256,75951,2,0,P|168:188|144:132,1,120,2|8,0:2|0:0,0:0:0:0:
96,60,76614,6,0,P|160:88|232:76,1,120,14|8,0:0|0:0,0:0:0:0:
292,40,77277,2,0,L|424:64,1,120,8|8,0:0|0:0,0:0:0:0:
468,140,77940,2,0,P|488:200|460:264,2,120,8|8|8,0:0|0:0|0:0,0:0:0:0:
388,196,78934,1,8,0:0:0:0:
308,252,79266,6,0,L|164:220,1,120,12|8,0:0|0:0,0:0:0:0:
152,196,79763,1,2,0:3:0:0:
152,196,79929,2,0,L|164:344,1,120,8|8,0:0|0:0,0:0:0:0:
72,352,80592,2,0,L|62:232,1,120,6|8,0:0|0:0,0:0:0:0:
36,192,81089,1,2,0:3:0:0:
36,192,81254,2,0,L|45:72,1,120,4|8,1:2|0:0,0:0:0:0:
132,32,81917,6,0,P|184:44|240:88,1,120,6|8,0:0|0:0,0:0:0:0:
312,144,82580,2,0,P|369:129|416:92,1,120,8|8,0:0|0:0,0:0:0:0:
448,56,83078,1,2,0:0:0:0:
448,56,83243,2,0,L|464:200,1,120,6|8,0:0|0:0,0:0:0:0:
416,260,83906,2,0,P|368:252|344:252,1,60,0|2,1:0|0:0,0:0:0:0:
320,280,84238,2,0,P|290:277|260:271,1,60,10|2,0:0|0:0,0:0:0:0:
228,236,84569,6,0,L|220:156,2,60,0|4|12,1:0|0:3|0:0,0:0:0:0:
152,296,85232,2,0,L|146:355,2,60,0|4|12,1:0|0:3|0:0,0:0:0:0:
100,216,85895,2,0,L|92:136,1,60,0|4,1:0|0:3,0:0:0:0:
88,108,86227,1,12,0:0:0:0:
156,40,86558,2,0,P|186:44|232:64,1,60,0|4,1:0|0:3,0:0:0:0:
252,84,86890,1,12,0:0:0:0:
256,192,87221,12,12,89708,0:0:0:0:
