osu file format v14

[General]
AudioFilename: audio.ogg
AudioLeadIn: 0
PreviewTime: 55399
Countdown: 0
SampleSet: Soft
StackLeniency: 0.7
Mode: 2
LetterboxInBreaks: 0
WidescreenStoryboard: 1

[Editor]
Bookmarks: 2066,4732,7399,10066,11399,12399,12732,15399,18066,20732,23399,31399,34066,42066,42566,43232,44732,47399,48732,50066,51399,52732,54066,55399,56732,59399,60732,62066,66066,67399,70066,72732,75399,76732,77732,78066,80732,83732,84399,85066,85732,86066,86732,87399
DistanceSpacing: 1.2
BeatDivisor: 2
GridSize: 16
TimelineZoom: 3.299999

[Metadata]
Title:Please, please! (TV Size)
TitleUnicode:Please, please! (TV Size)
Artist:Ohashi Ayaka
ArtistUnicode:大橋彩香
Creator:Greaper
Version:Cup
Source:政宗くんのリベンジR
Tags:blackbn blackbq masamune-kun's revenge r op opening anime japanese pop j-pop jpop female vocals no silver link.
BeatmapID:4409876
BeatmapSetID:2102063

[Difficulty]
HPDrainRate:2
CircleSize:2.5
OverallDifficulty:6
ApproachRate:6
SliderMultiplier:1.3
SliderTickRate:1

[Events]
//Background and Video events
0,0,"bg.jpg",0,0
//Break Periods
//Storyboard Layer 0 (Background)
//Storyboard Layer 1 (Fail)
//Storyboard Layer 2 (Pass)
//Storyboard Layer 3 (Foreground)
//Storyboard Layer 4 (Overlay)
//Storyboard Sound Samples

[TimingPoints]
723,333.333333333333,4,2,11,50,1,0
2056,-100,4,2,11,60,0,0
7389,-100,4,2,11,65,0,0
10056,-100,4,2,11,70,0,0
11389,-100,4,2,11,60,0,0
12389,-100,4,2,11,65,0,0
12722,-100,4,2,11,70,0,0
20722,-100,4,2,11,65,0,0
23389,-100,4,2,11,60,0,0
34056,-100,4,2,11,65,0,0
44722,-100,4,2,11,60,0,0
48722,-100,4,2,12,60,0,0
48806,-100,4,2,11,60,0,0
50056,-100,4,2,11,70,0,0
52722,-100,4,2,11,75,0,0
56722,-100,4,2,12,85,0,1
56806,-100,4,2,11,85,0,1
66056,-100,4,2,11,70,0,0
67389,-100,4,2,12,85,0,1
67472,-100,4,2,11,85,0,1
76722,-100,4,2,11,70,0,0
78056,-100,4,2,12,80,0,1
78139,-100,4,2,11,80,0,1
87389,-100,4,2,11,50,0,0

[Colours]
Combo1 : 227,204,155
Combo2 : 225,157,220
Combo3 : 154,216,228

[HitObjects]
273,217,2056,6,0,L|133:205,2,130,2|0|8,3:2|3:0|3:2,0:0:0:0:
403,147,3056,2,0,L|406:57,1,65,0|0,3:0|0:0,0:0:0:0:
320,51,3389,6,0,L|180:43,2,130,2|0|8,3:2|3:0|3:2,0:0:0:0:
451,52,4389,1,0,3:0:0:0:
297,135,4722,6,0,P|261:192|302:232,1,130,2|0,3:2|3:0,0:0:0:0:
361,226,5222,1,0,0:0:0:0:
425,286,5389,2,0,P|466:216|402:171,1,130,8|0,3:2|3:0,0:0:0:0:
298,231,6056,6,0,L|454:245,1,130,2|0,3:2|3:0,0:0:0:0:
450,170,6556,1,0,0:0:0:0:
431,111,6722,1,8,3:2:0:0:
302,97,7056,1,0,3:0:0:0:
457,333,7389,6,0,P|475:292|441:193,1,130,8|8,0:0|0:0,0:0:0:0:
326,197,8056,2,0,L|320:128,1,65,8|0,0:0|0:0,0:0:0:0:
460,107,8556,6,0,L|263:99,1,195,0|8,0:0|0:0,0:0:0:0:
131,135,9389,2,0,L|49:143,2,65,8|0|8,0:0|0:0|0:0,0:0:0:0:
256,192,10056,12,8,11056,0:3:0:0:
188,186,11389,5,2,3:2:0:0:
385,163,11889,1,2,0:0:0:0:
254,132,12222,2,0,L|251:57,1,65,8|4,3:0|0:0,0:0:0:0:
409,57,12722,6,0,P|431:104|406:186,1,130,2|8,3:2|0:0,0:0:0:0:
346,184,13222,1,8,0:0:0:0:
216,194,13556,1,2,0:3:0:0:
377,205,13889,6,0,L|382:346,1,130,2|2,0:3|0:3,0:0:0:0:
249,267,14556,1,2,0:3:0:0:
249,267,14722,2,0,L|387:283,1,130,0|8,3:0|0:0,0:0:0:0:
209,81,15389,6,0,P|181:156|204:217,1,130,2|8,3:2|0:0,0:0:0:0:
259,210,15889,1,8,0:0:0:0:
388,219,16222,1,2,0:3:0:0:
228,214,16556,6,0,L|221:347,1,130,2|2,0:3|0:3,0:0:0:0:
287,347,17056,1,8,0:0:0:0:
416,296,17389,2,0,L|419:197,1,65,0|2,3:0|0:3,0:0:0:0:
353,213,17722,1,8,0:0:0:0:
183,190,18056,6,0,L|12:179,1,130,2|8,3:2|0:0,0:0:0:0:
49,108,18556,1,8,0:0:0:0:
179,65,18889,1,2,0:3:0:0:
22,341,19222,6,0,L|19:208,1,130,2|2,0:3|0:3,0:0:0:0:
146,192,19889,1,2,0:3:0:0:
146,192,20056,2,0,L|-6:179,1,130,0|8,3:0|0:0,0:0:0:0:
178,136,20722,6,0,L|181:276,1,130,2|8,3:2|0:0,0:0:0:0:
115,269,21222,1,0,0:0:0:0:
247,267,21556,1,0,0:0:0:0:
409,234,21889,6,0,L|447:172,2,65,0|0|0,0:0|3:0|3:0,0:0:0:0:
276,227,22556,2,0,L|271:150,1,65,0|0,3:0|0:0,0:0:0:0:
425,115,23056,1,4,3:2:0:0:
271,91,23389,6,0,L|61:79,1,195,6|2,0:0|3:2,0:0:0:0:
212,154,24222,2,0,L|218:235,1,65,0|10,3:0|0:2,0:0:0:0:
54,260,24722,6,0,B|57:130|57:130|141:121,1,195,2|2,3:2|0:0,0:0:0:0:
255,111,25556,2,0,L|258:17,1,65,0|8,3:0|0:0,0:0:0:0:
96,33,26056,6,0,P|104:127|196:158,1,195,0|2,3:0|3:2,0:0:0:0:
321,153,26889,2,0,L|327:227,1,65,2|10,3:2|0:2,0:0:0:0:
168,310,27389,6,0,P|123:249|171:143,1,195,2|2,3:2|0:2,0:0:0:0:
293,140,28222,2,0,L|294:64,1,65,0|10,3:0|0:0,0:0:0:0:
447,103,28722,6,0,L|434:297,1,195,2|0,3:2|3:0,0:0:0:0:
304,230,29556,2,0,L|297:120,1,65,0|10,3:0|0:2,0:0:0:0:
168,112,30056,6,0,L|159:314,1,195,2|0,3:2|0:0,0:0:0:0:
290,319,30889,2,0,L|366:325,1,65,2|10,3:2|0:2,0:0:0:0:
213,297,31389,6,0,L|5:319,1,195,2|0,3:2|3:0,0:0:0:0:
150,216,32222,2,0,L|153:133,1,65,2|10,3:2|0:2,0:0:0:0:
256,192,32722,12,12,33722,0:0:0:0:
329,278,34056,6,0,P|380:200|322:111,1,195,4|2,0:0|3:0,0:0:0:0:
273,112,34722,1,2,0:0:0:0:
141,125,35056,1,8,0:0:0:0:
311,61,35389,6,0,P|312:161|216:199,1,195,2|2,3:2|0:3,0:0:0:0:
172,221,36056,1,2,0:2:0:0:
301,230,36389,1,10,0:2:0:0:
136,314,36722,6,0,P|102:243|135:133,1,195,2|2,3:2|3:0,0:0:0:0:
198,145,37389,2,0,L|36:133,1,130,2|8,0:2|0:0,0:0:0:0:
231,75,38056,6,0,L|376:81,1,130,2|8,3:2|0:0,0:0:0:0:
226,167,38722,2,0,L|152:174,2,65,2|0|10,0:2|3:0|0:2,0:0:0:0:
393,237,39389,6,0,L|395:105,1,130,0|8,3:0|0:0,0:0:0:0:
328,99,39889,1,2,3:2:0:0:
194,87,40222,2,0,L|187:7,1,65,2|10,3:0|0:2,0:0:0:0:
32,32,40722,6,0,L|26:171,1,130,0|8,3:0|0:0,0:0:0:0:
154,189,41389,2,0,L|241:195,2,65,2|2|10,0:2|3:0|0:2,0:0:0:0:
16,240,42056,6,0,L|236:269,1,195,4|4,0:0|0:0,0:0:0:0:
81,344,42889,1,2,3:0:0:0:
248,338,43222,6,0,P|363:288|236:71,1,455,6|8,0:2|0:0,0:0:0:0:
72,73,44722,6,0,L|66:284,1,195,4|0,0:0|3:0,0:0:0:0:
131,272,45389,1,8,0:0:0:0:
264,268,45722,2,0,L|264:175,1,65,2|2,0:0|3:2,0:0:0:0:
179,195,46056,5,10,0:2:0:0:
112,190,46222,2,0,L|103:29,1,130,2|2,3:2|3:0,0:0:0:0:
168,47,46722,1,10,0:0:0:0:
298,33,47056,1,2,0:0:0:0:
146,105,47389,6,0,L|354:121,1,195,2|0,3:2|3:0,0:0:0:0:
345,191,48056,1,8,0:0:0:0:
221,222,48389,2,0,L|219:295,1,65,2|2,3:2|3:2,0:0:0:0:
307,306,48722,6,0,P|385:281|283:64,1,390,4|10,0:0|0:2,0:0:0:0:
133,62,50056,5,6,3:2:0:0:
198,75,50222,2,0,L|209:209,1,130,0|2,3:0|0:0,0:0:0:0:
410,150,51056,1,10,0:0:0:0:
253,212,51389,5,14,3:2:0:0:
319,215,51556,2,0,L|326:345,1,130,0|2,3:0|0:0,0:0:0:0:
194,338,52222,2,0,L|266:325,1,65,0|8,0:0|3:0,0:0:0:0:
421,206,52722,6,0,P|449:136|400:72,1,130,14|8,0:0|0:0,0:0:0:0:
294,81,53389,2,0,L|448:67,1,130,10|10,0:0|0:0,0:0:0:0:
256,192,54056,12,8,55389,0:0:0:0:
111,174,56389,5,4,0:0:0:0:
272,168,56722,6,0,L|277:62,1,65,4|2,0:0|0:3,0:0:0:0:
210,192,57056,2,0,L|207:59,1,130,10|0,0:0|3:0,0:0:0:0:
338,58,57722,1,8,0:0:0:0:
174,301,58056,6,0,L|169:195,1,65,0|2,3:0|0:3,0:0:0:0:
236,325,58390,2,0,L|239:192,1,130,10|0,0:0|3:0,0:0:0:0:
109,187,59056,1,10,0:0:0:0:
265,161,59389,6,0,L|416:147,1,130,2|8,3:2|0:0,0:0:0:0:
412,82,59889,1,2,0:3:0:0:
399,24,60056,2,0,L|250:14,1,130,2|8,3:2|0:0,0:0:0:0:
427,174,60722,6,0,L|436:325,1,130,2|10,3:2|0:2,0:0:0:0:
368,312,61222,1,10,0:2:0:0:
301,324,61389,1,2,3:2:0:0:
170,335,61722,1,10,0:2:0:0:
329,245,62056,6,0,L|332:89,1,130,6|8,3:2|0:0,0:0:0:0:
205,177,62722,2,0,L|196:83,1,65,2|2,3:2|0:2,0:0:0:0:
323,68,63222,6,0,L|110:62,1,195,2|8,0:2|0:0,0:0:0:0:
259,212,64056,2,0,L|323:219,2,65,2|2|10,3:2|0:2|0:2,0:0:0:0:
176,197,64556,6,0,P|114:239|178:332,1,195,2|10,0:2|0:2,0:0:0:0:
292,337,65389,2,0,L|296:184,1,130,2|14,3:2|0:2,0:0:0:0:
126,135,66056,6,0,L|117:52,1,65,10|10,3:2|3:2,0:0:0:0:
250,54,66556,1,10,3:2:0:0:
119,34,66889,2,0,L|18:33,1,65,10|14,3:2|0:0,0:0:0:0:
225,211,67389,6,0,L|230:105,1,65,6|2,0:0|0:3,0:0:0:0:
163,235,67723,2,0,L|160:102,1,130,10|0,0:0|3:0,0:0:0:0:
291,101,68389,1,10,0:0:0:0:
127,344,68723,6,0,L|122:238,1,65,2|2,3:2|0:3,0:0:0:0:
189,368,69057,2,0,L|192:235,1,130,10|0,0:0|3:0,0:0:0:0:
62,230,69723,1,10,0:2:0:0:
226,210,70056,6,0,P|311:118|228:47,1,260,2|0,3:2|3:0,0:0:0:0:
104,43,71056,1,10,0:2:0:0:
262,317,71389,6,0,L|266:156,1,130,2|10,3:2|0:2,0:0:0:0:
396,196,72056,2,0,L|400:59,1,130,2|10,3:2|0:2,0:0:0:0:
239,46,72722,6,0,L|96:38,1,130,6|8,3:2|0:0,0:0:0:0:
238,117,73389,2,0,L|310:122,2,65,2|2|10,3:2|0:2|0:2,0:0:0:0:
155,118,73889,6,0,P|100:171|154:261,1,195,2|8,0:2|0:0,0:0:0:0:
283,283,74722,1,2,3:2:0:0:
347,288,74888,1,2,0:2:0:0:
412,294,75055,1,10,0:2:0:0:
241,228,75389,6,0,L|236:75,1,130,2|8,3:2|0:0,0:0:0:0:
369,181,76056,2,0,L|372:35,1,130,2|8,3:2|0:0,0:0:0:0:
199,37,76722,6,0,L|106:31,1,65,14|10,3:2|3:2,0:0:0:0:
261,72,77222,1,10,3:2:0:0:
261,72,77556,1,10,3:2:0:0:
177,108,77722,1,6,0:2:0:0:
21,131,78056,6,0,L|17:265,1,130,6|10,0:0|0:2,0:0:0:0:
80,275,78556,2,0,L|224:285,1,130,2|2,3:2|3:2,0:0:0:0:
50,331,79222,6,0,L|51:164,1,130,2|2,0:2|0:3,0:0:0:0:
116,190,79722,1,10,0:2:0:0:
181,185,79889,1,10,3:2:0:0:
246,181,80056,2,0,L|255:23,1,130,2|8,0:2|0:0,0:0:0:0:
110,43,80722,6,0,L|252:37,1,130,2|10,3:2|0:2,0:0:0:0:
305,63,81222,2,0,L|309:206,1,130,2|2,3:2|3:2,0:0:0:0:
152,139,81889,6,0,L|145:285,1,130,2|0,0:2|3:0,0:0:0:0:
212,271,82389,1,10,0:0:0:0:
240,301,82556,1,10,0:0:0:0:
214,338,82722,1,2,3:2:0:0:
93,345,83056,1,10,0:0:0:0:
262,201,83389,6,0,L|265:105,1,65,2|0,0:0|0:0,0:0:0:0:
198,128,83722,1,12,0:0:0:0:
67,184,84056,6,0,L|64:88,1,65,2|0,0:0|0:0,0:0:0:0:
131,111,84389,1,12,0:0:0:0:
261,325,84722,6,0,L|343:321,1,65,2|0,0:0|0:0,0:0:0:0:
392,314,85055,1,12,0:0:0:0:
264,239,85389,2,0,L|261:151,1,65,2|0,0:0|3:0,0:0:0:0:
327,157,85722,1,12,0:0:0:0:
488,133,86056,6,0,L|264:116,1,195,10|10,0:0|0:0,0:0:0:0:
358,137,86722,2,0,L|368:285,1,130,10|8,3:2|0:0,0:0:0:0:
213,304,87389,6,0,L|54:301,1,130,2|2,3:2|0:0,0:0:0:0:
215,215,88056,2,0,L|223:67,1,130,2|2,0:0|3:2,0:0:0:0:
56,58,88722,5,2,0:0:0:0:
