osu file format v14

[General]
AudioFilename: audio.mp3
AudioLeadIn: 0
PreviewTime: 56233
Countdown: 0
SampleSet: Soft
StackLeniency: 0.7
Mode: 0
LetterboxInBreaks: 0
WidescreenStoryboard: 1

[Editor]
DistanceSpacing: 1
BeatDivisor: 4
GridSize: 32
TimelineZoom: 1.9

[Metadata]
Title:Daisuki. (TV Size)
TitleUnicode:ダイスキ。 (TV Size)
Artist:Ohashi Ayaka
ArtistUnicode:大橋彩香
Creator:Dubturt
Version:Pervert
Source:可愛ければ変態でも好きになってくれますか?
Tags:hensuki kawaikereba hentai demo suki ni natte kuremasu ka are you willing to fall in love with a pervert as long as she’s a cutie anime opening japanese
BeatmapID:2123717
BeatmapSetID:1014751

[Difficulty]
HPDrainRate:6
CircleSize:4
OverallDifficulty:8
ApproachRate:8
SliderMultiplier:1.8
SliderTickRate:1

[Events]
//Background and Video events
0,0,"kawai.jpg",0,0
//Break Periods
//Storyboard Layer 0 (Background)
//Storyboard Layer 1 (Fail)
//Storyboard Layer 2 (Pass)
//Storyboard Layer 3 (Foreground)
//Storyboard Layer 4 (Overlay)
//Storyboard Sound Samples

[TimingPoints]
-397,434.782608695652,4,2,1,50,1,0
1342,-125,4,2,1,50,0,0
5146,-125,4,2,1,5,0,0
5255,-125,4,2,1,50,0,0
5581,-125,4,2,1,5,0,0
5689,-125,4,2,1,50,0,0
6016,-125,4,2,1,5,0,0
6124,-125,4,2,1,50,0,0
6450,-125,4,2,1,5,0,0
6559,-111.111111111111,4,2,1,60,0,0
8298,-100,4,2,1,70,0,0
15255,-125,4,2,2,55,0,0
27646,-100,4,2,1,60,0,0
29168,-100,4,2,1,70,0,0
31233,-100,4,2,1,5,0,0
31342,-100,4,2,1,70,0,0
36016,-100,4,2,1,5,0,0
36124,-100,4,2,1,70,0,0
37755,-100,4,2,1,5,0,0
37863,-100,4,2,1,70,0,0
43081,-125,4,2,1,55,0,0
49602,-83.3333333333333,4,2,1,60,0,0
49929,-125,4,2,1,5,0,0
50037,-100,4,2,1,70,0,0
55255,-100,4,2,1,40,0,0
56342,-100,4,2,1,60,0,0
56994,-83.3333333333333,4,2,1,80,0,1
70798,-83.3333333333333,4,2,1,80,0,0
70907,-83.3333333333333,4,2,1,80,0,1
84820,-83.3333333333333,4,2,1,80,0,0
85689,-83.3333333333333,4,2,1,50,0,0
86559,-83.3333333333333,4,2,1,30,0,0
87429,-83.3333333333333,4,2,1,10,0,0
88298,-83.3333333333333,4,2,1,5,0,0

[Colours]
Combo1 : 199,143,143
Combo2 : 241,94,50
Combo3 : 255,255,142
Combo4 : 255,128,128

[HitObjects]
224,246,689,5,0,0:0:0:0:
224,138,907,1,0,0:0:0:0:
318,192,1124,1,0,0:0:0:0:
224,246,1342,6,0,P|168:245|138:223,1,72,2|0,0:0|0:0,0:0:0:0:
306,268,1668,2,0,P|333:316|329:353,1,72,2|0,0:0|0:0,0:0:0:0:
287,195,1994,2,0,P|315:147|349:132,1,72,2|0,0:0|0:0,0:0:0:0:
164,29,2429,2,0,P|191:52|205:84,1,72,2|0,0:0|0:0,0:0:0:0:
119,176,2863,1,2,0:0:0:0:
119,176,2972,1,2,0:0:0:0:
119,176,3081,6,0,L|17:168,1,72,2|2,0:0|0:0,0:0:0:0:
194,117,3516,1,2,0:0:0:0:
253,224,3733,1,2,0:0:0:0:
153,273,3950,1,2,0:0:0:0:
281,215,4168,2,0,L|294:112,1,72,2|2,0:0|0:0,0:0:0:0:
167,47,4602,1,2,0:0:0:0:
167,47,4711,1,2,0:0:0:0:
167,47,4820,6,0,P|195:105|174:170,1,108,2|0,0:0|0:0,0:0:0:0:
209,245,5255,6,0,P|181:187|202:122,1,108,2|0,0:0|0:0,0:0:0:0:
286,124,5689,6,0,P|228:152|163:131,1,108,2|0,0:0|0:0,0:0:0:0:
88,166,6124,6,0,P|146:138|211:159,1,108,2|0,0:0|0:0,0:0:0:0:
248,190,6559,5,10,0:0:0:0:
406,248,6776,1,8,0:0:0:0:
406,248,6885,1,8,0:0:0:0:
406,248,6994,1,8,0:0:0:0:
440,96,7211,1,8,0:0:0:0:
402,80,7320,1,8,0:0:0:0:
364,94,7429,1,8,0:0:0:0:
324,122,7537,5,8,0:0:0:0:
284,150,7646,1,8,0:0:0:0:
235,154,7755,1,8,0:0:0:0:
187,144,7863,5,4,0:1:0:0:
307,310,8081,1,4,0:1:0:0:
102,247,8298,6,0,P|157:244|213:285,1,90,4|0,0:1|0:0,0:0:0:0:
307,310,8733,1,8,0:0:0:0:
282,195,8950,1,2,0:0:0:0:
126,336,9168,2,0,L|232:341,1,90,0|0,1:0|3:0,0:0:0:0:
311,314,9494,1,0,3:0:0:0:
311,314,9602,2,0,L|417:319,1,90,10|0,0:0|0:0,0:0:0:0:
485,230,10037,6,0,P|486:164|453:122,1,90,2|0,1:2|3:0,0:0:0:0:
402,84,10363,1,2,3:2:0:0:
402,84,10472,2,0,B|351:94|351:94|275:78,1,90,8|2,0:0|0:0,0:0:0:0:
165,120,10907,2,0,P|169:146|160:182,1,45,0|2,1:0|0:0,0:0:0:0:
51,235,11124,2,0,P|47:209|56:173,1,45,2|0,3:2|3:0,0:0:0:0:
193,112,11342,2,0,P|197:138|185:216,1,90,8|0,0:0|0:0,0:0:0:0:
56,59,11776,5,2,1:2:0:0:
120,153,11994,1,8,0:0:0:0:
120,153,12102,1,8,0:0:0:0:
120,153,12211,1,8,0:0:0:0:
265,41,12429,1,10,0:0:0:0:
265,41,12537,1,8,0:0:0:0:
265,41,12646,1,0,1:0:0:0:
114,108,12863,2,0,L|121:171,1,45,2|2,0:0|3:2,0:0:0:0:
130,230,13081,1,8,0:0:0:0:
145,323,13298,1,2,0:0:0:0:
199,103,13516,6,0,L|214:206,1,90,2|0,1:2|3:0,0:0:0:0:
231,273,13842,1,2,3:2:0:0:
231,273,13950,1,8,0:0:0:0:
293,219,14168,2,0,P|202:195|143:273,1,180,2|0,1:2|1:2,0:0:0:0:
248,358,14820,1,8,0:0:0:0:
231,273,15037,1,0,0:0:0:0:
248,358,15255,6,0,B|174:346|187:398|104:384,1,144,4|8,0:1|0:0,0:0:0:0:
231,273,15907,2,0,B|304:261|291:313|374:299,1,144,2|0,0:0|0:0,0:0:0:0:
459,262,16559,1,8,0:0:0:0:
452,354,16776,1,0,0:0:0:0:
368,299,16994,6,0,B|354:249|354:249|380:153,1,144,2|8,0:0|0:0,0:0:0:0:
288,70,17646,2,0,B|302:120|302:120|276:216,1,144,2|0,0:0|0:0,0:0:0:0:
181,266,18298,2,0,P|131:272|103:260,1,72,8|0,0:1|0:0,0:0:0:0:
201,187,18733,5,2,0:0:0:0:
259,285,18950,1,0,0:0:0:0:
388,204,19168,1,8,0:0:0:0:
330,106,19385,1,2,0:0:0:0:
277,205,19602,2,0,P|274:252|282:323,2,108,0|2|0,0:0|0:0|0:0,0:0:0:0:
174,142,20472,6,0,P|143:132|83:147,1,72,2|0,0:0|0:0,0:0:0:0:
64,193,20798,2,0,P|88:171|105:111,1,72,2|0,0:0|0:0,0:0:0:0:
74,72,21124,2,0,P|80:103|123:148,1,72,2|0,0:0|0:0,0:0:0:0:
213,256,21559,1,0,0:0:0:0:
172,176,21776,1,8,0:1:0:0:
123,252,21993,1,0,0:0:0:0:
226,338,22211,6,0,P|284:300|289:231,1,144,2|8,0:0|0:0,0:0:0:0:
181,135,22863,2,0,P|166:203|212:255,1,144,2|0,0:0|0:0,0:0:0:0:
320,157,23516,2,0,P|326:112|306:81,1,72,8|0,0:0|0:0,0:0:0:0:
243,182,23950,6,0,B|311:154|313:217|407:179,1,144,2|8,0:0|0:0,0:0:0:0:
273,254,24602,2,0,B|205:282|203:219|109:257,1,144,2|0,0:0|0:0,0:0:0:0:
37,294,25255,1,8,0:1:0:0:
48,206,25472,1,0,0:0:0:0:
166,322,25689,6,0,P|213:334|317:312,1,144,2|10,0:0|0:0,0:0:0:0:
306,186,26342,2,0,P|259:174|155:196,1,144,2|2,0:0|0:0,0:0:0:0:
66,265,26994,2,0,P|65:222|43:184,1,72,8|0,0:0|0:0,0:0:0:0:
395,367,27646,5,0,1:0:0:0:
445,161,27863,1,8,0:0:0:0:
445,161,28298,2,0,P|390:166|344:161,1,90,8|8,0:0|0:0,0:0:0:0:
275,147,28624,1,8,0:0:0:0:
275,147,28733,1,8,0:0:0:0:
345,273,28950,1,8,0:0:0:0:
476,131,29168,6,0,L|483:22,1,90,4|0,0:1|0:0,0:0:0:0:
358,105,29602,2,0,L|358:217,1,90,10|0,0:0|0:0,0:0:0:0:
242,109,30037,2,0,L|235:0,1,90,2|0,1:2|0:0,0:0:0:0:
205,175,30472,2,0,P|276:178|308:137,1,90,10|0,0:0|0:0,0:0:0:0:
167,103,30907,6,0,P|136:135|156:238,1,135,2|0,1:2|0:0,0:0:0:0:
169,286,31342,1,10,0:0:0:0:
233,365,31559,2,0,P|277:370|324:360,1,90,2|2,0:0|1:2,0:0:0:0:
437,337,31994,1,8,0:1:0:0:
373,247,32211,1,8,0:1:0:0:
373,247,32646,6,0,P|324:247|288:279,1,90,2|0,1:2|0:0,0:0:0:0:
126,240,33081,2,0,P|175:240|211:208,1,90,10|0,0:0|0:0,0:0:0:0:
316,153,33516,2,0,L|328:39,1,90,2|0,1:2|0:0,0:0:0:0:
236,184,33950,1,10,0:0:0:0:
396,122,34168,6,0,L|408:8,1,90,2|0,0:0|1:2,0:0:0:0:
316,153,34602,1,0,0:0:0:0:
407,228,34820,2,0,P|476:235|520:214,1,90,8|0,0:0|0:0,0:0:0:0:
396,122,35255,1,2,1:2:0:0:
318,322,35472,1,8,0:1:0:0:
217,267,35689,2,0,B|193:227|193:227|206:117,1,135,8|0,0:1|0:0,0:0:0:0:
206,62,36124,6,0,P|144:70|101:64,1,90,2|2,1:2|0:0,0:0:0:0:
40,59,36450,1,2,0:0:0:0:
40,59,36559,1,8,0:0:0:0:
117,235,36776,2,0,L|130:134,1,90,2|0,0:0|1:0,0:0:0:0:
24,207,37211,1,0,0:0:0:0:
86,310,37429,2,0,P|137:314|194:239,1,135,10|0,0:0|0:0,0:0:0:0:
230,192,37863,6,0,B|274:188|274:188|327:210,1,90,2|2,1:2|0:0,0:0:0:0:
376,253,38189,1,2,0:0:0:0:
376,253,38298,1,8,0:0:0:0:
489,195,38516,2,0,L|496:83,1,90,2|0,0:0|1:0,0:0:0:0:
433,22,38950,1,8,0:1:0:0:
365,140,39168,1,8,0:1:0:0:
301,62,39385,1,0,3:0:0:0:
301,62,39494,1,0,3:0:0:0:
301,62,39602,6,0,L|199:62,1,90,2|0,1:2|0:0,0:0:0:0:
49,137,40037,2,0,P|97:134|151:166,1,90,10|0,0:0|0:0,0:0:0:0:
266,269,40472,2,0,B|214:281|214:281|152:264,1,90,2|0,1:2|0:0,0:0:0:0:
134,150,40907,1,10,0:0:0:0:
257,102,41124,1,2,0:0:0:0:
377,232,41342,5,2,3:2:0:0:
377,232,41450,1,0,3:0:0:0:
377,232,41559,2,0,L|386:311,1,45,0|0,3:0|3:0,0:0:0:0:
258,157,41776,5,2,3:2:0:0:
258,157,41884,1,0,3:0:0:0:
258,157,41993,2,0,L|249:236,1,45,0|0,3:0|3:0,0:0:0:0:
411,81,42212,5,2,3:2:0:0:
411,81,42320,1,0,3:0:0:0:
411,81,42429,2,0,L|420:160,1,45,0|0,3:0|3:0,0:0:0:0:
305,73,42646,5,2,3:2:0:0:
265,51,42755,1,0,3:0:0:0:
220,53,42863,1,0,3:0:0:0:
179,73,42972,1,0,3:0:0:0:
143,93,43081,6,0,P|88:117|51:102,1,72,4|0,0:1|0:0,0:0:0:0:
5,37,43516,1,2,0:0:0:0:
78,115,43733,2,0,B|96:153|96:153|81:254,1,144,2|0,1:2|0:0,0:0:0:0:
31,358,44385,1,10,0:0:0:0:
149,338,44602,1,2,0:0:0:0:
149,338,44820,6,0,L|253:341,1,72,2|0,1:2|0:0,0:0:0:0:
289,305,45146,2,0,L|393:308,1,72,0|0,1:0|0:0,0:0:0:0:
401,243,45472,2,0,P|434:285|407:373,1,144,2|0,1:2|0:0,0:0:0:0:
291,274,46124,2,0,P|285:223|306:184,1,72,8|0,0:0|0:0,0:0:0:0:
380,62,46559,6,0,P|386:113|365:152,1,72,2|0,1:2|0:0,0:0:0:0:
300,94,46994,1,2,0:0:0:0:
447,27,47211,2,0,P|467:75|438:181,1,144,2|2,1:2|0:0,0:0:0:0:
359,218,47863,1,10,0:0:0:0:
278,156,48081,1,2,0:0:0:0:
278,156,48298,6,0,P|216:157|194:174,1,72,2|2,1:2|0:0,0:0:0:0:
137,185,48624,2,0,P|103:196|68:189,1,72,0|2,1:0|0:0,0:0:0:0:
14,140,48950,2,0,P|6:101|94:45,1,144,2|0,1:2|0:0,0:0:0:0:
206,65,49602,6,0,B|241:59|264:73|264:73|301:57|301:57|327:73|378:57,1,161.999995056153,4|0,0:1|0:0,0:0:0:0:
440,43,50037,5,4,0:1:0:0:
458,211,50255,1,2,0:0:0:0:
300,181,50472,1,10,0:0:0:0:
395,124,50689,1,2,0:0:0:0:
386,256,50907,2,0,P|383:323|361:348,1,90,2|0,1:2|3:0,0:0:0:0:
296,371,51233,1,2,0:0:0:0:
296,371,51342,1,10,0:0:0:0:
144,198,51559,1,2,0:0:0:0:
111,342,51776,5,4,0:1:0:0:
242,282,51994,1,2,0:0:0:0:
13,258,52211,1,10,0:0:0:0:
144,198,52429,1,2,0:0:0:0:
111,342,52646,1,2,1:2:0:0:
52,180,52863,1,2,0:0:0:0:
204,134,53081,2,0,P|257:141|303:159,1,90,10|2,0:0|0:0,0:0:0:0:
149,218,53516,5,4,0:1:0:0:
113,55,53733,1,0,1:0:0:0:
302,17,53951,1,8,0:0:0:0:
338,180,54168,1,0,1:0:0:0:
231,113,54385,1,0,1:0:0:0:
271,93,54494,1,0,1:0:0:0:
315,90,54602,1,2,1:2:0:0:
357,104,54711,1,0,1:0:0:0:
400,135,54820,5,10,1:2:0:0:
453,143,54929,1,8,1:2:0:0:
486,101,55037,1,8,1:2:0:0:
474,48,55146,1,8,1:2:0:0:
420,38,55255,5,2,0:0:0:0:
315,90,55472,1,0,3:0:0:0:
379,195,55689,2,0,L|401:297,1,90,8|2,0:0|0:0,0:0:0:0:
417,362,56016,1,0,3:0:0:0:
417,362,56124,1,0,3:0:0:0:
256,269,56342,5,2,0:0:0:0:
474,204,56559,1,4,0:1:0:0:
328,59,56776,1,2,0:0:0:0:
346,305,56994,6,0,P|360:232|357:182,1,107.999996704102,4|0,0:1|0:0,0:0:0:0:
178,110,57429,2,0,P|178:163|191:216,1,107.999996704102,8|2,0:0|0:0,0:0:0:0:
302,134,57863,1,0,1:0:0:0:
202,28,58081,1,2,3:2:0:0:
202,28,58189,1,0,3:0:0:0:
202,28,58298,2,0,P|120:31|77:27,1,107.999996704102,8|2,0:0|0:0,0:0:0:0:
13,112,58733,5,0,1:0:0:0:
223,167,58950,1,2,0:0:0:0:
126,103,59168,1,10,0:0:0:0:
146,274,59385,1,2,0:0:0:0:
223,167,59602,1,2,1:2:0:0:
41,206,59820,1,8,0:1:0:0:
83,369,60037,1,8,0:1:0:0:
83,369,60472,6,0,L|205:353,1,107.999996704102,2|0,1:2|3:0,0:0:0:0:
22,298,60798,1,0,3:0:0:0:
22,298,60907,2,0,L|144:282,1,107.999996704102,10|0,0:0|0:0,0:0:0:0:
246,245,61342,1,2,1:2:0:0:
368,272,61559,1,2,0:0:0:0:
288,355,61776,1,10,0:0:0:0:
211,242,61994,6,0,P|199:167|226:127,1,107.999996704102,2|0,0:0|1:0,0:0:0:0:
300,58,62429,1,2,3:2:0:0:
300,58,62537,1,2,3:2:0:0:
300,58,62646,1,8,0:0:0:0:
348,230,62863,1,2,0:0:0:0:
390,130,63081,1,0,1:0:0:0:
173,185,63298,1,8,0:1:0:0:
324,333,63516,1,8,0:1:0:0:
324,333,63950,6,0,P|266:327|212:342,1,107.999996704102,0|2,1:0|3:2,0:0:0:0:
393,279,64276,1,0,3:0:0:0:
393,279,64385,2,0,P|340:253|284:249,1,107.999996704102,8|2,0:0|0:0,0:0:0:0:
171,187,64820,1,2,1:2:0:0:
330,64,65037,1,2,3:2:0:0:
330,64,65146,1,0,3:0:0:0:
330,64,65255,2,0,L|336:193,1,107.999996704102,8|0,0:0|0:0,0:0:0:0:
168,257,65689,5,0,1:0:0:0:
182,64,65907,1,2,3:2:0:0:
182,64,66016,1,0,3:0:0:0:
182,64,66125,2,0,L|176:193,1,107.999996704102,8|0,0:0|0:0,0:0:0:0:
166,283,66559,1,2,1:2:0:0:
342,177,66776,1,8,0:1:0:0:
427,279,66994,1,8,0:1:0:0:
427,279,67429,6,0,L|434:143,1,107.999996704102,2|2,1:2|3:2,0:0:0:0:
344,332,67755,1,2,3:2:0:0:
344,332,67863,2,0,L|351:196,1,107.999996704102,10|0,0:0|0:0,0:0:0:0:
284,105,68298,1,2,1:2:0:0:
180,243,68516,1,0,3:0:0:0:
180,243,68624,1,0,3:0:0:0:
180,243,68733,1,10,0:0:0:0:
347,253,68950,1,2,0:0:0:0:
289,74,69168,5,0,1:0:0:0:
270,248,69385,1,2,3:2:0:0:
270,248,69494,1,0,3:0:0:0:
270,248,69602,1,8,0:0:0:0:
136,135,69820,1,0,1:0:0:0:
179,102,69929,1,0,1:0:0:0:
232,95,70037,1,8,1:2:0:0:
283,111,70146,1,8,1:2:0:0:
326,144,70255,1,0,1:0:0:0:
379,151,70363,1,8,1:2:0:0:
430,135,70472,5,4,0:1:0:0:
233,220,70689,1,4,0:1:0:0:
71,220,70907,6,0,P|56:163|79:107,1,107.999996704102,4|0,0:1|0:0,0:0:0:0:
233,118,71342,2,0,P|248:175|225:231,1,107.999996704102,8|2,0:0|0:0,0:0:0:0:
143,64,71776,1,0,1:0:0:0:
275,21,71994,1,2,3:2:0:0:
275,21,72102,1,0,3:0:0:0:
275,21,72211,2,0,L|401:35,1,107.999996704102,8|2,0:0|0:0,0:0:0:0:
496,134,72646,5,0,1:0:0:0:
253,181,72863,1,2,0:0:0:0:
357,238,73081,1,10,0:0:0:0:
285,66,73298,1,2,0:0:0:0:
260,291,73516,1,2,1:2:0:0:
443,189,73733,1,8,0:1:0:0:
285,66,73950,1,8,0:1:0:0:
285,66,74385,6,0,P|222:76|138:62,1,107.999996704102,2|0,1:2|3:0,0:0:0:0:
356,114,74711,1,0,3:0:0:0:
356,114,74820,2,0,P|300:144|216:160,1,107.999996704102,10|0,0:0|0:0,0:0:0:0:
364,32,75255,1,2,1:2:0:0:
467,86,75472,1,2,0:0:0:0:
422,197,75689,1,10,0:0:0:0:
298,155,75907,6,0,L|173:164,1,107.999996704102,2|0,0:0|1:0,0:0:0:0:
51,142,76342,1,2,3:2:0:0:
51,142,76450,1,2,3:2:0:0:
51,142,76559,1,8,0:0:0:0:
133,60,76776,1,2,0:0:0:0:
118,243,76994,1,0,1:0:0:0:
289,106,77211,1,8,0:1:0:0:
166,145,77428,1,8,0:1:0:0:
166,145,77863,6,0,L|159:285,1,107.999996704102,0|2,1:0|3:2,0:0:0:0:
83,97,78189,1,0,3:0:0:0:
83,97,78298,2,0,L|76:237,1,107.999996704102,8|2,0:0|0:0,0:0:0:0:
70,329,78733,1,2,1:2:0:0:
191,308,78950,1,2,3:2:0:0:
191,308,79059,1,0,3:0:0:0:
191,308,79168,2,0,P|254:299|307:323,1,107.999996704102,8|0,0:0|0:0,0:0:0:0:
408,242,79602,5,0,1:0:0:0:
272,117,79820,1,2,3:2:0:0:
272,117,79929,1,0,3:0:0:0:
272,117,80037,2,0,L|279:234,1,107.999996704102,8|2,0:0|0:0,0:0:0:0:
305,342,80471,1,2,1:2:0:0:
74,216,80689,1,8,0:1:0:0:
93,331,80907,1,8,0:1:0:0:
216,316,81124,1,0,0:0:0:0:
208,189,81342,6,0,P|207:124|198:69,1,107.999996704102,2|2,1:2|3:2,0:0:0:0:
272,244,81668,1,2,3:2:0:0:
272,244,81776,2,0,P|293:182|303:127,1,107.999996704102,10|0,0:0|0:0,0:0:0:0:
320,20,82211,1,2,1:2:0:0:
432,175,82429,1,0,3:0:0:0:
432,175,82537,1,0,3:0:0:0:
432,175,82646,1,10,0:0:0:0:
444,58,82863,1,2,0:0:0:0:
241,159,83081,5,0,1:0:0:0:
372,283,83298,1,2,3:2:0:0:
372,283,83407,1,0,3:0:0:0:
372,283,83516,1,8,0:0:0:0:
430,123,83733,1,0,1:0:0:0:
379,102,83842,1,0,1:0:0:0:
326,93,83950,1,8,1:2:0:0:
274,108,84059,1,8,1:2:0:0:
224,129,84168,5,8,1:2:0:0:
173,146,84276,1,8,1:2:0:0:
119,136,84385,2,0,P|111:110|123:68,1,53.9999983520508,4|0,1:0|0:0,0:0:0:0:
284,138,84602,2,0,P|292:164|280:206,1,53.9999983520508,4|0,1:0|0:0,0:0:0:0:
215,290,84820,5,4,1:0:0:0:
256,192,84929,12,0,88298,0:0:0:0:
