osu file format v14

[General]
AudioFilename: audio.mp3
AudioLeadIn: 0
PreviewTime: 56233
Countdown: 0
SampleSet: Soft
StackLeniency: 0.7
Mode: 0
LetterboxInBreaks: 0
WidescreenStoryboard: 1

[Editor]
DistanceSpacing: 1.4
BeatDivisor: 4
GridSize: 32
TimelineZoom: 1.9

[Metadata]
Title:Daisuki. (TV Size)
TitleUnicode:ダイスキ。 (TV Size)
Artist:Ohashi Ayaka
ArtistUnicode:大橋彩香
Creator:Dubturt
Version:Hard
Source:可愛ければ変態でも好きになってくれますか?
Tags:hensuki kawaikereba hentai demo suki ni natte kuremasu ka are you willing to fall in love with a pervert as long as she’s a cutie anime opening japanese
BeatmapID:2123715
BeatmapSetID:1014751

[Difficulty]
HPDrainRate:5
CircleSize:3.8
OverallDifficulty:6
ApproachRate:7.5
SliderMultiplier:1.5
SliderTickRate:1

[Events]
//Background and Video events
0,0,"kawai.jpg",0,0
Video,250,"vid.avi"
//Break Periods
//Storyboard Layer 0 (Background)
//Storyboard Layer 1 (Fail)
//Storyboard Layer 2 (Pass)
//Storyboard Layer 3 (Foreground)
//Storyboard Layer 4 (Overlay)
//Storyboard Sound Samples

[TimingPoints]
-397,434.782608695652,4,2,1,50,1,0
1342,-125,4,2,1,50,0,0
5146,-125,4,2,1,5,0,0
5255,-125,4,2,1,50,0,0
5581,-125,4,2,1,5,0,0
5689,-125,4,2,1,50,0,0
6016,-125,4,2,1,5,0,0
6124,-125,4,2,1,50,0,0
6450,-125,4,2,1,5,0,0
6559,-111.111111111111,4,2,1,60,0,0
8298,-100,4,2,1,70,0,0
15255,-125,4,2,2,55,0,0
27646,-100,4,2,1,60,0,0
29168,-100,4,2,1,70,0,0
31233,-100,4,2,1,5,0,0
31342,-100,4,2,1,70,0,0
36016,-100,4,2,1,5,0,0
36124,-100,4,2,1,70,0,0
37755,-100,4,2,1,5,0,0
37863,-100,4,2,1,70,0,0
43081,-125,4,2,1,55,0,0
49602,-100,4,2,1,60,0,0
49929,-125,4,2,1,5,0,0
50037,-100,4,2,1,70,0,0
55255,-100,4,2,1,40,0,0
56342,-100,4,2,1,60,0,0
56994,-83.3333333333333,4,2,1,80,0,1
70798,-83.3333333333333,4,2,1,80,0,0
70907,-83.3333333333333,4,2,1,80,0,1
84820,-83.3333333333333,4,2,1,80,0,0
85689,-83.3333333333333,4,2,1,50,0,0
86559,-83.3333333333333,4,2,1,30,0,0
87429,-83.3333333333333,4,2,1,10,0,0
88298,-83.3333333333333,4,2,1,5,0,0

[Colours]
Combo1 : 199,143,143
Combo2 : 241,94,50
Combo3 : 255,255,142
Combo4 : 255,128,128

[HitObjects]
430,65,689,5,0,0:0:0:0:
360,92,907,1,0,0:0:0:0:
285,87,1124,1,0,0:0:0:0:
207,93,1342,6,0,P|203:140|212:171,1,60,2|0,0:0|0:0,0:0:0:0:
220,194,1668,2,0,P|224:241|215:272,1,60,2|0,0:0|0:0,0:0:0:0:
211,297,1994,2,0,B|252:289|252:289|351:313,1,120,2|2,0:0|0:0,0:0:0:0:
414,331,2646,1,0,0:0:0:0:
475,265,2863,1,2,0:0:0:0:
475,265,2972,1,2,0:0:0:0:
475,265,3081,6,0,P|469:215|477:182,1,60,2|2,0:0|0:0,0:0:0:0:
493,118,3516,2,0,P|499:68|491:35,1,60,2|2,0:0|0:0,0:0:0:0:
418,15,3950,1,2,0:0:0:0:
345,68,4168,2,0,B|300:79|300:79|199:67,1,120,2|2,0:0|0:0,0:0:0:0:
181,74,4711,1,2,0:0:0:0:
181,74,4820,6,0,P|190:141|159:163,1,90,2|0,0:0|0:0,0:0:0:0:
164,195,5255,2,0,P|209:207|236:254,1,90,2|0,0:0|0:0,0:0:0:0:
277,242,5689,2,0,P|303:206|346:196,1,90,2|0,0:0|0:0,0:0:0:0:
332,155,6124,2,0,P|312:115|330:75,1,90,2|0,0:0|0:0,0:0:0:0:
364,40,6559,5,10,0:0:0:0:
263,32,6776,2,0,L|200:31,2,33.7499989700318,8|8|8,0:0|0:0|0:0,0:0:0:0:
205,115,7211,2,0,L|142:114,2,33.7499989700318,8|8|8,0:0|0:0|0:0,0:0:0:0:
160,206,7646,1,8,0:0:0:0:
160,206,7755,1,8,0:0:0:0:
160,206,7863,2,0,L|61:206,1,67.4999979400635,4|4,0:1|0:1,0:0:0:0:
146,296,8298,6,0,L|255:297,1,75,4|0,0:1|0:0,0:0:0:0:
319,259,8733,2,0,P|327:309|314:344,1,75,8|2,0:0|0:0,0:0:0:0:
220,296,9168,2,0,P|212:246|224:210,1,75,0|0,1:0|3:0,0:0:0:0:
289,146,9602,2,0,L|387:149,1,75,10|0,0:0|0:0,0:0:0:0:
455,187,10037,6,0,P|459:127|449:71,2,112.5,2|2|2,1:2|3:2|0:0,0:0:0:0:
375,261,10907,1,0,1:0:0:0:
280,302,11124,1,2,3:2:0:0:
280,302,11342,2,0,L|174:309,1,75,8|0,0:0|0:0,0:0:0:0:
102,284,11776,6,0,P|96:247|109:212,1,75,2|8,1:2|0:0,0:0:0:0:
138,168,12102,1,8,0:0:0:0:
138,168,12211,2,0,B|174:177|174:177|231:164,1,75,8|10,0:0|0:0,0:0:0:0:
259,147,12537,1,8,0:0:0:0:
259,147,12646,2,0,P|265:110|252:75,1,75,0|2,1:0|0:0,0:0:0:0:
155,33,13081,1,8,0:0:0:0:
61,79,13298,1,2,0:0:0:0:
61,79,13516,6,0,B|69:213,1,112.5,2|2,1:2|3:2,0:0:0:0:
68,243,13950,1,8,0:0:0:0:
137,321,14168,2,0,P|72:357|-4:317,1,150,2|0,1:2|1:2,0:0:0:0:
68,243,14820,1,8,0:0:0:0:
170,219,15037,1,0,0:0:0:0:
273,266,15255,6,0,B|307:290|307:290|411:289,1,120,4|8,0:1|0:0,0:0:0:0:
450,235,15907,2,0,B|416:211|416:211|312:212,1,120,2|0,0:0|0:0,0:0:0:0:
264,169,16559,2,0,P|262:124|275:87,1,60,8|0,0:0|0:0,0:0:0:0:
189,73,16994,6,0,P|175:130|186:203,1,120,2|8,0:0|0:0,0:0:0:0:
245,245,17646,2,0,P|199:275|123:252,1,120,2|0,0:0|0:0,0:0:0:0:
93,192,18298,1,8,0:1:0:0:
93,192,18733,6,0,P|96:141|85:107,1,60,2|0,0:0|0:0,0:0:0:0:
142,63,19168,2,0,B|174:56|174:56|225:68,1,60,8|2,0:0|0:0,0:0:0:0:
267,112,19602,2,0,B|310:124|310:124|400:82,1,120,0|0,0:0|0:0,0:0:0:0:
458,64,20255,1,0,0:0:0:0:
480,144,20472,6,0,L|486:242,2,90,2|2|2,0:0|0:0|0:0,0:0:0:0:
342,48,21559,1,0,0:0:0:0:
264,80,21776,2,0,P|223:85|194:78,1,60,8|0,0:1|0:0,0:0:0:0:
122,99,22211,6,0,P|171:115|203:192,1,120,2|8,0:0|0:0,0:0:0:0:
199,256,22863,2,0,P|150:240|118:163,1,120,2|0,0:0|0:0,0:0:0:0:
203,172,23516,2,0,P|247:177|266:168,1,60,8|0,0:0|0:0,0:0:0:0:
344,168,23950,6,0,B|357:214|357:214|346:308,1,120,2|8,0:0|0:0,0:0:0:0:
281,337,24602,2,0,B|268:291|268:291|279:197,1,120,2|0,0:0|0:0,0:0:0:0:
237,144,25255,2,0,L|158:149,1,60,8|0,0:1|0:0,0:0:0:0:
115,204,25689,6,0,P|89:163|126:81,1,120,2|10,0:0|0:0,0:0:0:0:
172,44,26342,2,0,B|234:22|234:72|308:45,1,120,2|2,0:0|0:0,0:0:0:0:
370,29,26994,1,8,0:0:0:0:
370,29,27646,5,0,1:0:0:0:
395,148,27863,1,8,0:0:0:0:
395,148,28298,2,0,B|344:161|344:161|255:142,1,112.5,8|8,0:0|0:0,0:0:0:0:
235,132,28733,1,8,0:0:0:0:
147,63,28950,1,8,0:0:0:0:
65,130,29168,6,0,P|56:170|68:217,1,75,4|0,0:1|0:0,0:0:0:0:
127,284,29602,2,0,L|236:296,1,75,10|0,0:0|0:0,0:0:0:0:
297,336,30037,2,0,L|406:348,1,75,2|0,1:2|0:0,0:0:0:0:
475,330,30472,2,0,P|484:290|472:243,1,75,10|0,0:0|0:0,0:0:0:0:
395,192,30907,6,0,P|378:146|396:81,1,112.5,2|0,1:2|0:0,0:0:0:0:
414,37,31342,1,10,0:0:0:0:
309,26,31559,2,0,L|214:28,1,75,2|2,0:0|1:2,0:0:0:0:
129,15,31994,1,8,0:1:0:0:
39,69,32211,1,8,0:1:0:0:
39,69,32646,6,0,L|41:165,1,75,2|0,1:2|0:0,0:0:0:0:
143,167,33081,2,0,L|141:263,1,75,10|0,0:0|0:0,0:0:0:0:
190,335,33516,2,0,B|231:358|231:358|342:339,1,150,2|10,1:2|0:0,0:0:0:0:
393,255,34168,6,0,B|369:241|369:241|303:249,1,75,2|0,0:0|1:2,0:0:0:0:
221,244,34602,1,0,0:0:0:0:
133,206,34820,2,0,B|119:182|119:182|127:116,1,75,8|0,0:0|0:0,0:0:0:0:
187,50,35255,1,2,1:2:0:0:
256,128,35472,1,8,0:1:0:0:
330,53,35689,2,0,P|387:48|427:70,1,75,8|0,0:1|0:0,0:0:0:0:
438,152,36124,6,0,P|426:200|449:277,1,112.5,2|2,1:2|0:0,0:0:0:0:
456,310,36559,1,8,0:0:0:0:
353,346,36776,2,0,L|242:345,1,75,2|0,0:0|1:0,0:0:0:0:
184,296,37211,1,0,0:0:0:0:
261,225,37429,2,0,P|270:177|236:90,1,112.5,10|0,0:0|0:0,0:0:0:0:
210,87,37863,6,0,B|172:98|172:98|73:77,1,112.5,2|2,1:2|0:0,0:0:0:0:
50,66,38298,1,8,0:0:0:0:
13,164,38516,2,0,L|22:265,1,75,2|0,0:0|1:0,0:0:0:0:
90,316,38950,1,8,0:1:0:0:
175,254,39168,1,8,0:1:0:0:
258,316,39385,1,0,3:0:0:0:
258,316,39494,1,0,3:0:0:0:
258,316,39602,6,0,L|360:320,1,75,2|0,1:2|0:0,0:0:0:0:
384,227,40037,2,0,L|282:231,1,75,10|0,0:0|0:0,0:0:0:0:
265,134,40472,2,0,L|367:138,1,75,2|0,1:2|0:0,0:0:0:0:
424,74,40907,1,10,0:0:0:0:
490,156,41124,1,2,0:0:0:0:
419,234,41342,6,0,L|419:285,2,37.5,2|0|0,3:2|3:0|3:0,0:0:0:0:
316,210,41776,2,0,L|265:200,3,37.5,2|0|0|0,3:2|3:0|3:0|3:0,0:0:0:0:
228,215,42211,2,0,L|177:225,3,37.5,2|0|0|0,3:2|3:0|3:0|3:0,0:0:0:0:
138,220,42646,2,0,L|87:210,3,37.5,2|0|0|0,3:2|3:0|3:0|3:0,0:0:0:0:
63,193,43081,6,0,P|44:145|81:65,1,120,4|2,0:1|0:0,0:0:0:0:
156,87,43733,2,0,B|218:71|218:116|293:89,1,120,2|0,1:2|0:0,0:0:0:0:
350,60,44385,1,10,0:0:0:0:
350,60,44820,6,0,P|355:110|332:153,1,90,2|0,1:2|1:0,0:0:0:0:
235,215,45472,2,0,L|95:224,1,120,2|0,1:2|0:0,0:0:0:0:
45,269,46124,1,8,0:0:0:0:
45,269,46559,6,0,B|59:230|59:230|43:126,1,120,2|2,1:2|0:0,0:0:0:0:
71,69,47211,2,0,P|115:73|190:73,1,120,2|2,1:2|0:0,0:0:0:0:
270,44,47863,1,10,0:0:0:0:
270,44,48298,6,0,P|323:34|366:73,1,90,2|0,1:2|1:0,0:0:0:0:
331,175,48950,2,0,P|391:188|444:150,1,120,2|0,1:2|0:0,0:0:0:0:
345,84,49602,6,0,P|280:93|244:155,1,112.5,4|0,0:1|0:0,0:0:0:0:
217,166,50037,6,0,L|114:174,1,75,4|2,0:1|0:0,0:0:0:0:
212,253,50472,2,0,L|315:261,1,75,10|2,0:0|0:0,0:0:0:0:
382,213,50907,2,0,P|393:258|358:341,1,112.5,2|2,1:2|0:0,0:0:0:0:
330,347,51342,1,10,0:0:0:0:
243,287,51559,1,2,0:0:0:0:
147,330,51776,6,0,P|79:341|41:333,1,75,4|2,0:1|0:0,0:0:0:0:
61,235,52211,2,0,P|129:224|167:232,1,75,10|2,0:0|0:0,0:0:0:0:
230,267,52646,1,2,1:2:0:0:
227,162,52863,1,2,0:0:0:0:
323,204,53081,2,0,L|416:199,1,75,10|2,0:0|0:0,0:0:0:0:
497,232,53516,6,0,P|494:160|473:136,1,75,4|0,0:1|1:0,0:0:0:0:
395,127,53950,2,0,P|397:198|419:223,1,75,8|0,0:0|1:0,0:0:0:0:
328,278,54385,2,0,L|263:271,3,37.5,0|0|2|0,1:0|1:0|1:2|1:0,0:0:0:0:
238,266,54820,2,0,L|173:273,3,37.5,10|8|8|8,1:2|1:2|1:2|1:2,0:0:0:0:
148,263,55255,5,2,0:0:0:0:
82,181,55472,1,0,3:0:0:0:
162,113,55689,2,0,L|284:119,1,112.5,8|0,0:0|3:0,0:0:0:0:
326,121,56124,1,0,3:0:0:0:
426,89,56342,1,2,0:0:0:0:
477,180,56559,2,0,P|481:225|479:277,1,75,4|2,0:1|0:0,0:0:0:0:
403,330,56994,6,0,B|314:306|314:373|229:331,1,179.999994506836,4|8,0:1|0:0,0:0:0:0:
131,284,57646,2,0,P|119:336|132:382,1,89.9999972534181,2|0,0:0|1:0,0:0:0:0:
33,315,58081,1,2,3:2:0:0:
33,315,58189,1,0,3:0:0:0:
33,315,58298,2,0,P|45:263|32:217,1,89.9999972534181,8|2,0:0|0:0,0:0:0:0:
99,139,58733,6,0,L|216:156,1,89.9999972534181,0|2,1:0|0:0,0:0:0:0:
254,237,59168,2,0,L|371:254,1,89.9999972534181,10|2,0:0|0:0,0:0:0:0:
449,234,59602,1,2,1:2:0:0:
433,126,59820,1,8,0:1:0:0:
326,142,60037,1,8,0:1:0:0:
326,142,60472,6,0,P|316:87|328:51,1,89.9999972534181,2|0,1:2|3:0,0:0:0:0:
358,12,60798,1,0,3:0:0:0:
358,12,60907,2,0,L|245:21,1,89.9999972534181,10|0,0:0|0:0,0:0:0:0:
161,39,61342,1,2,1:2:0:0:
230,121,61559,1,2,0:0:0:0:
124,141,61776,1,10,0:0:0:0:
192,224,61994,6,0,P|207:280|194:316,1,89.9999972534181,2|0,0:0|1:0,0:0:0:0:
323,302,62429,1,2,3:2:0:0:
323,302,62537,1,2,3:2:0:0:
323,302,62646,2,0,P|308:246|321:210,1,89.9999972534181,8|2,0:0|0:0,0:0:0:0:
395,142,63081,1,0,1:0:0:0:
318,66,63298,1,8,0:1:0:0:
239,141,63516,1,8,0:1:0:0:
239,141,63950,6,0,P|172:147|127:142,1,89.9999972534181,0|2,1:0|3:2,0:0:0:0:
95,149,64276,1,0,3:0:0:0:
95,149,64385,2,0,B|107:196|107:196|86:248,1,89.9999972534181,8|2,0:0|0:0,0:0:0:0:
125,337,64820,1,2,1:2:0:0:
209,270,65037,1,2,3:2:0:0:
293,338,65255,1,8,0:0:0:0:
293,338,65689,6,0,L|412:345,1,89.9999972534181,0|2,1:0|3:2,0:0:0:0:
436,332,66016,1,0,3:0:0:0:
436,332,66124,2,0,P|448:276|437:231,1,89.9999972534181,8|0,0:0|0:0,0:0:0:0:
349,189,66559,1,2,1:2:0:0:
396,92,66776,1,8,0:1:0:0:
496,132,66994,1,8,0:1:0:0:
496,132,67429,6,0,L|502:239,1,89.9999972534181,2|2,1:2|3:2,0:0:0:0:
485,273,67755,1,2,3:2:0:0:
485,273,67863,2,0,P|438:261|381:299,1,89.9999972534181,10|0,0:0|0:0,0:0:0:0:
299,313,68298,1,2,1:2:0:0:
195,343,68516,1,0,3:0:0:0:
195,343,68624,1,0,3:0:0:0:
195,343,68733,2,0,L|89:343,1,89.9999972534181,10|2,0:0|0:0,0:0:0:0:
31,263,69168,5,0,1:0:0:0:
111,191,69385,2,0,L|111:140,2,44.999998626709,2|0|8,3:2|3:0|0:0,0:0:0:0:
204,245,69820,1,0,1:0:0:0:
204,245,69929,1,0,1:0:0:0:
204,245,70037,2,0,L|280:255,3,44.999998626709,8|8|8|8,1:2|1:2|1:2|1:2,0:0:0:0:
302,243,70472,5,4,0:1:0:0:
395,296,70689,1,4,0:1:0:0:
463,211,70907,6,0,B|471:163|471:163|448:101|448:101|464:19,1,179.999994506836,4|8,0:1|0:0,0:0:0:0:
355,63,71559,2,0,P|295:69|254:63,1,89.9999972534181,2|0,0:0|1:0,0:0:0:0:
161,37,71994,1,2,3:2:0:0:
161,37,72102,1,0,3:0:0:0:
161,37,72211,2,0,P|170:96|159:133,1,89.9999972534181,8|2,0:0|0:0,0:0:0:0:
124,225,72646,6,0,L|20:234,1,89.9999972534181,0|2,1:0|0:0,0:0:0:0:
34,341,73081,2,0,L|138:350,1,89.9999972534181,10|2,0:0|0:0,0:0:0:0:
211,285,73516,1,2,1:2:0:0:
144,200,73733,1,8,0:1:0:0:
208,113,73950,1,8,0:1:0:0:
208,113,74385,6,0,L|319:115,1,89.9999972534181,2|0,1:2|3:0,0:0:0:0:
351,121,74711,1,0,3:0:0:0:
351,121,74820,2,0,B|341:167|341:167|355:232,1,89.9999972534181,10|0,0:0|0:0,0:0:0:0:
405,301,75255,1,2,1:2:0:0:
313,357,75472,1,2,0:0:0:0:
245,273,75689,1,10,0:0:0:0:
350,208,75907,6,0,B|341:167|341:167|351:121,1,89.9999972534181,2|0,0:0|1:0,0:0:0:0:
270,48,76342,1,2,3:2:0:0:
270,48,76450,1,2,3:2:0:0:
270,48,76559,2,0,L|138:53,1,89.9999972534181,8|2,0:0|0:0,0:0:0:0:
73,73,76994,1,0,1:0:0:0:
134,161,77211,1,8,0:1:0:0:
69,247,77429,1,8,0:1:0:0:
69,247,77863,6,0,P|65:309|66:346,1,89.9999972534181,0|2,1:0|3:2,0:0:0:0:
102,376,78189,1,0,3:0:0:0:
102,376,78298,2,0,L|220:370,1,89.9999972534181,8|2,0:0|0:0,0:0:0:0:
297,349,78733,1,2,1:2:0:0:
287,241,78950,1,2,3:2:0:0:
179,253,79168,1,8,0:0:0:0:
179,253,79602,6,0,P|170:180|194:132,1,89.9999972534181,0|2,1:0|3:2,0:0:0:0:
187,112,79929,1,0,3:0:0:0:
187,112,80037,2,0,L|64:121,1,89.9999972534181,8|2,0:0|0:0,0:0:0:0:
152,25,80472,1,2,1:2:0:0:
259,25,80689,1,8,0:1:0:0:
326,109,80907,2,0,L|449:118,1,89.9999972534181,8|0,0:1|0:0,0:0:0:0:
489,194,81342,6,0,P|501:258|485:299,1,89.9999972534181,2|2,1:2|3:2,0:0:0:0:
455,318,81668,1,2,3:2:0:0:
455,318,81776,2,0,B|417:309|417:309|336:325,1,89.9999972534181,10|0,0:0|0:0,0:0:0:0:
261,343,82211,1,2,1:2:0:0:
182,268,82429,1,0,3:0:0:0:
182,268,82537,1,0,3:0:0:0:
182,268,82646,2,0,L|170:153,1,89.9999972534181,10|2,0:0|0:0,0:0:0:0:
99,98,83081,5,0,1:0:0:0:
200,61,83298,2,0,L|200:14,2,44.999998626709,2|0|8,3:2|3:0|0:0,0:0:0:0:
280,133,83733,1,0,1:0:0:0:
280,133,83842,1,0,1:0:0:0:
280,133,83950,2,0,L|347:137,3,44.999998626709,8|8|8|8,1:2|1:2|1:2|1:2,0:0:0:0:
378,129,84385,2,0,L|445:125,3,44.999998626709,4|0|4|0,1:0|3:0|1:0|0:0,0:0:0:0:
474,142,84820,5,4,1:0:0:0:
256,192,84929,12,0,88298,0:0:0:0:
