osu file format v14

[General]
AudioFilename: audio.mp3
AudioLeadIn: 0
PreviewTime: 56341
Countdown: 0
SampleSet: Normal
StackLeniency: 0.7
Mode: 1
LetterboxInBreaks: 0
WidescreenStoryboard: 0

[Editor]
Bookmarks: 12537
DistanceSpacing: 1
BeatDivisor: 4
GridSize: 32
TimelineZoom: 1.3

[Metadata]
Title:Daisuki. (TV Size)
TitleUnicode:ダイスキ。 (TV Size)
Artist:Ohashi Ayaka
ArtistUnicode:大橋彩香
Creator:BlackBq
Version:Oni.
Source:可愛ければ変態でも好きになってくれますか?
Tags:jacky10186 jpop j-pop 大好き anime japanese op opening kawaikereba hentai demo suki ni natte kuremasu ka? 変好き hensuki are You willing to fall in love with a pervert as long as she's a cutie 桐生慧輝 Keiki Kiryu 下野紘 Hiro Shimono 朱鷺原紗雪 Sayuki Tokihara 竹達彩奈 Ayana Taketatsu 古賀唯花 Yuika Koga 日高里菜 Rina Hidaka 桐生瑞葉 Mizuha Kiryu 本渡楓 Kaede Hondo 南条真緒 Mao Nanjo 野水伊織 Iori Nomizu 鳳小春 Koharu Otori 藤本彩乃 Ayano Fujimoto 春野杏 Anzu Haruno sune kadokawa media factory 花間燈 Tomo Hanama MF文庫J MF Bunko J
BeatmapID:2745946
BeatmapSetID:1325572

[Difficulty]
HPDrainRate:5
CircleSize:2
OverallDifficulty:5
ApproachRate:10
SliderMultiplier:1.4
SliderTickRate:1

[Events]
//Background and Video events
0,0,"d.jpg",0,-90
//Break Periods
//Storyboard Layer 0 (Background)
//Storyboard Layer 1 (Fail)
//Storyboard Layer 2 (Pass)
//Storyboard Layer 3 (Foreground)
//Storyboard Layer 4 (Overlay)
//Storyboard Sound Samples

[TimingPoints]
1342,434.782608695652,4,1,0,50,1,0
1342,-111.111111111111,4,1,0,50,0,0
4711,-111.111111111111,4,1,0,60,0,0
6450,-111.111111111111,4,1,0,70,0,0
6885,-109.89010989011,4,1,0,70,0,0
6994,-108.695652173913,4,1,0,70,0,0
7211,-107.52688172043,4,1,0,70,0,0
7320,-106.382978723404,4,1,0,70,0,0
7428,-105.263157894737,4,1,0,70,0,0
7537,-104.166666666667,4,1,0,70,0,0
7646,-103.092783505155,4,1,0,70,0,0
7755,-102.040816326531,4,1,0,70,0,0
7863,-101.010101010101,4,1,0,70,0,0
8189,-100,4,1,0,80,0,0
8298,-100,4,1,0,80,0,0
14711,-102.040816326531,4,1,0,80,0,0
14820,-104.166666666667,4,1,0,80,0,0
15037,-106.382978723404,4,1,0,80,0,0
15255,-108.695652173913,4,1,0,80,0,0
15689,-111.111111111111,4,1,0,50,0,0
25146,-111.111111111111,4,1,0,70,0,0
27537,-111.111111111111,4,1,0,80,0,0
28515,-108.695652173913,4,1,0,80,0,0
28624,-106.382978723404,4,1,0,80,0,0
28733,-104.166666666667,4,1,0,80,0,0
28950,-102.040816326531,4,1,0,80,0,0
29168,-100,4,1,0,80,0,0
41450,-99.502487562189,4,1,0,80,0,0
41559,-99.009900990099,4,1,0,80,0,0
41776,-98.5221674876847,4,1,0,80,0,0
41885,-98.0392156862745,4,1,0,80,0,0
41994,-97.5609756097561,4,1,0,80,0,0
42211,-97.0873786407767,4,1,0,80,0,0
42320,-96.6183574879227,4,1,0,80,0,0
42428,-96.1538461538461,4,1,0,80,0,0
42537,-95.6937799043062,4,1,0,80,0,0
42646,-95.2380952380952,4,1,0,80,0,0
42972,-111.111111111111,4,1,0,60,0,0
43081,-111.111111111111,4,1,0,60,0,0
49602,-105.263157894737,4,1,0,60,0,0
49928,-100,4,1,0,80,0,0
50037,-100,4,1,0,80,0,0
51124,-99.009900990099,4,1,0,80,0,0
51233,-98.0392156862745,4,1,0,80,0,0
51341,-97.0873786407767,4,1,0,80,0,0
51559,-96.1538461538461,4,1,0,80,0,0
51776,-95.2380952380952,4,1,0,80,0,0
52211,-94.3396226415094,4,1,0,80,0,0
52428,-93.8967136150235,4,1,0,80,0,0
52537,-93.6768149882904,4,1,0,80,0,0
52646,-93.4579439252336,4,1,0,80,0,0
52863,-93.0232558139535,4,1,0,80,0,0
53081,-92.5925925925926,4,1,0,80,0,0
53298,-92.1658986175115,4,1,0,80,0,0
53407,-91.9540229885057,4,1,0,80,0,0
53515,-91.743119266055,4,1,0,80,0,0
53733,-91.324200913242,4,1,0,80,0,0
53950,-90.9090909090909,4,1,0,80,0,0
54059,-90.702947845805,4,1,0,80,0,0
54168,-90.4977375565611,4,1,0,80,0,0
54385,-90.0900900900901,4,1,0,80,0,0
54494,-89.8876404494382,4,1,0,80,0,0
54602,-89.6860986547085,4,1,0,80,0,0
54711,-89.4854586129754,4,1,0,80,0,0
54820,-89.2857142857143,4,1,0,80,0,0
54928,-89.086859688196,4,1,0,80,0,0
55037,-88.8888888888889,4,1,0,80,0,0
56559,-100,4,1,0,80,0,0
56994,-90.9090909090909,4,1,0,80,0,1
84711,-90.9090909090909,4,1,0,60,0,1
84820,-90.9090909090909,4,1,0,60,0,0
86559,-100,4,1,0,50,0,0
86994,-100,4,1,0,40,0,0
87428,-100,4,1,0,30,0,0
87863,-100,4,1,0,20,0,0
88298,-111.111111111111,4,1,0,10,0,0

[HitObjects]
256,192,1342,5,8,0:0:0:0:
256,192,1668,1,0,0:0:0:0:
256,192,1994,1,8,0:0:0:0:
256,192,2428,1,8,0:0:0:0:
256,192,2863,1,8,0:0:0:0:
256,192,3298,1,0,0:0:0:0:
256,192,3515,1,8,0:0:0:0:
256,192,3733,1,8,0:0:0:0:
256,192,3950,1,0,0:0:0:0:
256,192,4168,1,8,0:0:0:0:
256,192,4820,1,0,0:0:0:0:
256,192,5255,1,8,0:0:0:0:
256,192,5689,5,8,0:0:0:0:
256,192,6124,1,0,0:0:0:0:
256,192,6559,5,0,0:0:0:0:
256,192,6776,1,8,0:0:0:0:
256,192,6885,1,8,0:0:0:0:
256,192,6994,1,0,0:0:0:0:
256,192,7211,1,8,0:0:0:0:
256,192,7320,1,8,0:0:0:0:
256,192,7428,1,0,0:0:0:0:
256,192,7537,1,0,0:0:0:0:
256,192,7646,1,8,0:0:0:0:
256,192,7755,1,8,0:0:0:0:
256,192,7863,1,0,0:0:0:0:
476,111,8298,1,12,0:0:0:0:
256,192,8733,1,0,0:0:0:0:
256,192,8950,1,8,0:0:0:0:
256,192,9168,1,8,0:0:0:0:
256,192,9276,1,8,0:0:0:0:
256,192,9385,1,0,0:0:0:0:
256,192,9602,1,0,0:0:0:0:
256,192,10037,5,10,0:0:0:0:
256,192,10363,1,0,0:0:0:0:
256,192,10472,1,8,0:0:0:0:
256,192,10689,1,0,0:0:0:0:
256,192,10907,1,0,0:0:0:0:
256,192,11015,1,0,0:0:0:0:
256,192,11124,1,8,0:0:0:0:
256,192,11341,1,8,0:0:0:0:
256,192,11776,1,0,0:0:0:0:
256,192,11994,1,0,0:0:0:0:
256,192,12102,1,0,0:0:0:0:
256,192,12211,1,8,0:0:0:0:
256,192,12428,1,8,0:0:0:0:
256,192,12537,1,8,0:0:0:0:
256,192,12646,1,8,0:0:0:0:
256,192,12863,1,0,0:0:0:0:
256,192,13081,1,8,0:0:0:0:
256,192,13298,1,0,0:0:0:0:
256,192,13515,1,8,0:0:0:0:
256,192,13624,1,8,0:0:0:0:
256,192,13733,1,0,0:0:0:0:
256,192,13841,1,0,0:0:0:0:
256,192,13950,1,8,0:0:0:0:
256,192,14168,1,8,0:0:0:0:
256,192,14602,5,0,0:0:0:0:
256,192,14711,1,0,0:0:0:0:
256,192,14820,1,8,0:0:0:0:
256,192,15037,5,8,0:0:0:0:
448,128,15255,5,4,0:0:0:0:
256,192,15907,1,0,0:0:0:0:
256,192,16341,1,0,0:0:0:0:
256,192,16559,1,8,0:0:0:0:
256,192,16776,1,0,0:0:0:0:
256,192,16994,1,8,0:0:0:0:
256,192,17320,1,0,0:0:0:0:
256,192,17646,1,0,0:0:0:0:
256,192,18298,1,8,0:0:0:0:
256,192,18733,1,0,0:0:0:0:
256,192,18950,1,0,0:0:0:0:
256,192,19168,1,8,0:0:0:0:
256,192,19385,1,0,0:0:0:0:
256,192,20037,1,8,0:0:0:0:
256,192,20472,1,0,0:0:0:0:
256,192,20798,1,0,0:0:0:0:
256,192,21124,1,0,0:0:0:0:
256,192,21776,1,8,0:0:0:0:
256,192,22211,1,0,0:0:0:0:
256,192,22646,1,8,0:0:0:0:
256,192,22863,1,0,0:0:0:0:
256,192,23515,5,8,0:0:0:0:
256,192,23950,1,0,0:0:0:0:
256,192,24385,1,8,0:0:0:0:
256,192,24602,1,0,0:0:0:0:
256,192,25037,1,0,0:0:0:0:
256,192,25255,5,8,0:0:0:0:
256,192,25472,1,8,0:0:0:0:
256,192,25689,5,0,0:0:0:0:
241,188,26124,1,8,0:0:0:0:
256,192,26341,5,0,0:0:0:0:
256,192,26776,1,0,0:0:0:0:
256,192,26994,1,8,0:0:0:0:
416,96,27646,5,12,0:0:0:0:
416,96,27863,1,12,0:0:0:0:
416,96,28298,1,12,0:0:0:0:
256,192,28515,1,0,0:0:0:0:
256,192,28624,1,8,0:0:0:0:
256,192,28733,1,0,0:0:0:0:
288,192,28950,1,8,0:0:0:0:
384,96,29168,1,4,0:0:0:0:
256,192,29602,1,8,0:0:0:0:
288,192,29820,1,0,0:0:0:0:
256,192,29928,1,0,0:0:0:0:
256,192,30037,1,8,0:0:0:0:
256,192,30255,1,0,0:0:0:0:
256,192,30472,1,8,0:0:0:0:
256,192,30907,1,8,0:0:0:0:
256,192,31124,1,0,0:0:0:0:
256,192,31341,1,8,0:0:0:0:
256,192,31559,1,0,0:0:0:0:
256,192,31668,1,8,0:0:0:0:
256,192,31776,1,0,0:0:0:0:
256,192,31994,5,8,0:0:0:0:
256,192,32211,1,8,0:0:0:0:
256,192,32646,1,0,0:0:0:0:
256,192,32863,1,0,0:0:0:0:
224,192,32972,1,0,0:0:0:0:
256,192,33081,1,8,0:0:0:0:
224,192,33298,1,0,0:0:0:0:
256,192,33515,5,8,0:0:0:0:
256,192,33733,1,0,0:0:0:0:
224,192,33841,1,0,0:0:0:0:
256,192,33950,1,8,0:0:0:0:
256,192,34168,1,8,0:0:0:0:
256,192,34385,1,0,0:0:0:0:
256,192,34820,1,8,0:0:0:0:
256,192,35255,1,0,0:0:0:0:
256,192,35472,1,8,0:0:0:0:
256,192,35581,1,8,0:0:0:0:
256,192,35689,1,8,0:0:0:0:
384,128,36124,1,4,0:0:0:0:
256,192,36450,1,0,0:0:0:0:
256,192,36559,1,8,0:0:0:0:
256,192,36776,1,0,0:0:0:0:
256,192,36994,1,8,0:0:0:0:
256,192,37211,1,0,0:0:0:0:
256,192,37320,1,0,0:0:0:0:
256,192,37428,1,8,0:0:0:0:
256,192,37863,1,0,0:0:0:0:
256,192,38189,1,8,0:0:0:0:
256,192,38298,1,0,0:0:0:0:
256,192,38515,1,8,0:0:0:0:
256,192,38733,1,0,0:0:0:0:
256,192,38950,1,8,0:0:0:0:
256,192,39059,1,8,0:0:0:0:
256,192,39168,1,8,0:0:0:0:
256,192,39602,1,0,0:0:0:0:
256,192,39820,1,8,0:0:0:0:
256,192,39928,1,0,0:0:0:0:
256,192,40037,1,8,0:0:0:0:
256,192,40255,1,0,0:0:0:0:
256,192,40472,1,8,0:0:0:0:
256,192,40907,1,8,0:0:0:0:
256,192,41124,1,0,0:0:0:0:
256,224,41341,5,0,0:0:0:0:
256,192,41450,1,0,0:0:0:0:
256,192,41559,1,0,0:0:0:0:
256,192,41776,1,0,0:0:0:0:
256,192,41885,1,0,0:0:0:0:
256,192,41994,1,8,0:0:0:0:
256,192,42211,5,8,0:0:0:0:
256,192,42320,1,8,0:0:0:0:
256,192,42428,1,0,0:0:0:0:
256,192,42537,1,8,0:0:0:0:
256,192,42646,5,0,0:0:0:0:
448,128,43081,5,4,0:0:0:0:
256,192,43733,5,0,0:0:0:0:
256,192,44385,5,8,0:0:0:0:
256,192,44820,1,0,0:0:0:0:
256,192,45146,1,0,0:0:0:0:
256,192,45472,1,0,0:0:0:0:
256,192,46124,1,8,0:0:0:0:
448,96,46559,1,4,0:0:0:0:
256,192,47211,5,0,0:0:0:0:
256,192,47863,1,8,0:0:0:0:
256,192,48298,1,0,0:0:0:0:
256,192,48624,1,0,0:0:0:0:
256,192,48950,1,0,0:0:0:0:
256,192,49602,1,8,0:0:0:0:
448,96,50037,1,4,0:0:0:0:
256,192,50472,1,8,0:0:0:0:
256,192,50689,1,0,0:0:0:0:
256,192,50907,1,8,0:0:0:0:
256,192,51124,1,8,0:0:0:0:
256,192,51233,1,0,0:0:0:0:
256,192,51341,1,8,0:0:0:0:
256,192,51559,1,0,0:0:0:0:
416,96,51776,5,4,0:0:0:0:
256,192,52211,1,8,0:0:0:0:
256,192,52428,1,0,0:0:0:0:
256,192,52537,1,0,0:0:0:0:
256,192,52646,1,8,0:0:0:0:
256,192,52863,1,0,0:0:0:0:
256,192,53081,1,8,0:0:0:0:
256,192,53298,1,0,0:0:0:0:
256,192,53407,1,0,0:0:0:0:
256,192,53515,5,8,0:0:0:0:
256,192,53733,1,8,0:0:0:0:
256,192,53950,1,8,0:0:0:0:
256,192,54059,1,8,0:0:0:0:
256,192,54168,1,0,0:0:0:0:
256,192,54385,1,0,0:0:0:0:
256,192,54494,1,0,0:0:0:0:
256,192,54602,1,8,0:0:0:0:
256,192,54711,1,8,0:0:0:0:
256,192,54820,1,0,0:0:0:0:
256,192,54928,1,0,0:0:0:0:
256,192,55037,1,8,0:0:0:0:
256,192,56559,1,8,0:0:0:0:
384,96,56994,5,4,0:0:0:0:
256,192,57211,1,0,0:0:0:0:
256,192,57320,1,8,0:0:0:0:
256,192,57428,1,0,0:0:0:0:
256,192,57646,1,0,0:0:0:0:
256,192,58081,1,8,0:0:0:0:
256,192,58298,1,0,0:0:0:0:
256,192,58515,1,8,0:0:0:0:
256,192,58624,1,8,0:0:0:0:
256,192,58733,1,0,0:0:0:0:
256,192,58950,1,8,0:0:0:0:
256,192,59168,1,0,0:0:0:0:
256,192,59385,1,8,0:0:0:0:
256,192,59602,1,0,0:0:0:0:
256,192,59711,1,0,0:0:0:0:
256,192,59820,1,8,0:0:0:0:
256,192,60037,1,8,0:0:0:0:
256,192,60472,1,8,0:0:0:0:
256,192,60689,1,8,0:0:0:0:
256,192,60798,1,0,0:0:0:0:
256,192,60907,1,8,0:0:0:0:
256,192,61124,1,0,0:0:0:0:
256,192,61341,1,8,0:0:0:0:
256,192,61559,1,0,0:0:0:0:
256,192,61776,1,0,0:0:0:0:
256,192,61885,1,0,0:0:0:0:
256,192,61994,1,8,0:0:0:0:
256,192,62211,1,0,0:0:0:0:
256,192,62428,1,8,0:0:0:0:
256,192,62646,1,0,0:0:0:0:
256,192,62863,1,8,0:0:0:0:
256,192,63081,1,0,0:0:0:0:
256,192,63189,1,0,0:0:0:0:
256,192,63298,1,8,0:0:0:0:
256,192,63407,1,0,0:0:0:0:
256,192,63515,1,8,0:0:0:0:
256,192,63950,1,0,0:0:0:0:
256,192,64168,1,0,0:0:0:0:
256,192,64276,1,8,0:0:0:0:
256,192,64385,1,0,0:0:0:0:
256,192,64602,1,8,0:0:0:0:
256,192,64820,1,8,0:0:0:0:
256,192,64928,1,0,0:0:0:0:
256,192,65037,1,8,0:0:0:0:
256,192,65255,1,0,0:0:0:0:
256,192,65689,1,0,0:0:0:0:
256,192,65907,1,8,0:0:0:0:
256,192,66015,1,8,0:0:0:0:
256,192,66124,1,0,0:0:0:0:
256,192,66341,1,0,0:0:0:0:
256,192,66559,1,0,0:0:0:0:
256,192,66668,1,0,0:0:0:0:
256,192,66776,1,8,0:0:0:0:
256,192,66994,1,8,0:0:0:0:
256,192,67428,1,8,0:0:0:0:
256,192,67646,1,0,0:0:0:0:
256,192,67755,1,0,0:0:0:0:
256,192,67863,1,8,0:0:0:0:
256,192,68081,1,0,0:0:0:0:
256,192,68298,1,8,0:0:0:0:
256,192,68515,1,8,0:0:0:0:
256,192,68624,1,0,0:0:0:0:
256,192,68733,1,8,0:0:0:0:
256,192,68950,1,0,0:0:0:0:
256,192,69168,1,8,0:0:0:0:
256,192,69385,1,8,0:0:0:0:
256,192,69494,1,0,0:0:0:0:
256,192,69602,1,8,0:0:0:0:
256,192,69820,1,0,0:0:0:0:
256,192,69928,1,0,0:0:0:0:
256,192,70037,1,8,0:0:0:0:
256,192,70255,1,0,0:0:0:0:
256,192,70363,1,0,0:0:0:0:
256,192,70472,1,8,0:0:0:0:
256,192,70581,1,0,0:0:0:0:
256,192,70689,1,8,0:0:0:0:
384,96,70907,5,4,0:0:0:0:
256,192,71124,1,0,0:0:0:0:
256,192,71233,1,8,0:0:0:0:
256,192,71341,1,0,0:0:0:0:
256,192,71559,1,0,0:0:0:0:
256,192,71994,1,8,0:0:0:0:
256,192,72211,1,0,0:0:0:0:
256,192,72428,1,8,0:0:0:0:
256,192,72537,1,8,0:0:0:0:
256,192,72646,1,0,0:0:0:0:
256,192,72863,1,8,0:0:0:0:
256,192,73081,1,0,0:0:0:0:
256,192,73298,1,8,0:0:0:0:
256,192,73515,1,0,0:0:0:0:
256,192,73624,1,0,0:0:0:0:
256,192,73733,1,8,0:0:0:0:
256,192,73950,1,8,0:0:0:0:
256,192,74385,1,8,0:0:0:0:
256,192,74602,1,8,0:0:0:0:
256,192,74711,1,0,0:0:0:0:
256,192,74820,1,8,0:0:0:0:
256,192,75037,1,0,0:0:0:0:
256,192,75255,1,8,0:0:0:0:
256,192,75363,1,8,0:0:0:0:
256,192,75472,1,0,0:0:0:0:
256,192,75581,1,8,0:0:0:0:
256,192,75689,1,0,0:0:0:0:
256,192,75907,1,8,0:0:0:0:
256,192,76124,1,0,0:0:0:0:
256,192,76341,1,8,0:0:0:0:
256,192,76450,1,8,0:0:0:0:
256,192,76559,1,0,0:0:0:0:
256,192,76776,1,8,0:0:0:0:
256,192,76994,1,0,0:0:0:0:
256,192,77102,1,0,0:0:0:0:
256,192,77211,1,8,0:0:0:0:
256,192,77320,1,0,0:0:0:0:
256,192,77428,1,8,0:0:0:0:
256,192,77863,1,0,0:0:0:0:
256,192,78081,1,0,0:0:0:0:
256,192,78189,1,0,0:0:0:0:
256,192,78298,1,8,0:0:0:0:
256,192,78515,1,8,0:0:0:0:
256,192,78733,1,8,0:0:0:0:
256,192,78841,1,0,0:0:0:0:
256,192,78950,1,8,0:0:0:0:
256,192,79168,1,0,0:0:0:0:
256,192,79602,1,0,0:0:0:0:
256,192,79820,1,8,0:0:0:0:
256,192,79928,1,8,0:0:0:0:
256,192,80037,1,8,0:0:0:0:
256,192,80255,1,0,0:0:0:0:
256,192,80472,1,8,0:0:0:0:
256,192,80581,1,0,0:0:0:0:
256,192,80689,1,8,0:0:0:0:
256,192,80907,1,8,0:0:0:0:
256,192,81124,1,0,0:0:0:0:
256,192,81233,1,8,0:0:0:0:
256,192,81341,1,0,0:0:0:0:
256,192,81559,1,0,0:0:0:0:
256,192,81776,1,8,0:0:0:0:
256,192,81994,1,8,0:0:0:0:
256,192,82102,1,8,0:0:0:0:
256,192,82211,1,0,0:0:0:0:
256,192,82428,1,0,0:0:0:0:
256,192,82646,1,8,0:0:0:0:
256,192,83081,1,8,0:0:0:0:
256,192,83298,1,8,0:0:0:0:
256,192,83407,1,0,0:0:0:0:
256,192,83515,1,8,0:0:0:0:
256,192,83733,1,0,0:0:0:0:
256,192,83950,1,8,0:0:0:0:
256,192,84059,1,8,0:0:0:0:
256,192,84168,1,0,0:0:0:0:
256,192,84276,1,0,0:0:0:0:
256,192,84385,1,8,0:0:0:0:
256,192,84602,1,0,0:0:0:0:
256,192,84820,12,0,88298,0:0:0:0:
