osu file format v14

[General]
AudioFilename: audio.mp3
AudioLeadIn: 0
PreviewTime: 56341
Countdown: 0
SampleSet: Normal
StackLeniency: 0.7
Mode: 1
LetterboxInBreaks: 0
WidescreenStoryboard: 1

[Editor]
Bookmarks: 12537
DistanceSpacing: 1
BeatDivisor: 4
GridSize: 32
TimelineZoom: 0.4999998

[Metadata]
Title:Daisuki. (TV Size)
TitleUnicode:ダイスキ。 (TV Size)
Artist:Ohashi Ayaka
ArtistUnicode:大橋彩香
Creator:BlackBq
Version:Kantan.
Source:可愛ければ変態でも好きになってくれますか?
Tags:jacky10186 jpop j-pop 大好き anime japanese op opening kawaikereba hentai demo suki ni natte kuremasu ka? 変好き hensuki are You willing to fall in love with a pervert as long as she's a cutie 桐生慧輝 Keiki Kiryu 下野紘 Hiro Shimono 朱鷺原紗雪 Sayuki Tokihara 竹達彩奈 Ayana Taketatsu 古賀唯花 Yuika Koga 日高里菜 Rina Hidaka 桐生瑞葉 Mizuha Kiryu 本渡楓 Kaede Hondo 南条真緒 Mao Nanjo 野水伊織 Iori Nomizu 鳳小春 Koharu Otori 藤本彩乃 Ayano Fujimoto 春野杏 Anzu Haruno sune kadokawa media factory 花間燈 Tomo Hanama MF文庫J MF Bunko J
BeatmapID:2747189
BeatmapSetID:1325572

[Difficulty]
HPDrainRate:8
CircleSize:2
OverallDifficulty:3
ApproachRate:10
SliderMultiplier:1.4
SliderTickRate:1

[Events]
//Background and Video events
0,0,"a.jpg",0,-45
//Break Periods
//Storyboard Layer 0 (Background)
//Storyboard Layer 1 (Fail)
//Storyboard Layer 2 (Pass)
//Storyboard Layer 3 (Foreground)
//Storyboard Layer 4 (Overlay)
//Storyboard Sound Samples

[TimingPoints]
1342,434.782608695652,4,1,0,50,1,0
4711,-100,4,1,0,60,0,0
6450,-100,4,1,0,70,0,0
8189,-100,4,1,0,80,0,0
15472,-100,4,1,0,50,0,0
25146,-100,4,1,0,70,0,0
27537,-100,4,1,0,80,0,0
42972,-100,4,1,0,60,0,0
49928,-100,4,1,0,80,0,0
56994,-100,4,1,0,80,0,1
84711,-100,4,1,0,60,0,1
84820,-100,4,1,0,60,0,0
86559,-111.111111111111,4,1,0,50,0,0
86994,-111.111111111111,4,1,0,40,0,0
87428,-111.111111111111,4,1,0,30,0,0
87863,-111.111111111111,4,1,0,20,0,0
88298,-125,4,1,0,10,0,0

[HitObjects]
256,192,1342,5,8,0:0:0:0:
256,192,3081,1,8,0:0:0:0:
256,192,3950,1,0,0:0:0:0:
256,192,4820,1,8,0:0:0:0:
256,192,5255,1,8,0:0:0:0:
256,192,5689,1,0,0:0:0:0:
256,192,6559,5,0,0:0:0:0:
256,192,6994,1,8,0:0:0:0:
256,192,7428,1,8,0:0:0:0:
476,111,8298,1,12,0:0:0:0:
256,192,9602,1,0,0:0:0:0:
256,192,10037,5,10,0:0:0:0:
256,192,10907,1,0,0:0:0:0:
264,193,11341,1,8,0:0:0:0:
256,192,11776,1,0,0:0:0:0:
256,192,12646,1,8,0:0:0:0:
256,192,13515,1,8,0:0:0:0:
256,192,14820,1,8,0:0:0:0:
448,128,15255,5,4,0:0:0:0:
256,192,15907,1,0,0:0:0:0:
256,192,16994,1,8,0:0:0:0:
256,192,17646,1,0,0:0:0:0:
256,192,18733,1,8,0:0:0:0:
256,192,19385,1,0,0:0:0:0:
256,192,20472,1,0,0:0:0:0:
256,192,21124,1,0,0:0:0:0:
256,192,22211,1,0,0:0:0:0:
256,192,22863,1,8,0:0:0:0:
256,192,23950,1,0,0:0:0:0:
256,192,24602,1,0,0:0:0:0:
256,192,25689,1,8,0:0:0:0:
256,192,26341,5,0,0:0:0:0:
416,96,27646,5,12,0:0:0:0:
416,96,28298,1,12,0:0:0:0:
384,96,29168,1,4,0:0:0:0:
256,192,29602,1,8,0:0:0:0:
256,192,30037,1,0,0:0:0:0:
256,192,30907,1,8,0:0:0:0:
256,192,31776,1,8,0:0:0:0:
256,192,32211,1,0,0:0:0:0:
256,192,32646,1,8,0:0:0:0:
256,192,33515,5,0,0:0:0:0:
256,192,33950,1,8,0:0:0:0:
256,192,35255,1,0,0:0:0:0:
256,192,35689,1,8,0:0:0:0:
384,128,36124,1,4,0:0:0:0:
256,192,37428,1,8,0:0:0:0:
256,192,37863,1,8,0:0:0:0:
256,192,38733,1,0,0:0:0:0:
256,192,39168,1,8,0:0:0:0:
256,192,39602,1,0,0:0:0:0:
256,192,40472,1,8,0:0:0:0:
256,192,41341,1,8,0:0:0:0:
256,192,41776,1,0,0:0:0:0:
256,192,42211,5,8,0:0:0:0:
448,128,43081,5,4,0:0:0:0:
256,192,43733,5,8,0:0:0:0:
256,192,44820,1,0,0:0:0:0:
256,192,45472,1,0,0:0:0:0:
448,96,46559,1,4,0:0:0:0:
256,192,47211,5,0,0:0:0:0:
256,192,48298,1,8,0:0:0:0:
256,192,48950,1,0,0:0:0:0:
448,96,50037,1,4,0:0:0:0:
256,192,50472,1,8,0:0:0:0:
256,192,50907,1,0,0:0:0:0:
416,96,51776,5,4,0:0:0:0:
256,192,52211,1,0,0:0:0:0:
256,192,52646,1,8,0:0:0:0:
256,192,53515,1,8,0:0:0:0:
256,192,53950,1,0,0:0:0:0:
256,192,54385,1,0,0:0:0:0:
261,201,55255,1,8,0:0:0:0:
256,192,56559,1,8,0:0:0:0:
384,96,56994,5,4,0:0:0:0:
256,192,57428,1,0,0:0:0:0:
256,192,58298,1,0,0:0:0:0:
256,192,58733,1,8,0:0:0:0:
256,192,59168,1,8,0:0:0:0:
256,192,59602,1,0,0:0:0:0:
256,192,60472,1,0,0:0:0:0:
256,192,60907,1,0,0:0:0:0:
256,192,61341,1,8,0:0:0:0:
256,192,62211,1,0,0:0:0:0:
256,192,62646,1,8,0:0:0:0:
256,192,63081,1,8,0:0:0:0:
256,192,64385,1,0,0:0:0:0:
256,192,64820,1,8,0:0:0:0:
256,192,65255,1,0,0:0:0:0:
256,192,66124,1,8,0:0:0:0:
256,192,66559,1,0,0:0:0:0:
256,192,66994,1,8,0:0:0:0:
256,192,67428,1,0,0:0:0:0:
256,192,68298,1,0,0:0:0:0:
256,192,69602,1,8,0:0:0:0:
256,192,70037,1,8,0:0:0:0:
384,96,70907,5,4,0:0:0:0:
256,192,71341,1,0,0:0:0:0:
256,192,72211,1,8,0:0:0:0:
256,192,72646,1,8,0:0:0:0:
256,192,73081,1,0,0:0:0:0:
256,192,73515,1,0,0:0:0:0:
256,192,74385,1,0,0:0:0:0:
256,192,74820,1,8,0:0:0:0:
256,192,75255,1,8,0:0:0:0:
256,192,76124,1,8,0:0:0:0:
256,192,76559,1,8,0:0:0:0:
256,192,76994,1,8,0:0:0:0:
256,192,78298,1,0,0:0:0:0:
256,192,78733,1,8,0:0:0:0:
256,192,79168,1,0,0:0:0:0:
256,192,80037,1,8,0:0:0:0:
256,192,80472,1,8,0:0:0:0:
256,192,80907,1,8,0:0:0:0:
256,192,81341,1,0,0:0:0:0:
256,192,82211,1,0,0:0:0:0:
256,192,83081,1,8,0:0:0:0:
256,192,83515,1,0,0:0:0:0:
256,192,83950,1,8,0:0:0:0:
256,192,84820,12,0,88298,0:0:0:0:
