osu file format v14

[General]
AudioFilename: audio.mp3
AudioLeadIn: 0
PreviewTime: 56341
Countdown: 0
SampleSet: Normal
StackLeniency: 0.7
Mode: 1
LetterboxInBreaks: 0
WidescreenStoryboard: 1

[Editor]
Bookmarks: 1342,8298,15255,17646,18515,20255,21124,21994,24602,25472,27211,36124,43081,50037,56994,63950,70907,77863
DistanceSpacing: 1
BeatDivisor: 6
GridSize: 32
TimelineZoom: 1.5

[Metadata]
Title:Daisuki. (TV Size)
TitleUnicode:ダイスキ。 (TV Size)
Artist:Ohashi Ayaka
ArtistUnicode:大橋彩香
Creator:BlackBq
Version:10186's Hendaisuki.
Source:可愛ければ変態でも好きになってくれますか?
Tags:jacky10186 jpop j-pop 大好き anime japanese op opening kawaikereba hentai demo suki ni natte kuremasu ka? 変好き hensuki are You willing to fall in love with a pervert as long as she's a cutie 桐生慧輝 Keiki Kiryu 下野紘 Hiro Shimono 朱鷺原紗雪 Sayuki Tokihara 竹達彩奈 Ayana Taketatsu 古賀唯花 Yuika Koga 日高里菜 Rina Hidaka 桐生瑞葉 Mizuha Kiryu 本渡楓 Kaede Hondo 南条真緒 Mao Nanjo 野水伊織 Iori Nomizu 鳳小春 Koharu Otori 藤本彩乃 Ayano Fujimoto 春野杏 Anzu Haruno sune kadokawa media factory 花間燈 Tomo Hanama MF文庫J MF Bunko J
BeatmapID:2956242
BeatmapSetID:1325572

[Difficulty]
HPDrainRate:5.5
CircleSize:5
OverallDifficulty:5.5
ApproachRate:5
SliderMultiplier:1.4
SliderTickRate:1

[Events]
//Background and Video events
0,0,"e.jpg",0,88
//Break Periods
//Storyboard Layer 0 (Background)
//Storyboard Layer 1 (Fail)
//Storyboard Layer 2 (Pass)
//Storyboard Layer 3 (Foreground)
//Storyboard Layer 4 (Overlay)
//Storyboard Sound Samples

[TimingPoints]
1342,434.782608695652,4,1,0,40,1,0
1342,-111.111111111111,4,1,0,40,0,0
4765,-111.111111111111,4,1,0,50,0,0
6505,-111.111111111111,4,1,0,60,0,0
8244,-100,4,1,0,70,0,0
15472,-100,4,1,0,50,0,0
27591,-100,4,1,0,70,0,0
43026,-100,4,1,0,60,0,0
49983,-100,4,1,0,70,0,0
56994,-93.4579439252336,4,1,0,80,0,1
84711,-93.4579439252336,4,1,0,60,0,1
84820,-100,4,1,0,40,0,0
86559,-111.111111111111,4,1,0,30,0,0
86994,-111.111111111111,4,1,0,25,0,0
87428,-111.111111111111,4,1,0,20,0,0
87863,-111.111111111111,4,1,0,15,0,0
88298,-125,4,1,0,10,0,0

[HitObjects]
341,260,1342,5,8,0:0:0:0:
334,178,1668,1,0,0:0:0:0:
270,294,1994,1,8,0:0:0:0:
224,115,2102,1,8,0:0:0:0:
240,142,2211,1,8,0:0:0:0:
240,190,2428,1,0,0:0:0:0:
300,161,2646,1,8,0:0:0:0:
340,105,2863,1,0,0:0:0:0:
159,150,2972,1,0,0:0:0:0:
323,167,3081,1,8,0:0:0:0:
320,157,3407,1,0,0:0:0:0:
320,157,3733,1,8,0:0:0:0:
221,88,3841,1,8,0:0:0:0:
361,140,3950,1,8,0:0:0:0:
339,263,4168,1,0,0:0:0:0:
368,217,4385,1,8,0:0:0:0:
361,140,4602,1,0,0:0:0:0:
161,147,4711,1,0,0:0:0:0:
458,205,4820,1,8,0:0:0:0:
149,173,5255,1,8,0:0:0:0:
181,161,5472,1,0,0:0:0:0:
434,249,5689,1,8,0:0:0:0:
311,227,5907,1,0,0:0:0:0:
116,136,6015,1,0,0:0:0:0:
278,163,6124,1,8,0:0:0:0:
403,217,6341,1,0,0:0:0:0:
293,178,6559,1,8,0:0:0:0:
279,144,6776,1,8,0:0:0:0:
337,186,6885,1,8,0:0:0:0:
151,95,6994,1,0,0:0:0:0:
283,148,7211,1,8,0:0:0:0:
202,112,7320,1,8,0:0:0:0:
246,94,7428,1,0,0:0:0:0:
339,265,7537,1,8,0:0:0:0:
245,205,7646,1,0,0:0:0:0:
111,208,7755,1,0,0:0:0:0:
331,140,7863,5,8,0:0:0:0:
240,74,8081,1,8,0:0:0:0:
239,185,8298,1,4,0:0:0:0:
242,63,8515,1,0,0:0:0:0:
192,151,8624,1,0,0:0:0:0:
490,203,8733,1,8,0:0:0:0:
264,271,8950,1,8,0:0:0:0:
125,164,9059,1,0,0:0:0:0:
222,97,9385,1,0,0:0:0:0:
435,238,9602,1,8,0:0:0:0:
228,118,9820,1,8,0:0:0:0:
294,99,9928,1,8,0:0:0:0:
216,114,10037,1,0,0:0:0:0:
233,104,10255,1,0,0:0:0:0:
204,150,10363,1,8,0:0:0:0:
229,73,10581,1,0,0:0:0:0:
400,227,10689,1,8,0:0:0:0:
329,160,11015,1,8,0:0:0:0:
323,225,11124,1,0,0:0:0:0:
148,93,11233,1,0,0:0:0:0:
421,234,11341,1,8,0:0:0:0:
292,91,11559,1,8,0:0:0:0:
288,51,11776,1,0,0:0:0:0:
225,143,11994,1,0,0:0:0:0:
388,271,12102,1,0,0:0:0:0:
468,216,12211,1,8,0:0:0:0:
349,181,12428,1,8,0:0:0:0:
319,149,12537,1,8,0:0:0:0:
229,152,12646,1,8,0:0:0:0:
406,137,12863,1,0,0:0:0:0:
323,116,13081,1,8,0:0:0:0:
357,259,13189,1,8,0:0:0:0:
244,130,13298,1,0,0:0:0:0:
402,162,13515,1,8,0:0:0:0:
309,247,13624,1,8,0:0:0:0:
240,119,13733,1,0,0:0:0:0:
176,165,13805,1,0,0:0:0:0:
176,165,13878,1,0,0:0:0:0:
240,119,13950,1,8,0:0:0:0:
356,224,14059,1,0,0:0:0:0:
179,182,14168,1,8,0:0:0:0:
190,110,14602,1,0,0:0:0:0:
190,110,14711,1,0,0:0:0:0:
332,242,14820,1,8,0:0:0:0:
372,219,14928,1,8,0:0:0:0:
278,185,15037,1,0,0:0:0:0:
284,272,15255,1,12,0:0:0:0:
415,242,15689,1,0,0:0:0:0:
320,183,15907,1,8,0:0:0:0:
338,145,16015,1,8,0:0:0:0:
338,145,16124,1,8,0:0:0:0:
170,302,16341,1,0,0:0:0:0:
377,176,16559,1,8,0:0:0:0:
307,232,16994,1,8,0:0:0:0:
295,186,17320,1,0,0:0:0:0:
320,208,17646,1,8,0:0:0:0:
273,166,17718,1,8,0:0:0:0:
273,166,17791,1,8,0:0:0:0:
273,166,17863,1,8,0:0:0:0:
286,102,18081,1,0,0:0:0:0:
288,71,18298,1,8,0:0:0:0:
304,84,18733,1,8,0:0:0:0:
203,91,19168,1,0,0:0:0:0:
296,194,19385,1,8,0:0:0:0:
270,60,19494,1,8,0:0:0:0:
270,60,19602,1,8,0:0:0:0:
296,194,19820,1,0,0:0:0:0:
296,194,20037,1,8,0:0:0:0:
374,230,20255,1,8,0:0:0:0:
374,230,20327,1,8,0:0:0:0:
374,230,20399,1,8,0:0:0:0:
256,157,20472,1,8,0:0:0:0:
432,224,20798,1,0,0:0:0:0:
282,192,21124,1,8,0:0:0:0:
282,192,21233,1,8,0:0:0:0:
282,192,21341,1,8,0:0:0:0:
283,144,21559,1,0,0:0:0:0:
352,206,21776,1,8,0:0:0:0:
316,115,21994,1,8,0:0:0:0:
316,115,22102,1,0,0:0:0:0:
387,115,22211,1,0,0:0:0:0:
294,222,22646,1,8,0:0:0:0:
312,107,22863,1,0,0:0:0:0:
225,55,23298,1,0,0:0:0:0:
221,50,23515,1,8,0:0:0:0:
241,136,23733,1,8,0:0:0:0:
241,136,23841,1,8,0:0:0:0:
321,159,23950,1,0,0:0:0:0:
317,233,24385,1,8,0:0:0:0:
223,200,24602,1,8,0:0:0:0:
224,221,24675,1,8,0:0:0:0:
288,107,24747,1,8,0:0:0:0:
288,107,24820,1,8,0:0:0:0:
244,140,25037,1,0,0:0:0:0:
365,215,25255,1,8,0:0:0:0:
243,135,25472,1,8,0:0:0:0:
243,135,25581,1,0,0:0:0:0:
236,114,25689,1,0,0:0:0:0:
365,146,26124,1,8,0:0:0:0:
402,194,26341,1,0,0:0:0:0:
196,141,26776,1,0,0:0:0:0:
196,141,26994,1,8,0:0:0:0:
370,146,27211,1,8,0:0:0:0:
370,146,27284,1,8,0:0:0:0:
304,242,27356,1,8,0:0:0:0:
357,291,27428,1,8,0:0:0:0:
288,148,27646,1,4,0:0:0:0:
287,142,27863,1,12,0:0:0:0:
269,153,28298,1,4,0:0:0:0:
224,116,28624,1,0,0:0:0:0:
271,189,28733,1,8,0:0:0:0:
277,245,28950,1,8,0:0:0:0:
334,173,29059,1,8,0:0:0:0:
384,96,29168,5,4,0:0:0:0:
261,172,29494,1,0,0:0:0:0:
256,192,29602,1,8,0:0:0:0:
362,289,29820,1,8,0:0:0:0:
489,234,30037,1,0,0:0:0:0:
256,192,30255,1,0,0:0:0:0:
213,95,30363,1,0,0:0:0:0:
256,192,30472,1,8,0:0:0:0:
385,231,30689,1,8,0:0:0:0:
234,71,30907,1,0,0:0:0:0:
279,193,31124,1,0,0:0:0:0:
331,203,31233,1,0,0:0:0:0:
339,132,31341,1,8,0:0:0:0:
256,192,31559,1,8,0:0:0:0:
292,216,31668,1,8,0:0:0:0:
340,258,31776,1,0,0:0:0:0:
256,192,31994,1,0,0:0:0:0:
298,247,32102,1,0,0:0:0:0:
256,192,32211,1,8,0:0:0:0:
425,173,32428,1,8,0:0:0:0:
256,192,32646,1,0,0:0:0:0:
231,98,32972,1,0,0:0:0:0:
256,192,33081,1,8,0:0:0:0:
422,185,33298,1,0,0:0:0:0:
306,136,33407,1,0,0:0:0:0:
256,192,33515,1,8,0:0:0:0:
256,192,33733,1,0,0:0:0:0:
256,192,33950,1,8,0:0:0:0:
290,157,34168,1,8,0:0:0:0:
261,253,34276,1,8,0:0:0:0:
256,192,34385,1,0,0:0:0:0:
301,146,34602,1,8,0:0:0:0:
256,192,34820,1,8,0:0:0:0:
286,128,34928,1,0,0:0:0:0:
301,157,35037,1,8,0:0:0:0:
256,192,35255,1,0,0:0:0:0:
191,141,35472,1,0,0:0:0:0:
191,141,35581,1,0,0:0:0:0:
364,202,35689,1,8,0:0:0:0:
286,106,36124,1,8,0:0:0:0:
298,104,36233,1,0,0:0:0:0:
298,104,36341,1,0,0:0:0:0:
271,108,36450,1,0,0:0:0:0:
303,94,36559,1,8,0:0:0:0:
348,133,36776,1,8,0:0:0:0:
217,254,36885,1,0,0:0:0:0:
354,218,36994,1,8,0:0:0:0:
354,218,37211,1,0,0:0:0:0:
282,103,37320,1,0,0:0:0:0:
297,136,37428,1,8,0:0:0:0:
306,170,37863,1,0,0:0:0:0:
214,120,37972,1,0,0:0:0:0:
155,176,38081,1,0,0:0:0:0:
202,113,38189,1,0,0:0:0:0:
199,284,38298,1,8,0:0:0:0:
250,275,38515,1,8,0:0:0:0:
408,237,38624,1,8,0:0:0:0:
365,222,38733,1,0,0:0:0:0:
365,222,38950,1,0,0:0:0:0:
282,85,39059,1,0,0:0:0:0:
327,138,39168,1,8,0:0:0:0:
228,93,39385,1,8,0:0:0:0:
228,93,39457,1,8,0:0:0:0:
358,254,39530,1,8,0:0:0:0:
228,93,39602,1,0,0:0:0:0:
249,130,39928,1,0,0:0:0:0:
269,96,40037,1,8,0:0:0:0:
269,96,40255,1,0,0:0:0:0:
260,83,40472,1,8,0:0:0:0:
260,82,40581,1,0,0:0:0:0:
261,81,40689,1,0,0:0:0:0:
274,153,40798,1,0,0:0:0:0:
402,236,40907,1,8,0:0:0:0:
314,159,41124,1,8,0:0:0:0:
350,161,41341,1,0,0:0:0:0:
213,75,41450,1,0,0:0:0:0:
350,161,41559,1,0,0:0:0:0:
196,126,41668,1,0,0:0:0:0:
284,136,41776,1,8,0:0:0:0:
307,157,41885,1,8,0:0:0:0:
284,136,41994,1,8,0:0:0:0:
337,226,42102,1,8,0:0:0:0:
228,109,42211,1,0,0:0:0:0:
228,109,42320,1,0,0:0:0:0:
228,109,42428,1,0,0:0:0:0:
228,109,42537,1,0,0:0:0:0:
320,235,42646,1,8,0:0:0:0:
234,380,43081,1,4,0:0:0:0:
272,188,43515,1,8,0:0:0:0:
326,228,43733,1,0,0:0:0:0:
232,147,43841,1,0,0:0:0:0:
232,147,43950,1,0,0:0:0:0:
298,113,44168,1,0,0:0:0:0:
289,133,44385,1,8,0:0:0:0:
293,257,44820,1,0,0:0:0:0:
269,112,45037,1,8,0:0:0:0:
293,257,45146,1,0,0:0:0:0:
211,158,45363,1,8,0:0:0:0:
318,217,45472,1,0,0:0:0:0:
228,164,45907,1,0,0:0:0:0:
403,251,46124,1,8,0:0:0:0:
261,71,46559,1,0,0:0:0:0:
245,69,46994,1,8,0:0:0:0:
241,74,47211,1,0,0:0:0:0:
313,160,47320,1,0,0:0:0:0:
313,160,47428,1,0,0:0:0:0:
340,216,47646,1,0,0:0:0:0:
328,268,47863,1,8,0:0:0:0:
344,194,48298,1,8,0:0:0:0:
250,172,48515,1,0,0:0:0:0:
345,277,48624,1,8,0:0:0:0:
294,123,48841,1,0,0:0:0:0:
360,212,48950,1,8,0:0:0:0:
436,251,49059,1,8,0:0:0:0:
247,203,49168,1,0,0:0:0:0:
174,167,49385,1,0,0:0:0:0:
392,244,49602,1,8,0:0:0:0:
289,247,50037,1,0,0:0:0:0:
252,239,50255,1,8,0:0:0:0:
325,188,50363,1,8,0:0:0:0:
242,120,50472,1,0,0:0:0:0:
462,220,50689,1,8,0:0:0:0:
366,181,50907,1,0,0:0:0:0:
378,156,51124,1,8,0:0:0:0:
378,156,51233,1,0,0:0:0:0:
378,156,51341,1,8,0:0:0:0:
316,289,51559,1,8,0:0:0:0:
350,263,51668,1,8,0:0:0:0:
213,233,51776,1,0,0:0:0:0:
298,268,51994,1,8,0:0:0:0:
261,191,52211,1,0,0:0:0:0:
351,180,52320,1,0,0:0:0:0:
351,180,52428,1,8,0:0:0:0:
314,104,52646,1,0,0:0:0:0:
344,233,52755,1,0,0:0:0:0:
310,114,52863,1,8,0:0:0:0:
310,115,52972,1,0,0:0:0:0:
310,112,53081,1,8,0:0:0:0:
200,157,53298,1,0,0:0:0:0:
279,184,53515,1,8,0:0:0:0:
322,109,53624,1,0,0:0:0:0:
322,109,53733,1,0,0:0:0:0:
322,109,53841,1,8,0:0:0:0:
426,203,53950,1,0,0:0:0:0:
225,121,54059,1,0,0:0:0:0:
428,171,54168,1,8,0:0:0:0:
352,253,54276,1,8,0:0:0:0:
428,171,54385,1,0,0:0:0:0:
383,193,54602,1,8,0:0:0:0:
238,221,54675,1,8,0:0:0:0:
320,192,54747,1,8,0:0:0:0:
240,149,54820,1,0,0:0:0:0:
240,149,54928,1,0,0:0:0:0:
302,242,55037,1,8,0:0:0:0:
218,204,55472,1,0,0:0:0:0:
368,257,55689,1,8,0:0:0:0:
256,96,56015,1,8,0:0:0:0:
256,96,56124,1,0,0:0:0:0:
288,192,56341,1,0,0:0:0:0:
320,256,56450,1,0,0:0:0:0:
320,256,56559,1,12,0:0:0:0:
288,128,56994,1,4,0:0:0:0:
224,128,57320,1,0,0:0:0:0:
448,224,57428,1,8,0:0:0:0:
416,256,57646,1,8,0:0:0:0:
352,256,57755,1,8,0:0:0:0:
160,192,57863,1,0,0:0:0:0:
256,96,58081,1,0,0:0:0:0:
256,64,58298,1,8,0:0:0:0:
384,160,58407,1,0,0:0:0:0:
288,128,58515,1,8,0:0:0:0:
288,128,58624,1,8,0:0:0:0:
256,128,58733,1,0,0:0:0:0:
320,224,58950,1,8,0:0:0:0:
224,96,59168,1,0,0:0:0:0:
224,96,59276,1,0,0:0:0:0:
288,192,59385,1,8,0:0:0:0:
224,128,59602,1,0,0:0:0:0:
224,128,59711,1,0,0:0:0:0:
352,224,59820,1,8,0:0:0:0:
224,160,59928,1,0,0:0:0:0:
288,256,60037,1,8,0:0:0:0:
249,106,60255,1,8,0:0:0:0:
448,128,60472,1,0,0:0:0:0:
320,192,60689,1,0,0:0:0:0:
192,160,60798,1,0,0:0:0:0:
352,128,60907,1,8,0:0:0:0:
256,160,61124,1,0,0:0:0:0:
416,224,61341,1,8,0:0:0:0:
256,128,61450,1,8,0:0:0:0:
256,160,61559,1,0,0:0:0:0:
224,128,61668,1,0,0:0:0:0:
288,160,61776,1,8,0:0:0:0:
384,224,61994,1,0,0:0:0:0:
192,256,62102,1,0,0:0:0:0:
192,160,62211,1,8,0:0:0:0:
320,256,62428,1,0,0:0:0:0:
352,256,62537,1,0,0:0:0:0:
288,224,62646,1,8,0:0:0:0:
352,256,62863,1,8,0:0:0:0:
320,256,62972,1,8,0:0:0:0:
352,256,63081,1,0,0:0:0:0:
352,256,63189,1,0,0:0:0:0:
256,224,63298,1,8,0:0:0:0:
352,256,63407,1,0,0:0:0:0:
256,224,63515,1,8,0:0:0:0:
224,96,63950,1,0,0:0:0:0:
160,128,64059,1,8,0:0:0:0:
224,96,64168,1,0,0:0:0:0:
224,96,64276,1,0,0:0:0:0:
352,160,64385,1,0,0:0:0:0:
352,160,64602,1,8,0:0:0:0:
288,160,64820,1,0,0:0:0:0:
288,160,65037,1,0,0:0:0:0:
288,160,65146,1,0,0:0:0:0:
288,160,65255,1,8,0:0:0:0:
320,224,65472,1,0,0:0:0:0:
288,160,65689,1,8,0:0:0:0:
448,224,65798,1,0,0:0:0:0:
448,224,65907,1,8,0:0:0:0:
448,224,66015,1,8,0:0:0:0:
224,64,66124,1,8,0:0:0:0:
288,160,66341,1,8,0:0:0:0:
224,96,66450,1,8,0:0:0:0:
224,96,66559,1,0,0:0:0:0:
224,96,66776,1,8,0:0:0:0:
224,96,66994,1,8,0:0:0:0:
215,157,67211,1,0,0:0:0:0:
215,157,67320,1,0,0:0:0:0:
256,160,67428,1,8,0:0:0:0:
320,192,67646,1,0,0:0:0:0:
384,224,67863,1,8,0:0:0:0:
320,192,67972,1,0,0:0:0:0:
384,224,68081,1,0,0:0:0:0:
352,256,68189,1,0,0:0:0:0:
256,192,68298,1,8,0:0:0:0:
256,160,68515,1,0,0:0:0:0:
256,160,68624,1,0,0:0:0:0:
288,256,68733,1,8,0:0:0:0:
224,256,68950,1,8,0:0:0:0:
256,64,69168,1,0,0:0:0:0:
256,96,69385,1,0,0:0:0:0:
256,96,69494,1,0,0:0:0:0:
352,224,69602,1,8,0:0:0:0:
320,160,69820,1,8,0:0:0:0:
320,160,69928,1,0,0:0:0:0:
384,224,70037,1,8,0:0:0:0:
320,256,70110,1,8,0:0:0:0:
384,224,70182,1,8,0:0:0:0:
384,224,70255,1,0,0:0:0:0:
384,224,70363,1,0,0:0:0:0:
352,160,70472,1,8,0:0:0:0:
384,192,70689,1,8,0:0:0:0:
224,96,70907,1,4,0:0:0:0:
320,160,71233,1,0,0:0:0:0:
384,256,71341,1,8,0:0:0:0:
384,256,71559,1,8,0:0:0:0:
384,256,71668,1,8,0:0:0:0:
320,192,71776,1,0,0:0:0:0:
256,96,71994,1,0,0:0:0:0:
352,224,72211,1,8,0:0:0:0:
320,128,72320,1,0,0:0:0:0:
352,224,72428,1,8,0:0:0:0:
352,224,72537,1,8,0:0:0:0:
320,128,72646,1,0,0:0:0:0:
224,160,72863,1,8,0:0:0:0:
192,320,72972,1,8,0:0:0:0:
384,256,73081,1,0,0:0:0:0:
384,256,73298,1,8,0:0:0:0:
256,128,73515,1,0,0:0:0:0:
256,128,73624,1,0,0:0:0:0:
320,192,73733,1,8,0:0:0:0:
352,192,73841,1,0,0:0:0:0:
320,256,73950,1,8,0:0:0:0:
266,81,74168,1,8,0:0:0:0:
256,96,74385,1,0,0:0:0:0:
256,128,74602,1,0,0:0:0:0:
256,128,74711,1,0,0:0:0:0:
256,128,74820,1,8,0:0:0:0:
352,224,75037,1,0,0:0:0:0:
288,128,75255,1,8,0:0:0:0:
256,192,75363,1,8,0:0:0:0:
256,192,75472,1,0,0:0:0:0:
256,192,75581,1,0,0:0:0:0:
416,256,75689,1,8,0:0:0:0:
288,96,75907,1,0,0:0:0:0:
288,96,76015,1,0,0:0:0:0:
288,224,76124,1,8,0:0:0:0:
384,256,76341,1,8,0:0:0:0:
384,256,76450,1,8,0:0:0:0:
320,128,76559,1,0,0:0:0:0:
256,256,76776,1,8,0:0:0:0:
320,160,76885,1,0,0:0:0:0:
256,96,76994,1,0,0:0:0:0:
224,160,77102,1,0,0:0:0:0:
256,96,77211,1,8,0:0:0:0:
224,160,77320,1,0,0:0:0:0:
256,64,77428,1,8,0:0:0:0:
320,128,77863,1,0,0:0:0:0:
352,224,77972,1,8,0:0:0:0:
320,96,78081,1,0,0:0:0:0:
320,96,78189,1,0,0:0:0:0:
320,96,78298,1,0,0:0:0:0:
352,160,78515,1,8,0:0:0:0:
384,256,78733,1,0,0:0:0:0:
256,96,78950,1,0,0:0:0:0:
256,96,79059,1,0,0:0:0:0:
224,288,79168,1,8,0:0:0:0:
288,288,79385,1,0,0:0:0:0:
416,256,79602,1,8,0:0:0:0:
224,160,79711,1,0,0:0:0:0:
384,256,79820,1,8,0:0:0:0:
384,256,79928,1,8,0:0:0:0:
384,256,80037,1,8,0:0:0:0:
256,128,80255,1,8,0:0:0:0:
256,96,80363,1,8,0:0:0:0:
288,288,80472,1,0,0:0:0:0:
320,224,80689,1,8,0:0:0:0:
352,288,80907,1,8,0:0:0:0:
256,96,81124,1,0,0:0:0:0:
256,96,81233,1,0,0:0:0:0:
320,288,81341,1,8,0:0:0:0:
320,128,81559,1,0,0:0:0:0:
256,256,81776,1,8,0:0:0:0:
256,256,81885,1,0,0:0:0:0:
320,128,81994,1,8,0:0:0:0:
320,128,82102,1,8,0:0:0:0:
320,192,82211,1,0,0:0:0:0:
192,64,82428,1,0,0:0:0:0:
192,64,82537,1,0,0:0:0:0:
512,192,82646,1,8,0:0:0:0:
352,256,82863,1,8,0:0:0:0:
96,128,83081,5,0,0:0:0:0:
320,96,83298,1,0,0:0:0:0:
320,96,83407,1,0,0:0:0:0:
320,256,83515,1,8,0:0:0:0:
288,160,83733,1,8,0:0:0:0:
288,160,83841,1,8,0:0:0:0:
288,96,83950,1,0,0:0:0:0:
256,64,84059,1,8,0:0:0:0:
352,224,84168,1,0,0:0:0:0:
196,245,84276,1,0,0:0:0:0:
224,64,84385,1,8,0:0:0:0:
288,160,84494,1,8,0:0:0:0:
384,192,84602,1,0,0:0:0:0:
256,192,84820,12,0,88298,0:0:0:0:
