osu file format v14

[General]
AudioFilename: audio.mp3
AudioLeadIn: 0
PreviewTime: 53695
Countdown: 0
SampleSet: Soft
StackLeniency: 0.7
Mode: 0
LetterboxInBreaks: 0
WidescreenStoryboard: 0

[Editor]
DistanceSpacing: 1.1
BeatDivisor: 2
GridSize: 8
TimelineZoom: 1

[Metadata]
Title:Zero Centimeters
TitleUnicode:ゼロセンチメートル
Artist:Ohara Yuiko
ArtistUnicode:大原ゆい子
Creator:realy0_
Version:Easy
Source:からかい上手の高木さん2
Tags:season 2 Karakai Jouzu no Takagi San tv size opening op ~Opening Edition~ Minoru Yoshida Masayuki Fukutomi KwAIMSuckASFuk centimeter anime japanese
BeatmapID:2096499
BeatmapSetID:1001496

[Difficulty]
HPDrainRate:2
CircleSize:3
OverallDifficulty:3
ApproachRate:4
SliderMultiplier:0.92
SliderTickRate:1

[Events]
//Background and Video events
0,0,"cropped-2508-1440-957204.jpg",0,0
//Break Periods
//Storyboard Layer 0 (Background)
//Storyboard Layer 1 (Fail)
//Storyboard Layer 2 (Pass)
//Storyboard Layer 3 (Foreground)
//Storyboard Layer 4 (Overlay)
//Storyboard Sound Samples

[TimingPoints]
806,389.61038961039,4,2,1,40,1,0
15416,-100,4,2,1,60,0,0
15611,389.61038961039,4,2,1,70,1,1
21844,-100,4,2,1,80,0,1
25545,-100,4,2,1,70,0,1
25546,-100,4,2,1,70,0,0
26520,-100,4,2,1,45,0,0
38013,-100,4,2,1,50,0,0
38111,-100,4,2,1,55,0,0
38208,-100,4,2,1,60,0,0
38987,-100,4,2,1,50,0,0
39377,-100,4,2,1,60,0,0
40351,-100,4,2,1,70,0,0
40740,-100,4,2,1,60,0,0
45611,-100,4,2,1,70,0,0
46000,-100,4,2,1,60,0,0
51455,-100,4,2,1,70,0,0
53013,-100,4,2,1,75,0,0
54572,-100,4,2,1,85,0,1
77948,-100,4,2,1,100,0,1
79482,-100,4,2,1,85,0,0
79507,-100,4,2,1,85,0,1
91974,-100,4,2,1,85,0,0
92169,-100,4,2,1,80,0,0
99572,-100,4,2,1,20,0,0

[Colours]
Combo1 : 128,191,255
Combo2 : 159,94,74
Combo3 : 140,228,44
Combo4 : 245,201,204

[HitObjects]
0,337,806,6,0,P|47:311|188:295,1,184,2|0,2:0|0:0,0:0:0:0:
360,372,2364,6,0,B|372:268|300:302|320:168,1,184,2|8,2:0|2:1,0:0:0:0:
399,139,3533,1,0,2:0:0:0:
399,139,3922,2,0,P|460:161|479:187,2,92,2|2|10,2:0|2:0|2:1,0:0:0:0:
317,197,5091,1,2,2:0:0:0:
237,259,5481,6,0,B|167:261|167:261|133:283|133:283|26:287,1,184,2|10,2:0|2:1,0:0:0:0:
14,88,7039,2,0,B|36:51|94:51|94:51|123:108|183:104,1,184,2|2,2:0|2:0,0:0:0:0:
262,82,8208,1,0,2:0:0:0:
262,82,8598,6,0,B|274:185|202:151|222:285,1,184,2|8,2:0|2:1,0:0:0:0:
287,330,9767,1,0,2:0:0:0:
379,287,10156,2,0,B|472:277|472:277|526:302,2,138,2|2|0,2:0|2:0|2:0,0:0:0:0:
287,330,11715,6,0,L|163:314,1,92,2|0,2:0|2:0,0:0:0:0:
125,247,12494,2,0,P|162:193|192:182,1,92,8|0,2:1|2:0,0:0:0:0:
200,83,13273,2,0,B|97:71|131:143|-3:123,1,184,2|10,2:0|2:1,0:0:0:0:
414,17,15611,6,0,P|392:66|384:182,1,138,6|6,3:2|2:3,0:0:0:0:
338,241,16585,1,6,2:3:0:0:
338,241,16974,2,0,B|297:222|297:222|204:232,1,138,14|8,2:0|2:3,0:0:0:0:
140,310,17948,1,6,2:3:0:0:
211,382,18338,1,10,2:3:0:0:
309,360,18727,6,0,B|349:341|349:341|442:351,1,138,6|6,3:2|2:3,0:0:0:0:
500,268,19701,1,6,2:3:0:0:
500,268,20091,2,0,P|464:210|390:190,1,138,14|8,2:0|2:3,0:0:0:0:
305,223,21065,2,0,L|318:319,1,92,6|10,2:3|2:3,0:0:0:0:
235,374,21844,5,14,2:0:0:0:
101,301,22429,1,14,2:0:0:0:
211,197,23013,1,14,2:0:0:0:
63,162,23598,1,14,2:0:0:0:
163,48,24182,1,14,2:0:0:0:
298,117,24766,6,0,B|401:105|367:177|501:157,1,184,14|6,2:0|3:0,0:0:0:0:
512,129,25740,1,6,3:0:0:0:
342,18,26520,6,0,B|265:-2|214:50|214:50|183:58|149:38,1,184,2|0,2:0|0:0,0:0:0:0:
83,100,27688,1,8,2:1:0:0:
83,100,28078,2,0,P|96:140|100:198,1,92,2|0,2:0|0:0,0:0:0:0:
18,248,28857,2,0,P|5:288|1:346,1,92,0|8,0:0|2:1,0:0:0:0:
91,383,29636,6,0,B|194:395|160:323|294:343,1,184,2|2,2:0|2:0,0:0:0:0:
357,382,30805,1,8,2:1:0:0:
424,306,31195,2,0,P|439:254|511:260,2,138,2|0|0,2:0|0:0|0:0,0:0:0:0:
323,297,32753,6,0,B|328:227|328:227|352:194|352:194|362:87,1,184,2|2,2:0|2:0,0:0:0:0:
282,54,33922,1,10,2:1:0:0:
187,90,34312,2,0,B|147:109|147:109|54:99,2,138,2|2|8,2:0|2:0|2:1,0:0:0:0:
266,26,35870,6,0,B|344:24|375:95|375:95|413:102|456:89,1,184,2|2,2:0|2:0,0:0:0:0:
506,149,37039,1,8,2:1:0:0:
506,149,37429,2,0,P|502:194|488:238,1,92,2|0,2:0|0:0,0:0:0:0:
397,282,38208,2,0,B|285:267|286:267,2,92,10|10|2,2:3|2:3|2:0,0:0:0:0:
483,335,39377,5,6,3:2:0:0:
334,367,39961,1,4,2:3:0:0:
334,367,40351,2,0,P|288:317|221:311,1,138,6|8,3:2|2:3,0:0:0:0:
126,347,41325,1,4,2:3:0:0:
48,282,41714,1,8,2:3:0:0:
48,282,42104,6,0,P|51:236|65:192,2,92,6|8|0,2:3|2:3|0:0,0:0:0:0:
197,257,43468,2,0,B|238:276|238:276|331:266,1,138,6|8,3:2|2:3,0:0:0:0:
415,211,44442,1,10,2:3:0:0:
369,122,44831,1,10,2:3:0:0:
441,51,45221,5,4,2:3:0:0:
441,51,45611,2,0,P|400:29|354:22,1,92,6|8,3:2|2:3,0:0:0:0:
278,153,46585,2,0,B|295:221|295:221|276:285,1,138,6|8,3:2|2:3,0:0:0:0:
180,253,47559,1,4,2:3:0:0:
160,153,47948,1,8,2:3:0:0:
78,92,48338,6,0,P|33:96|-1:126,2,92,6|10|6,3:2|2:3|2:3,0:0:0:0:
213,159,49701,2,0,B|297:149|270:195|351:185,1,138,6|8,2:3|2:3,0:0:0:0:
444,159,50675,1,4,2:3:0:0:
510,235,51065,1,10,2:3:0:0:
429,296,51455,6,0,L|265:274,2,138,6|14|14,3:2|2:0|2:0,0:0:0:0:
510,235,53013,2,0,B|495:190|495:190|501:145,1,92,6|6,3:0|3:0,0:0:0:0:
226,14,54572,6,0,P|204:54|196:99,1,92,6|8,3:2|2:3,0:0:0:0:
117,162,55351,2,0,P|138:202|146:247,1,92,6|8,2:3|2:3,0:0:0:0:
88,331,56130,2,0,B|42:323|42:323|15:328|-7:345,2,92,6|10|6,2:3|2:3|2:3,0:0:0:0:
186,352,57299,1,10,2:3:0:0:
277,309,57688,6,0,B|272:239|272:239|249:205|249:205|241:99,1,184,6|6,2:3|2:3,0:0:0:0:
422,37,59247,2,0,B|466:26|466:26|521:84|492:169,1,184,6|6,3:2|2:3,0:0:0:0:
424,224,60416,1,8,2:3:0:0:
424,224,60805,6,0,B|321:212|355:284|221:264,1,184,6|6,3:2|2:3,0:0:0:0:
157,226,61974,1,8,2:3:0:0:
72,281,62364,2,0,P|52:195|19:150,2,138,6|6|8,3:2|3:2|2:3,0:0:0:0:
153,341,63922,6,0,B|261:324,1,92,6|10,3:2|2:3,0:0:0:0:
337,365,64701,2,0,B|445:382,1,92,6|10,2:3|2:3,0:0:0:0:
496,304,65481,2,0,B|458:280|459:224|459:224|516:195|512:135,1,184,6|10,3:2|2:3,0:0:0:0:
452,72,66649,1,10,2:3:0:0:
452,72,67039,6,0,P|405:75|370:103,1,92,6|10,3:2|2:3,0:0:0:0:
285,156,67818,2,0,P|238:153|203:125,1,92,4|8,2:3|2:3,0:0:0:0:
173,86,68403,2,0,B|184:71|189:44|189:44|181:-1,2,92,6|6|6,3:2|3:0|3:0,0:0:0:0:
107,163,69572,1,6,3:0:0:0:
230,250,70156,6,0,B|333:262|299:190|433:210,1,184,6|6,3:2|2:3,0:0:0:0:
459,348,71520,2,0,P|377:333|309:335,1,138,6|8,3:2|2:3,0:0:0:0:
228,370,72494,1,6,2:3:0:0:
151,312,72883,1,8,2:3:0:0:
151,312,73273,6,0,B|168:204,1,92,6|10,3:2|2:3,0:0:0:0:
239,147,74052,2,0,B|224:56,1,92,6|10,2:3|2:3,0:0:0:0:
132,15,74831,2,0,B|39:25|39:25|-2:6,2,138,6|6|8,3:2|3:2|2:3,0:0:0:0:
224,56,76390,6,0,P|245:94|382:114,1,184,6|0,3:2|2:3,0:0:0:0:
439,43,77559,1,10,2:3:0:0:
512,114,77948,2,0,B|495:222,2,92,14|14|14,2:0|2:0|2:0,0:0:0:0:
439,43,79117,1,10,2:3:0:0:
351,93,79507,6,0,B|248:81|282:153|148:133,1,184,6|6,3:2|2:3,0:0:0:0:
103,204,80675,1,8,2:3:0:0:
103,204,81065,2,0,B|110:251|84:295|84:295|100:338,2,138,6|6|8,2:3|2:3|2:3,0:0:0:0:
60,111,82623,6,0,B|55:62|98:30|98:30|146:32|177:74,1,184,6|6,3:2|2:3,0:0:0:0:
240,147,83792,1,10,2:3:0:0:
325,93,84182,2,0,P|371:64|428:57,1,92,6|8,3:2|2:3,0:0:0:0:
483,123,84961,2,0,B|469:165|469:165|466:231,1,92,0|12,0:0|2:0,0:0:0:0:
374,253,85740,6,0,B|301:258|301:258|267:281|267:281|197:286,1,184,6|6,3:2|2:3,0:0:0:0:
136,368,86909,1,8,2:3:0:0:
136,368,87299,2,0,L|-13:358,2,138,6|6|8,3:2|3:2|2:3,0:0:0:0:
230,330,88857,6,0,B|277:323|309:362|309:362|365:350|374:299,1,184,6|6,3:2|2:3,0:0:0:0:
469,183,90221,2,0,B|384:171|422:134|341:122,1,138,6|10,3:2|2:0,0:0:0:0:
249,144,91195,1,10,2:0:0:0:
175,74,91585,1,10,2:0:0:0:
44,150,92169,6,0,B|8:187|14:234|14:234|32:250|43:272,1,138,14|6,2:0|3:2,0:0:0:0:
173,346,93338,2,0,P|176:277|193:210,1,138,14|8,2:0|2:3,0:0:0:0:
277,153,94312,1,6,2:3:0:0:
223,67,94701,1,10,2:3:0:0:
373,45,95286,6,0,L|514:27,2,138,14|14|14,2:0|2:0|2:0,0:0:0:0:
256,192,96844,12,4,99766,2:3:0:0:
