osu file format v14

[General]
AudioFilename: audio.mp3
AudioLeadIn: 0
PreviewTime: 53600
Countdown: 0
SampleSet: Normal
StackLeniency: 0.7
Mode: 1
LetterboxInBreaks: 0
WidescreenStoryboard: 1

[Editor]
DistanceSpacing: 1
BeatDivisor: 4
GridSize: 32
TimelineZoom: 1

[Metadata]
Title:Zero Centimeters (TV Size)
TitleUnicode:ゼロセンチメートル (TV Size)
Artist:Ohara Yuiko
ArtistUnicode:大原ゆい子
Creator:JustBurak
Version:Kantan
Source:からかい上手の高木さん2
Tags:skolodojko jpop j-pop pop karakai jouzu no takagi-san anime japanese opening op season 2 single 星に名前をつけるとき Minoru Yoshida 吉田穣 hoshi ni namae o tsukeru toki
BeatmapID:3018019
BeatmapSetID:1470027

[Difficulty]
HPDrainRate:8
CircleSize:2
OverallDifficulty:2.5
ApproachRate:9
SliderMultiplier:1.4
SliderTickRate:1

[Events]
//Background and Video events
0,0,"cringe.jpg",0,0
Video,0,"epic troll.mp4"
//Break Periods
//Storyboard Layer 0 (Background)
//Storyboard Layer 1 (Fail)
//Storyboard Layer 2 (Pass)
//Storyboard Layer 3 (Foreground)
//Storyboard Layer 4 (Overlay)
//Storyboard Sound Samples

[TimingPoints]
-944,779.220779220779,4,1,0,50,1,0
419,-55.5555555555556,4,1,0,50,0,0
14640,779.220779220779,4,1,0,50,1,8
15321,-55.5555555555556,4,1,0,80,0,0
15419,389.61038961039,4,1,0,80,1,0
15419,-111.111111111111,4,1,0,80,0,1
25646,-111.111111111111,4,1,0,60,0,0
39087,-111.111111111111,4,1,0,70,0,0
51165,-111.111111111111,4,1,0,80,0,0
54380,-111.111111111111,4,1,0,80,0,1
79509,-111.111111111111,4,1,0,75,0,0
83893,-111.111111111111,4,1,0,70,0,0
84380,-111.111111111111,4,1,0,65,0,0
84769,-111.111111111111,4,1,0,60,0,0
85159,-111.111111111111,4,1,0,55,0,0
85548,-111.111111111111,4,1,0,50,0,0
85938,-111.111111111111,4,1,0,45,0,0
86328,-111.111111111111,4,1,0,40,0,0
86815,-111.111111111111,4,1,0,60,0,0

[HitObjects]
160,96,614,5,0,0:0:0:0:
352,96,1393,1,8,0:0:0:0:
160,96,2172,1,0,0:0:0:0:
160,96,3731,1,8,0:0:0:0:
352,96,4510,1,8,0:0:0:0:
352,96,5289,1,0,0:0:0:0:
160,96,6848,1,8,0:0:0:0:
160,96,7627,1,0,0:0:0:0:
352,96,8406,1,8,0:0:0:0:
160,96,9185,1,0,0:0:0:0:
352,96,9965,1,8,0:0:0:0:
160,96,10549,1,8,0:0:0:0:
352,96,11523,1,8,0:0:0:0:
352,96,11913,1,0,0:0:0:0:
160,96,12302,1,0,0:0:0:0:
352,96,13081,1,8,0:0:0:0:
160,96,13861,1,8,0:0:0:0:
144,111,14445,1,0,0:0:0:0:
336,303,15419,1,12,0:0:0:0:
144,111,16003,1,0,0:0:0:0:
336,111,16782,1,8,0:0:0:0:
144,111,17756,1,0,0:0:0:0:
336,111,18535,1,8,0:0:0:0:
144,111,19120,1,0,0:0:0:0:
352,96,19899,1,8,0:0:0:0:
352,96,21652,1,8,0:0:0:0:
352,96,22237,1,8,0:0:0:0:
352,96,22821,1,8,0:0:0:0:
160,96,23406,1,0,0:0:0:0:
160,96,23990,1,0,0:0:0:0:
352,96,24574,1,8,0:0:0:0:
352,288,25354,1,12,0:0:0:0:
160,96,26328,1,0,0:0:0:0:
352,96,27886,1,8,0:0:0:0:
160,96,28665,1,0,0:0:0:0:
352,96,29250,1,8,0:0:0:0:
352,96,31003,1,8,0:0:0:0:
352,96,31393,1,8,0:0:0:0:
160,96,32561,1,0,0:0:0:0:
352,96,33341,1,8,0:0:0:0:
160,96,34120,1,0,0:0:0:0:
352,96,34509,1,8,0:0:0:0:
352,96,35678,1,8,0:0:0:0:
352,96,36457,1,8,0:0:0:0:
160,96,37237,1,0,0:0:0:0:
352,96,38016,1,8,0:0:0:0:
160,96,38406,1,0,0:0:0:0:
352,96,38795,1,8,0:0:0:0:
170,178,39185,1,4,0:0:0:0:
160,96,39574,1,0,0:0:0:0:
352,96,40159,1,8,0:0:0:0:
352,96,40743,1,8,0:0:0:0:
160,96,41912,1,0,0:0:0:0:
352,96,42691,1,8,0:0:0:0:
352,96,43276,1,8,0:0:0:0:
352,96,44250,1,8,0:0:0:0:
160,96,45029,1,0,0:0:0:0:
160,111,45419,1,12,0:0:0:0:
352,96,45808,1,8,0:0:0:0:
352,96,46393,1,8,0:0:0:0:
193,166,46782,1,0,0:0:0:0:
160,96,47367,1,0,0:0:0:0:
175,209,47756,1,0,0:0:0:0:
352,96,48146,1,8,0:0:0:0:
160,96,49509,1,0,0:0:0:0:
352,96,50483,1,8,0:0:0:0:
132,163,50873,1,0,0:0:0:0:
160,96,51263,1,0,0:0:0:0:
352,96,51847,1,8,0:0:0:0:
160,96,52431,1,0,0:0:0:0:
352,288,52821,1,12,0:0:0:0:
352,288,53211,1,12,0:0:0:0:
160,288,54380,1,4,0:0:0:0:
352,96,55548,1,8,0:0:0:0:
352,96,55938,1,8,0:0:0:0:
160,96,56717,1,0,0:0:0:0:
190,167,57107,1,8,0:0:0:0:
352,96,57496,1,8,0:0:0:0:
160,96,58276,1,0,0:0:0:0:
352,96,59055,1,8,0:0:0:0:
282,133,60224,1,0,0:0:0:0:
352,96,60613,1,8,0:0:0:0:
160,96,61393,1,0,0:0:0:0:
352,96,62172,1,8,0:0:0:0:
352,96,62756,1,8,0:0:0:0:
352,96,63730,1,8,0:0:0:0:
227,221,64120,1,0,0:0:0:0:
160,96,64509,1,0,0:0:0:0:
243,206,64899,1,0,0:0:0:0:
352,96,65289,1,8,0:0:0:0:
352,96,66068,1,8,0:0:0:0:
160,96,66847,1,4,0:0:0:0:
352,288,68211,1,12,0:0:0:0:
160,288,68990,1,4,0:0:0:0:
352,288,69769,1,12,0:0:0:0:
352,288,71328,1,12,0:0:0:0:
160,96,72302,1,0,0:0:0:0:
352,96,72691,1,8,0:0:0:0:
212,179,73470,1,8,0:0:0:0:
160,96,73860,1,0,0:0:0:0:
352,96,74639,1,8,0:0:0:0:
352,96,75224,1,8,0:0:0:0:
160,96,76198,1,0,0:0:0:0:
352,96,76782,1,8,0:0:0:0:
212,176,77367,1,0,0:0:0:0:
352,288,77756,1,12,0:0:0:0:
160,96,78535,1,0,0:0:0:0:
352,96,78925,1,8,0:0:0:0:
352,288,79509,1,12,0:0:0:0:
160,288,80094,1,4,0:0:0:0:
352,288,80678,1,12,0:0:0:0:
160,288,81652,1,4,0:0:0:0:
160,288,82042,1,4,0:0:0:0:
160,288,82626,1,12,0:0:0:0:
160,288,83211,1,4,0:0:0:0:
352,288,83795,1,12,0:0:0:0:
256,192,83990,12,0,87107,0:0:0:0:
