osu file format v14

[General]
AudioFilename: audio.mp3
AudioLeadIn: 0
PreviewTime: 53600
Countdown: 0
SampleSet: Normal
StackLeniency: 0.7
Mode: 1
LetterboxInBreaks: 0
WidescreenStoryboard: 1

[Editor]
DistanceSpacing: 1
BeatDivisor: 4
GridSize: 32
TimelineZoom: 1

[Metadata]
Title:Zero Centimeters (TV Size)
TitleUnicode:ゼロセンチメートル (TV Size)
Artist:Ohara Yuiko
ArtistUnicode:大原ゆい子
Creator:JustBurak
Version:Blush
Source:からかい上手の高木さん2
Tags:skolodojko jpop j-pop pop karakai jouzu no takagi-san anime japanese opening op season 2 single 星に名前をつけるとき Minoru Yoshida 吉田穣 hoshi ni namae o tsukeru toki
BeatmapID:3018017
BeatmapSetID:1470027

[Difficulty]
HPDrainRate:6
CircleSize:2
OverallDifficulty:5.5
ApproachRate:9
SliderMultiplier:1.4
SliderTickRate:1

[Events]
//Background and Video events
0,0,"cringe.jpg",0,0
Video,0,"epic troll.mp4"
//Break Periods
//Storyboard Layer 0 (Background)
//Storyboard Layer 1 (Fail)
//Storyboard Layer 2 (Pass)
//Storyboard Layer 3 (Foreground)
//Storyboard Layer 4 (Overlay)
//Storyboard Sound Samples

[TimingPoints]
-944,779.220779220779,4,1,0,50,1,0
419,-55.5555555555556,4,1,0,50,0,0
14640,779.220779220779,4,1,0,50,1,8
14640,-54.054054054054,4,1,0,50,0,0
15321,-54.054054054054,4,1,0,80,0,0
15419,389.61038961039,4,1,0,80,1,0
15419,-105.263157894737,4,1,0,80,0,1
25354,-108.108108108108,4,1,0,80,0,1
25548,-111.111111111111,4,1,0,80,0,0
25646,-111.111111111111,4,1,0,60,0,0
39087,-111.111111111111,4,1,0,70,0,0
51165,-111.111111111111,4,1,0,80,0,0
51263,-108.695652173913,4,1,0,80,0,0
51847,-106.382978723404,4,1,0,80,0,0
52431,-104.166666666667,4,1,0,80,0,0
52821,-102.040816326531,4,1,0,80,0,0
53016,-100,4,1,0,80,0,0
53211,-98.0392156862745,4,1,0,80,0,0
53503,-98.0392156862745,4,1,0,60,0,0
53600,-111.111111111111,4,1,0,60,0,0
54282,-111.111111111111,4,1,0,80,0,0
54380,-100,4,1,0,80,0,1
79509,-100,4,1,0,75,0,0
83893,-100,4,1,0,70,0,0
84380,-100,4,1,0,65,0,0
84769,-100,4,1,0,60,0,0
85159,-100,4,1,0,55,0,0
85548,-100,4,1,0,50,0,0
85938,-100,4,1,0,45,0,0
86328,-100,4,1,0,40,0,0
86815,-100,4,1,0,60,0,0

[HitObjects]
160,96,614,5,0,0:0:0:0:
352,96,1393,1,8,0:0:0:0:
160,96,2172,1,0,0:0:0:0:
160,96,2562,1,0,0:0:0:0:
160,96,2757,1,0,0:0:0:0:
352,96,2952,1,8,0:0:0:0:
160,96,3146,1,0,0:0:0:0:
352,96,3341,1,8,0:0:0:0:
160,96,3536,1,0,0:0:0:0:
352,96,3731,1,8,0:0:0:0:
160,96,4120,1,0,0:0:0:0:
352,96,4510,1,8,0:0:0:0:
352,96,4900,1,8,0:0:0:0:
352,96,5094,1,8,0:0:0:0:
352,96,5192,1,8,0:0:0:0:
160,96,5289,1,0,0:0:0:0:
160,96,5679,1,0,0:0:0:0:
352,96,5874,1,8,0:0:0:0:
352,96,6068,1,8,0:0:0:0:
160,96,6263,1,0,0:0:0:0:
160,96,6458,1,0,0:0:0:0:
352,96,6653,1,8,0:0:0:0:
160,96,6848,1,8,0:0:0:0:
352,96,7237,1,0,0:0:0:0:
160,96,7627,1,8,0:0:0:0:
160,96,8017,1,0,0:0:0:0:
352,96,8211,1,8,0:0:0:0:
160,96,8309,1,0,0:0:0:0:
352,96,8406,1,8,0:0:0:0:
160,96,8796,1,0,0:0:0:0:
160,96,8991,1,0,0:0:0:0:
352,96,9185,1,8,0:0:0:0:
160,96,9575,1,0,0:0:0:0:
160,96,9770,1,0,0:0:0:0:
352,96,9965,1,8,0:0:0:0:
160,96,10159,1,0,0:0:0:0:
160,96,10354,1,0,0:0:0:0:
352,96,10549,1,8,0:0:0:0:
160,96,10939,1,0,0:0:0:0:
352,96,11133,1,8,0:0:0:0:
160,96,11328,1,0,0:0:0:0:
160,96,11523,1,8,0:0:0:0:
352,96,11913,1,0,0:0:0:0:
160,96,12107,1,0,0:0:0:0:
352,96,12302,1,8,0:0:0:0:
160,96,12497,1,0,0:0:0:0:
352,96,12692,1,8,0:0:0:0:
160,96,12887,1,0,0:0:0:0:
352,96,13081,1,8,0:0:0:0:
160,96,13731,1,0,0:0:0:0:
182,97,13796,1,0,0:0:0:0:
352,96,13861,1,8,0:0:0:0:
160,96,14445,1,0,0:0:0:0:
256,192,14640,12,0,15224,0:0:0:0:
352,288,15419,5,12,0:0:0:0:
160,96,15808,1,0,0:0:0:0:
352,96,16003,1,8,0:0:0:0:
160,96,16197,1,0,0:0:0:0:
352,96,16393,1,8,0:0:0:0:
160,96,16587,1,0,0:0:0:0:
352,288,16782,1,12,0:0:0:0:
160,96,17172,1,0,0:0:0:0:
352,96,17367,1,8,0:0:0:0:
352,96,17561,1,8,0:0:0:0:
160,96,17756,1,0,0:0:0:0:
352,96,17951,1,8,0:0:0:0:
352,96,18146,1,8,0:0:0:0:
160,96,18341,1,0,0:0:0:0:
352,288,18535,1,12,0:0:0:0:
160,96,18925,1,0,0:0:0:0:
160,96,19120,1,0,0:0:0:0:
352,96,19315,1,8,0:0:0:0:
160,96,19509,1,0,0:0:0:0:
352,96,19704,1,8,0:0:0:0:
352,288,19899,1,12,0:0:0:0:
352,96,20289,1,8,0:0:0:0:
160,96,20483,1,0,0:0:0:0:
352,96,20678,1,0,0:0:0:0:
352,96,20776,1,0,0:0:0:0:
352,96,20873,1,8,0:0:0:0:
352,96,20970,1,8,0:0:0:0:
160,96,21068,1,0,0:0:0:0:
352,96,21263,1,0,0:0:0:0:
352,96,21457,1,0,0:0:0:0:
352,288,21652,1,12,0:0:0:0:
160,96,21847,1,0,0:0:0:0:
160,96,22042,1,0,0:0:0:0:
352,288,22237,1,12,0:0:0:0:
160,96,22431,1,0,0:0:0:0:
352,96,22626,1,0,0:0:0:0:
352,288,22821,1,12,0:0:0:0:
160,96,23016,1,0,0:0:0:0:
160,96,23211,1,0,0:0:0:0:
352,288,23406,1,12,0:0:0:0:
352,96,23600,1,8,0:0:0:0:
352,96,23698,1,8,0:0:0:0:
160,96,23795,1,0,0:0:0:0:
352,288,23990,1,12,0:0:0:0:
160,96,24185,1,0,0:0:0:0:
160,96,24380,1,0,0:0:0:0:
352,288,24574,1,12,0:0:0:0:
352,288,25354,1,12,0:0:0:0:
352,288,25548,1,12,0:0:0:0:
160,96,25743,1,0,0:0:0:0:
160,96,25938,1,0,0:0:0:0:
160,96,26133,1,0,0:0:0:0:
352,96,26328,1,8,0:0:0:0:
160,96,26523,1,0,0:0:0:0:
160,96,26717,1,0,0:0:0:0:
352,96,26912,1,8,0:0:0:0:
160,96,27302,1,0,0:0:0:0:
352,96,27496,1,8,0:0:0:0:
160,96,27691,1,0,0:0:0:0:
352,96,27886,1,8,0:0:0:0:
352,96,28081,1,8,0:0:0:0:
352,96,28276,1,8,0:0:0:0:
160,96,28665,1,0,0:0:0:0:
160,96,28860,1,0,0:0:0:0:
160,96,29055,1,8,0:0:0:0:
160,96,29250,1,0,0:0:0:0:
352,96,29445,1,8,0:0:0:0:
177,91,29834,1,0,0:0:0:0:
160,96,30029,1,0,0:0:0:0:
160,96,30224,1,8,0:0:0:0:
352,96,30419,1,8,0:0:0:0:
352,96,30613,1,8,0:0:0:0:
352,96,31003,1,8,0:0:0:0:
352,96,31198,1,8,0:0:0:0:
160,96,31393,1,0,0:0:0:0:
160,96,31588,1,8,0:0:0:0:
352,96,31977,1,8,0:0:0:0:
160,96,32172,1,8,0:0:0:0:
352,96,32367,1,8,0:0:0:0:
160,96,32562,1,0,0:0:0:0:
160,96,32756,1,0,0:0:0:0:
160,96,32951,1,0,0:0:0:0:
352,96,33146,1,8,0:0:0:0:
352,96,33341,1,8,0:0:0:0:
352,96,33730,1,8,0:0:0:0:
352,96,34120,1,8,0:0:0:0:
160,96,34315,1,8,0:0:0:0:
352,96,34509,1,0,0:0:0:0:
352,96,34704,1,0,0:0:0:0:
160,96,34899,1,0,0:0:0:0:
352,96,35094,1,8,0:0:0:0:
160,96,35289,1,0,0:0:0:0:
160,96,35483,1,0,0:0:0:0:
160,96,35581,1,0,0:0:0:0:
160,96,35678,1,8,0:0:0:0:
352,96,36068,1,8,0:0:0:0:
160,96,36263,1,0,0:0:0:0:
352,96,36457,1,8,0:0:0:0:
160,96,36847,1,0,0:0:0:0:
160,96,37042,1,0,0:0:0:0:
352,96,37237,1,8,0:0:0:0:
160,96,37431,1,0,0:0:0:0:
160,96,37626,1,0,0:0:0:0:
160,96,37821,1,0,0:0:0:0:
160,96,37919,1,0,0:0:0:0:
352,96,38016,1,8,0:0:0:0:
352,96,38211,1,8,0:0:0:0:
352,96,38406,1,8,0:0:0:0:
352,96,38503,1,8,0:0:0:0:
160,96,38600,1,0,0:0:0:0:
160,96,38698,1,0,0:0:0:0:
352,96,38795,1,0,0:0:0:0:
352,288,39185,1,12,0:0:0:0:
352,96,39574,1,8,0:0:0:0:
160,96,39769,1,0,0:0:0:0:
160,96,39964,1,0,0:0:0:0:
352,288,40159,1,12,0:0:0:0:
160,96,40354,1,8,0:0:0:0:
352,96,40548,1,8,0:0:0:0:
160,96,40743,1,0,0:0:0:0:
352,96,40938,1,8,0:0:0:0:
160,96,41133,1,8,0:0:0:0:
352,96,41230,1,0,0:0:0:0:
160,96,41328,1,8,0:0:0:0:
160,96,41522,1,0,0:0:0:0:
159,107,41717,1,0,0:0:0:0:
160,96,41912,1,8,0:0:0:0:
352,96,42107,1,8,0:0:0:0:
352,96,42302,1,0,0:0:0:0:
160,96,42496,1,8,0:0:0:0:
352,96,42886,1,8,0:0:0:0:
160,96,43081,1,0,0:0:0:0:
352,288,43276,1,12,0:0:0:0:
352,96,43665,1,8,0:0:0:0:
160,96,43860,1,0,0:0:0:0:
170,94,44055,1,0,0:0:0:0:
352,288,44250,1,12,0:0:0:0:
352,288,44639,1,12,0:0:0:0:
160,96,45029,1,0,0:0:0:0:
352,288,45419,1,12,0:0:0:0:
160,96,45808,1,8,0:0:0:0:
352,96,46003,1,0,0:0:0:0:
160,96,46198,1,0,0:0:0:0:
352,288,46393,1,12,0:0:0:0:
352,96,46782,1,8,0:0:0:0:
160,96,46977,1,0,0:0:0:0:
352,96,47172,1,0,0:0:0:0:
352,96,47269,1,0,0:0:0:0:
160,96,47367,1,8,0:0:0:0:
160,96,47561,1,8,0:0:0:0:
160,96,47756,1,0,0:0:0:0:
352,288,48146,1,12,0:0:0:0:
160,96,48341,1,0,0:0:0:0:
352,96,48535,1,8,0:0:0:0:
352,96,48730,1,8,0:0:0:0:
160,96,48925,1,0,0:0:0:0:
352,96,49120,1,8,0:0:0:0:
160,96,49315,1,0,0:0:0:0:
352,96,49509,1,8,0:0:0:0:
160,96,49899,1,0,0:0:0:0:
352,96,50094,1,8,0:0:0:0:
160,96,50289,1,0,0:0:0:0:
352,96,50483,1,8,0:0:0:0:
352,96,50678,1,8,0:0:0:0:
160,96,50873,1,8,0:0:0:0:
160,288,51263,1,12,0:0:0:0:
352,96,51652,1,0,0:0:0:0:
160,288,51847,1,12,0:0:0:0:
352,96,52237,1,0,0:0:0:0:
160,288,52431,1,12,0:0:0:0:
352,288,52821,1,12,0:0:0:0:
352,288,53016,1,12,0:0:0:0:
352,288,53211,1,12,0:0:0:0:
160,96,53600,1,0,0:0:0:0:
160,96,53990,1,0,0:0:0:0:
352,288,54380,1,12,0:0:0:0:
160,96,54769,1,0,0:0:0:0:
160,96,54964,1,0,0:0:0:0:
352,96,55159,1,8,0:0:0:0:
352,96,55354,1,0,0:0:0:0:
160,96,55548,1,0,0:0:0:0:
160,96,55743,1,0,0:0:0:0:
352,96,55938,1,8,0:0:0:0:
160,96,56133,1,0,0:0:0:0:
352,96,56328,1,8,0:0:0:0:
160,96,56522,1,0,0:0:0:0:
352,96,56717,1,8,0:0:0:0:
160,96,57106,1,0,0:0:0:0:
352,96,57301,1,8,0:0:0:0:
352,96,57399,1,8,0:0:0:0:
160,96,57496,1,0,0:0:0:0:
160,96,57691,1,0,0:0:0:0:
352,96,57886,1,8,0:0:0:0:
160,96,58080,1,0,0:0:0:0:
352,96,58275,1,8,0:0:0:0:
352,96,58470,1,8,0:0:0:0:
160,96,58665,1,0,0:0:0:0:
352,96,59055,1,12,0:0:0:0:
160,96,59444,1,0,0:0:0:0:
160,96,59639,1,0,0:0:0:0:
352,96,59834,1,8,0:0:0:0:
160,96,60029,1,8,0:0:0:0:
160,96,60224,1,0,0:0:0:0:
160,96,60419,1,8,0:0:0:0:
160,96,60516,1,0,0:0:0:0:
352,96,60613,1,8,0:0:0:0:
160,96,61003,1,0,0:0:0:0:
160,96,61198,1,0,0:0:0:0:
352,96,61393,1,8,0:0:0:0:
160,96,61782,1,0,0:0:0:0:
352,96,61977,1,0,0:0:0:0:
352,288,62172,1,12,0:0:0:0:
160,96,62367,1,0,0:0:0:0:
160,96,62561,1,0,0:0:0:0:
352,288,62756,1,12,0:0:0:0:
160,96,63146,1,0,0:0:0:0:
352,96,63341,1,8,0:0:0:0:
160,96,63535,1,0,0:0:0:0:
160,96,63633,1,0,0:0:0:0:
160,96,63730,1,8,0:0:0:0:
352,96,63925,1,0,0:0:0:0:
160,96,64120,1,8,0:0:0:0:
352,96,64315,1,0,0:0:0:0:
160,96,64509,1,8,0:0:0:0:
160,96,64704,1,0,0:0:0:0:
352,96,64899,1,8,0:0:0:0:
160,96,65094,1,0,0:0:0:0:
160,96,65191,1,0,0:0:0:0:
352,96,65289,1,8,0:0:0:0:
352,96,65483,1,8,0:0:0:0:
160,96,65678,1,0,0:0:0:0:
352,96,65873,1,8,0:0:0:0:
192,128,65970,1,0,0:0:0:0:
160,96,66068,1,0,0:0:0:0:
160,96,66263,1,0,0:0:0:0:
352,96,66457,1,8,0:0:0:0:
352,96,66555,1,8,0:0:0:0:
160,96,66652,1,0,0:0:0:0:
160,96,66750,1,0,0:0:0:0:
352,96,66847,1,8,0:0:0:0:
160,96,67237,1,0,0:0:0:0:
352,96,67431,1,8,0:0:0:0:
160,96,67626,1,0,0:0:0:0:
352,96,67821,1,8,0:0:0:0:
352,96,68016,1,8,0:0:0:0:
352,288,68211,1,12,0:0:0:0:
160,288,68600,1,4,0:0:0:0:
352,288,68990,1,12,0:0:0:0:
352,288,69380,1,12,0:0:0:0:
160,96,69574,1,0,0:0:0:0:
160,96,69672,1,0,0:0:0:0:
352,96,69769,1,0,0:0:0:0:
160,288,69964,1,12,0:0:0:0:
352,96,70354,1,8,0:0:0:0:
160,96,70548,1,0,0:0:0:0:
160,96,70743,1,0,0:0:0:0:
352,96,70938,1,8,0:0:0:0:
352,96,71133,1,8,0:0:0:0:
160,288,71328,1,4,0:0:0:0:
160,96,71717,1,0,0:0:0:0:
352,96,71912,1,8,0:0:0:0:
160,96,72107,1,0,0:0:0:0:
160,96,72302,1,0,0:0:0:0:
166,99,72399,1,0,0:0:0:0:
160,96,72496,1,0,0:0:0:0:
352,96,72691,1,8,0:0:0:0:
352,96,72886,1,8,0:0:0:0:
160,96,72983,1,0,0:0:0:0:
160,96,73081,1,8,0:0:0:0:
352,96,73470,1,8,0:0:0:0:
352,96,73665,1,8,0:0:0:0:
160,96,73860,1,0,0:0:0:0:
160,192,74055,1,0,0:0:0:0:
160,96,74250,1,8,0:0:0:0:
352,288,74639,1,12,0:0:0:0:
352,96,74834,1,8,0:0:0:0:
160,96,75029,1,0,0:0:0:0:
352,288,75224,1,12,0:0:0:0:
160,96,75613,1,0,0:0:0:0:
352,96,75808,1,8,0:0:0:0:
352,96,76003,1,8,0:0:0:0:
352,96,76100,1,8,0:0:0:0:
160,96,76198,1,0,0:0:0:0:
160,96,76393,1,0,0:0:0:0:
160,96,76587,1,0,0:0:0:0:
352,96,76782,1,8,0:0:0:0:
160,96,77172,1,0,0:0:0:0:
352,96,77367,1,8,0:0:0:0:
160,96,77561,1,0,0:0:0:0:
352,288,77756,1,12,0:0:0:0:
352,96,77951,1,8,0:0:0:0:
160,288,78146,1,0,0:0:0:0:
352,96,78341,1,8,0:0:0:0:
160,288,78535,1,0,0:0:0:0:
160,96,78730,1,0,0:0:0:0:
352,288,78925,1,12,0:0:0:0:
352,288,79120,1,12,0:0:0:0:
352,288,79509,1,12,0:0:0:0:
160,288,79704,1,4,0:0:0:0:
352,288,80094,1,12,0:0:0:0:
160,288,80289,1,4,0:0:0:0:
352,288,80678,1,12,0:0:0:0:
160,96,81068,1,0,0:0:0:0:
352,96,81263,1,8,0:0:0:0:
160,96,81457,1,0,0:0:0:0:
352,288,81652,1,12,0:0:0:0:
160,96,81847,1,0,0:0:0:0:
160,288,82042,1,4,0:0:0:0:
352,288,82237,1,8,0:0:0:0:
160,288,82626,1,4,0:0:0:0:
352,96,82821,1,8,0:0:0:0:
352,96,83016,1,8,0:0:0:0:
160,288,83211,1,4,0:0:0:0:
160,96,83600,1,0,0:0:0:0:
352,288,83795,1,12,0:0:0:0:
256,192,83990,12,8,86717,0:0:0:0:
352,96,86912,5,8,0:0:0:0:
160,96,86977,1,0,0:0:0:0:
160,96,87042,1,0,0:0:0:0:
160,96,87107,1,0,0:0:0:0:
