osu file format v14

[General]
AudioFilename: audio.mp3
AudioLeadIn: 0
PreviewTime: 53406
Countdown: 0
SampleSet: Soft
StackLeniency: 0.4
Mode: 3
LetterboxInBreaks: 0
SpecialStyle: 0
WidescreenStoryboard: 0

[Editor]
Bookmarks: 15104,26013,38480,54065,66532,79000
DistanceSpacing: 0.8
BeatDivisor: 4
GridSize: 4
TimelineZoom: 1.2

[Metadata]
Title:Zero Centimeters (TV Size)
TitleUnicode:ゼロセンチメートル (TV Size)
Artist:Ohara Yuiko
ArtistUnicode:大原ゆい子
Creator:-Mikan
Version:Shini's NM
Source:からかい上手の高木さん2
Tags:Kanon Matsubara Garden semyon422 _Asha Shinitagari piroshki karakai jouzu no takagi-san 2 skilled teaser anime japanese opening op 2
BeatmapID:2173978
BeatmapSetID:1000722

[Difficulty]
HPDrainRate:7.5
CircleSize:4
OverallDifficulty:7.5
ApproachRate:9
SliderMultiplier:2.19999990463257
SliderTickRate:2

[Events]
//Background and Video events
0,0,"15280438695722.jpg",0,0
Video,-81,"videoplayback.1.mp4"
//Break Periods
//Storyboard Layer 0 (Background)
//Storyboard Layer 1 (Fail)
//Storyboard Layer 2 (Pass)
//Storyboard Layer 3 (Foreground)
//Storyboard Layer 4 (Overlay)
//Storyboard Sound Samples
Sample,2172,0,"G#6_ssl.wav",70
Sample,2172,0,"C#6_ssl.wav",70
Sample,3731,0,"D#6_ssl.wav",70
Sample,3731,0,"C6_ssl.wav",70
Sample,3731,0,"G#6_ssl.wav",70
Sample,5289,0,"G#6_ssl.wav",70
Sample,5289,0,"A#4_sl.wav",40
Sample,5289,0,"A#5_ssl.wav",70
Sample,6848,0,"D#6_ssl.wav",70
Sample,6848,0,"B5_ssl.wav",70
Sample,6848,0,"A#6_s.wav",70
Sample,8406,0,"A#5_ssl.wav",70
Sample,8406,0,"C#6_ssl.wav",70
Sample,9965,0,"C7_s.wav",70
Sample,9965,0,"F6.wav",70
Sample,9965,0,"G#6.wav",70
Sample,10549,0,"A#6_s.wav",70
Sample,10549,0,"F6_ssl.wav",70
Sample,11523,0,"A#5.wav",70
Sample,11523,0,"F#5.wav",70
Sample,11523,0,"C#6.wav",70
Sample,13081,0,"F6_ssl.wav",70
Sample,13081,0,"F#5.wav",70
Sample,13081,0,"A#5.wav",70
Sample,13731,0,"F#7_ss.wav",70
Sample,13796,0,"G#7_ss.wav",70
Sample,16198,0,"Hat open.wav",45
Sample,17756,0,"Hat open.wav",45
Sample,19315,0,"Hat open.wav",45
Sample,20873,0,"Hat open.wav",45
Sample,26328,0,"F6.wav",70
Sample,27691,0,"G#7_ss.wav",70
Sample,27756,0,"D#7_ss.wav",70
Sample,27821,0,"C#7_ss.wav",70
Sample,29250,0,"D#6_ssl.wav",70
Sample,29444,0,"A#5.wav",70
Sample,31393,0,"G#6_s.wav",70
Sample,34315,0,"D#7_s.wav",70
Sample,34509,0,"F7_s.wav",70
Sample,35678,0,"C#6.wav",70
Sample,36847,0,"C#6_s.wav",70
Sample,37237,0,"F6.wav",70
Sample,37626,0,"D#6.wav",70
Sample,37626,0,"A#5.wav",45
Sample,38406,0,"F#6_s.wav",70
Sample,51263,0,"G#6.wav",90
Sample,51847,0,"F#6.wav",90
Sample,55159,0,"Hat open.wav",55
Sample,55548,0,"F6_s.wav",80
Sample,55743,0,"F#6_s.wav",80
Sample,55938,0,"G#6.wav",80
Sample,56328,0,"C7.wav",80
Sample,56717,0,"D#7.wav",80
Sample,57107,0,"C7_s.wav",80
Sample,57302,0,"C#7_ssl.wav",80
Sample,57496,0,"Hat open.wav",55
Sample,58276,0,"Hat open.wav",55
Sample,59639,0,"C#6_s.wav",80
Sample,59834,0,"C#6_s.wav",80
Sample,59834,0,"Hat open.wav",55
Sample,60029,0,"A#6_s.wav",80
Sample,60224,0,"G#6_s.wav",80
Sample,60419,0,"F#6_s.wav",80
Sample,60613,0,"G#6_s.wav",80
Sample,61393,0,"F6.wav",80
Sample,61393,0,"Hat open.wav",55
Sample,64120,0,"G#6.wav",80
Sample,64509,0,"F#6.wav",80
Sample,64899,0,"F6.wav",80
Sample,65678,0,"Hat open.wav",55
Sample,66068,0,"D#6.wav",80
Sample,66847,0,"G#6.wav",80
Sample,68016,0,"F6_s.wav",80
Sample,68600,0,"C#7_s.wav",80
Sample,68990,0,"C7_s.wav",80
Sample,69380,0,"F6_s.wav",80
Sample,69769,0,"C7_s.wav",80
Sample,69964,0,"C#7.wav",80
Sample,70743,0,"Hat open.wav",55
Sample,72302,0,"Hat open.wav",55
Sample,72302,0,"D#6_s.wav",80
Sample,72691,0,"F#6_s.wav",80
Sample,73470,0,"C#6.wav",80
Sample,73860,0,"Hat open.wav",55
Sample,73860,0,"C#6.wav",80
Sample,74639,0,"D#6_s.wav",80
Sample,75808,0,"C#6_s.wav",80
Sample,76782,0,"F#6.wav",80
Sample,77367,0,"C#6.wav",80
Sample,77756,0,"C6.wav",80
Sample,78146,0,"Hat open.wav",55
Sample,78535,0,"C#6.wav",80
Sample,78925,0,"D#6_s.wav",80
Sample,79120,0,"D#6_s.wav",80

[TimingPoints]
-944,779.220779220779,4,2,90,45,1,0
260,-50,4,2,90,45,0,0
15419,389.61038961039,4,2,90,55,1,0
15419,-100,4,2,90,55,0,0
26328,-100,4,2,90,45,0,0
26333,-100,4,2,90,45,0,0
38016,-100,4,2,90,50,0,0
54380,-100,4,2,90,60,0,1
79120,-100,4,2,90,60,0,0

[HitObjects]
64,192,614,5,0,0:0:0:70:G#6_ssl.wav
448,192,614,128,0,1393:0:0:0:0:
192,192,1393,128,0,2172:0:0:0:70:A#6_ssl.wav
64,192,2172,128,0,2952:0:0:0:40:C#4_sl.wav
448,192,2172,1,0,0:0:0:40:C#5_sl.wav
192,192,3146,128,0,3341:0:0:0:70:G#6_s.wav
320,192,3341,128,0,3536:0:0:0:70:F6_s.wav
448,192,3536,128,0,3731:0:0:0:70:F#6_s.wav
64,192,3731,1,0,0:0:0:35:C4_sl.wav
192,192,3731,1,0,0:0:0:40:C5_sl.wav
448,192,4120,1,0,0:0:0:70:C7.wav
192,192,4510,1,0,0:0:0:70:D#7.wav
320,192,4900,128,0,5094:0:0:0:70:C7_s.wav
448,192,5094,128,0,5289:0:0:0:70:C#7.wav
64,192,5289,1,0,0:0:0:35:A#3_sl.wav
64,192,5874,128,0,6068:0:0:0:70:C#7_s.wav
320,192,6068,128,0,6263:0:0:0:70:C7_s.wav
448,192,6263,128,0,6458:0:0:0:70:G#6_s.wav
64,192,6458,128,0,6653:0:0:0:70:D#6_s.wav
192,192,6653,128,0,6848:0:0:0:70:C#6_s.wav
64,192,6848,1,0,0:0:0:35:G#3_sl.wav
320,192,6848,128,0,7237:0:0:0:40:G#4_sl.wav
64,192,7432,1,0,0:0:0:70:C#6_s.wav
192,192,7627,1,0,0:0:0:30:C#4_sl.wav
320,192,7627,1,0,0:0:0:70:C#6_s.wav
448,192,7822,1,0,0:0:0:70:A#6_s.wav
192,192,8017,128,0,8211:0:0:0:70:G#6_s.wav
64,192,8211,128,0,8406:0:0:0:70:F#6_s.wav
192,192,8406,1,0,0:0:0:35:F#3_sl.wav
448,192,8406,128,0,8991:0:0:0:40:F#4_sl.wav
192,192,9185,128,0,9965:0:0:0:70:F6_s.wav
320,192,9185,1,0,0:0:0:0:
64,192,9965,128,0,10549:0:0:0:35:F3_sl.wav
448,192,9965,1,0,0:0:0:40:F4_sl.wav
192,192,10549,128,0,10939:0:0:0:30:A#3_sl.wav
320,192,10549,1,0,0:0:0:70:C#6_ssl.wav
448,192,10939,128,0,11133:0:0:0:0:
320,192,11133,128,0,11328:0:0:0:0:
64,192,11328,128,0,11523:0:0:0:0:
192,192,11523,1,0,0:0:0:35:D#3_sl.wav
448,192,11523,128,0,11913:0:0:0:40:D#4_sl.wav
64,192,11913,128,0,12302:0:0:0:70:A#5.wav
320,192,12302,128,0,12692:0:0:0:70:C#6.wav
192,192,12692,128,0,13081:0:0:0:70:D#6.wav
64,192,13081,128,0,13861:0:0:0:35:G#3_sl.wav
448,192,13081,1,0,0:0:0:40:G#4_sl.wav
192,192,13861,128,0,14445:0:0:0:70:C#8_ss.wav
320,192,13861,1,0,0:0:0:0:
64,192,14445,1,0,0:0:0:70:C#6_ssl.wav
448,192,14445,128,0,15419:0:0:0:0:
64,192,15419,128,4,15613:0:0:0:0:
320,192,15419,1,2,0:0:0:0:
192,192,15613,128,0,15808:0:0:0:0:
64,192,15808,1,8,0:0:0:0:
320,192,15808,1,0,0:0:0:45:Hat open.wav
448,192,16003,128,2,16198:0:0:0:0:
64,192,16393,128,2,16587:0:0:0:0:
320,192,16587,128,2,16782:0:0:0:0:
192,192,16782,1,4,0:0:0:0:
448,192,16782,128,8,17172:0:0:0:0:
320,192,16977,1,0,0:0:0:0:
64,192,17172,1,2,0:0:0:0:
192,192,17367,1,8,0:0:0:0:
448,192,17367,1,0,0:0:0:45:Hat open.wav
320,192,17561,128,0,17756:0:0:0:0:
448,192,17756,128,2,17951:0:0:0:0:
192,192,17951,128,2,18146:0:0:0:0:
64,192,18146,128,8,18341:0:0:0:0:
448,192,18146,1,0,0:0:0:45:Hat open.wav
192,192,18341,128,0,18535:0:0:0:0:
64,192,18535,1,2,0:0:0:0:
448,192,18535,128,4,18925:0:0:0:0:
320,192,18730,128,0,18925:0:0:0:0:
64,192,18925,128,8,19120:0:0:0:0:
192,192,18925,1,0,0:0:0:45:Hat open.wav
320,192,19120,128,2,19315:0:0:0:0:
64,192,19509,128,2,19704:0:0:0:0:
192,192,19704,128,0,19899:0:0:0:45:Hat open.wav
320,192,19899,1,8,0:0:0:0:
448,192,19899,128,4,20483:0:0:0:0:
192,192,20094,1,0,0:0:0:0:
64,192,20289,1,2,0:0:0:0:
192,192,20483,1,8,0:0:0:0:
320,192,20483,1,0,0:0:0:45:Hat open.wav
64,192,20678,1,0,0:0:0:0:
192,192,20776,1,0,0:0:0:0:
320,192,20873,1,2,0:0:0:0:
64,192,21068,128,2,21263:0:0:0:0:
320,192,21263,128,8,21457:0:0:0:0:
448,192,21263,1,0,0:0:0:45:Hat open.wav
64,192,21457,1,2,0:0:0:0:
192,192,21555,1,0,0:0:0:0:
320,192,21652,1,8,0:0:0:0:
448,192,21652,1,4,0:0:0:0:
320,192,21847,1,0,0:0:0:0:
448,192,22042,1,2,0:0:0:0:
64,192,22237,1,8,0:0:0:0:
320,192,22237,1,4,0:0:0:0:
448,192,22431,1,0,0:0:0:0:
192,192,22626,1,2,0:0:0:0:
64,192,22821,1,8,0:0:0:0:
448,192,22821,1,4,0:0:0:0:
192,192,23016,1,0,0:0:0:0:
64,192,23211,1,2,0:0:0:0:
192,192,23406,1,8,0:0:0:0:
448,192,23406,1,0,0:0:0:45:Hat open.wav
320,192,23600,1,2,0:0:0:0:
448,192,23795,1,2,0:0:0:0:
64,192,23990,1,8,0:0:0:0:
320,192,23990,1,4,0:0:0:0:
192,192,24185,1,2,0:0:0:0:
64,192,24380,1,2,0:0:0:0:
320,192,24574,1,8,0:0:0:0:
448,192,24574,128,4,25354:0:0:0:0:
64,192,25354,1,8,0:0:0:0:
192,192,25354,1,0,0:0:0:58:Tom2.wav
320,192,25548,1,8,0:0:0:0:
448,192,25548,1,0,0:0:0:58:Tom2.wav
64,192,25743,128,0,25938:0:0:0:70:D#6_s.wav
192,192,25938,128,0,26133:0:0:0:70:C#6_s.wav
448,192,26133,128,0,26328:0:0:0:70:D#6_s.wav
192,192,26328,1,0,0:0:0:70:G#5.wav
320,192,26328,1,0,0:0:0:70:C#6.wav
64,192,26522,1,0,0:0:0:0:
192,192,26717,1,0,0:0:0:0:
320,192,26912,1,0,0:0:0:0:
448,192,26912,1,0,0:0:0:0:
64,192,27107,1,0,0:0:0:0:
192,192,27302,1,0,0:0:0:0:
64,192,27496,1,0,0:0:0:0:
320,192,27496,1,0,0:0:0:0:
448,192,27691,1,0,0:0:0:70:D#6_s.wav
64,192,27886,1,0,0:0:0:70:F6_s.wav
192,192,27886,1,0,0:0:0:70:G#6.wav
320,192,28081,1,0,0:0:0:70:F6_s.wav
448,192,28276,1,0,0:0:0:70:F6.wav
64,192,28470,1,0,0:0:0:0:
192,192,28470,1,0,0:0:0:0:
320,192,28665,1,0,0:0:0:70:F#6_s.wav
448,192,28860,1,0,0:0:0:70:F6.wav
64,192,29055,1,0,0:0:0:0:
320,192,29055,1,0,0:0:0:0:
192,192,29250,1,0,0:0:0:45:C#5_s.wav
320,192,29444,1,0,0:0:0:70:D#5.wav
448,192,29444,1,0,0:0:0:70:G#5.wav
192,192,29639,1,0,0:0:0:0:
64,192,29834,1,0,0:0:0:0:
192,192,30029,1,0,0:0:0:70:A#5.wav
448,192,30029,1,0,0:0:0:0:
64,192,30224,1,0,0:0:0:70:D#6.wav
448,192,30419,1,0,0:0:0:70:G#6.wav
192,192,30613,1,0,0:0:0:70:D#7.wav
320,192,30613,1,0,0:0:0:0:
64,192,30808,1,0,0:0:0:70:G#6.wav
192,192,31003,1,0,0:0:0:50:A#6_s.wav
320,192,31003,1,0,0:0:0:70:G#6_s.wav
448,192,31198,1,0,0:0:0:70:G#6_s.wav
320,192,31393,1,0,0:0:0:50:C#7.wav
64,192,31587,1,0,0:0:0:70:A#6_s.wav
192,192,31587,1,0,0:0:0:0:
448,192,31782,1,0,0:0:0:0:
320,192,31977,1,0,0:0:0:70:G#6_s.wav
192,192,32172,1,0,0:0:0:70:G#6_s.wav
448,192,32172,1,0,0:0:0:0:
64,192,32367,1,0,0:0:0:70:G#6.wav
320,192,32561,1,0,0:0:0:0:
448,192,32561,1,0,0:0:0:0:
64,192,32756,1,0,0:0:0:70:F6_s.wav
192,192,32951,1,0,0:0:0:70:D#6_s.wav
320,192,33146,1,0,0:0:0:70:C#6.wav
448,192,33146,1,0,0:0:0:70:G#6_s.wav
64,192,33341,1,0,0:0:0:70:G#7_s.wav
192,192,33535,1,0,0:0:0:70:G#6_s.wav
64,192,33730,1,0,0:0:0:70:D#7.wav
320,192,33730,1,0,0:0:0:0:
448,192,33925,1,0,0:0:0:0:
64,192,34120,1,0,0:0:0:70:C#6_s.wav
192,192,34120,1,0,0:0:0:70:C#7_s.wav
320,192,34315,1,0,0:0:0:70:D#6_s.wav
448,192,34509,1,0,0:0:0:70:F6_s.wav
64,192,34704,1,0,0:0:0:70:C#6.wav
320,192,34704,1,0,0:0:0:70:G#6_s.wav
448,192,34899,1,0,0:0:0:70:F6_s.wav
192,192,35094,1,0,0:0:0:70:D#6_s.wav
64,192,35289,1,0,0:0:0:70:C#6_s.wav
448,192,35289,1,0,0:0:0:0:
320,192,35483,1,0,0:0:0:70:C#6_s.wav
64,192,35678,1,0,0:0:0:70:F#5.wav
192,192,35678,1,0,0:0:0:70:A#5.wav
320,192,35873,1,0,0:0:0:0:
448,192,36068,1,0,0:0:0:70:A#5_s.wav
64,192,36263,1,0,0:0:0:70:F5_s.wav
192,192,36263,1,0,0:0:0:70:C#6_s.wav
320,192,36457,1,0,0:0:0:70:C#6_s.wav
448,192,36652,1,0,0:0:0:70:F5_s.wav
64,192,36847,128,0,37042:0:0:0:70:A#5_s.wav
192,192,37042,128,0,37237:0:0:0:70:D#6_s.wav
320,192,37237,1,0,0:0:0:40:F#5.wav
448,192,37237,128,0,37626:0:0:0:45:A#5.wav
192,192,37626,1,0,0:0:0:40:F#5.wav
448,192,37821,1,0,0:0:0:0:
320,192,37919,1,0,0:0:0:0:
64,192,38016,1,8,0:0:0:0:
192,192,38016,1,0,0:0:0:70:F6.wav
320,192,38211,1,8,0:0:0:0:
448,192,38211,1,0,0:0:0:0:
64,192,38406,1,8,0:0:0:0:
192,192,38503,1,8,0:0:0:0:
320,192,38600,1,0,0:0:0:48:Tom1.wav
448,192,38795,128,0,39185:0:0:0:0:
64,192,39185,1,8,0:0:0:0:
192,192,39185,1,4,0:0:0:0:
64,192,39574,128,0,39964:0:0:0:0:
192,192,39769,1,0,0:0:0:45:Tom1.wav
320,192,39964,1,0,0:0:0:43:Tom2.wav
448,192,39964,1,0,0:0:0:0:
64,192,40159,1,2,0:0:0:0:
192,192,40159,128,4,40354:0:0:0:0:
320,192,40354,128,0,40548:0:0:0:0:
64,192,40548,1,2,0:0:0:0:
192,192,40743,1,8,0:0:0:0:
448,192,40743,1,0,0:0:0:0:
320,192,40938,1,0,0:0:0:0:
192,192,41133,1,2,0:0:0:0:
64,192,41328,1,2,0:0:0:0:
192,192,41522,1,8,0:0:0:0:
320,192,41522,1,0,0:0:0:0:
64,192,41717,128,0,41912:0:0:0:0:
448,192,41912,1,2,0:0:0:0:
192,192,42107,128,0,42302:0:0:0:0:
64,192,42302,1,8,0:0:0:0:
320,192,42302,128,0,42496:0:0:0:0:
448,192,42496,128,2,42691:0:0:0:0:
192,192,42691,1,0,0:0:0:0:
320,192,42886,1,2,0:0:0:0:
64,192,43081,1,8,0:0:0:0:
448,192,43081,1,0,0:0:0:0:
192,192,43276,1,2,0:0:0:0:
320,192,43276,1,4,0:0:0:0:
448,192,43470,1,0,0:0:0:0:
64,192,43665,1,2,0:0:0:0:
192,192,43860,1,8,0:0:0:0:
320,192,43860,1,0,0:0:0:0:
448,192,44055,1,2,0:0:0:0:
64,192,44250,128,8,44444:0:0:0:0:
320,192,44250,1,0,0:0:0:45:Hat open.wav
192,192,44444,128,2,44639:0:0:0:0:
64,192,44639,1,8,0:0:0:0:
448,192,44639,128,0,45029:0:0:0:45:Hat open.wav
64,192,45029,1,2,0:0:0:0:
320,192,45419,1,8,0:0:0:0:
448,192,45419,1,4,0:0:0:0:
192,192,45808,1,8,0:0:0:0:
64,192,46003,1,2,0:0:0:0:
320,192,46198,1,2,0:0:0:0:
64,192,46393,128,2,46782:0:0:0:0:
448,192,46393,1,4,0:0:0:0:
320,192,46782,128,2,47172:0:0:0:0:
192,192,46977,1,8,0:0:0:0:
64,192,47172,128,0,47367:0:0:0:0:
448,192,47367,128,2,47756:0:0:0:0:
64,192,47561,1,2,0:0:0:0:
320,192,47756,128,8,48146:0:0:0:0:
192,192,47951,1,0,0:0:0:0:
64,192,48146,128,2,48535:0:0:0:0:
448,192,48146,1,4,0:0:0:0:
320,192,48535,1,8,0:0:0:0:
192,192,48730,1,0,0:0:0:0:
448,192,48730,1,0,0:0:0:0:
64,192,48925,1,2,0:0:0:0:
192,192,49120,1,2,0:0:0:0:
320,192,49315,1,8,0:0:0:0:
448,192,49315,1,0,0:0:0:0:
64,192,49509,1,2,0:0:0:0:
448,192,49704,1,0,0:0:0:0:
320,192,49899,1,2,0:0:0:0:
64,192,50094,1,8,0:0:0:0:
448,192,50094,1,0,0:0:0:0:
192,192,50289,1,0,0:0:0:0:
320,192,50483,1,2,0:0:0:0:
64,192,50678,1,2,0:0:0:0:
192,192,50873,1,8,0:0:0:0:
448,192,50873,1,0,0:0:0:0:
320,192,51068,1,0,0:0:0:0:
64,192,51263,1,8,0:0:0:0:
192,192,51263,1,0,0:0:0:45:Hat open.wav
192,192,51652,1,2,0:0:0:0:
320,192,51847,1,8,0:0:0:0:
448,192,51847,1,0,0:0:0:45:Hat open.wav
320,192,52237,1,2,0:0:0:0:
64,192,52431,128,8,52821:0:0:0:0:
192,192,52431,1,0,0:0:0:45:Hat open.wav
448,192,52431,1,0,0:0:0:90:F6.wav
320,192,52821,1,8,0:0:0:0:
448,192,52821,1,0,0:0:0:90:D#6.wav
64,192,53016,1,8,0:0:0:0:
192,192,53016,1,0,0:0:0:0:
320,192,53211,1,8,0:0:0:0:
448,192,53211,1,0,0:0:0:0:
64,192,53600,128,0,53990:0:0:0:80:G#6.wav
448,192,53990,128,0,54380:0:0:0:80:A#6.wav
192,192,54380,1,6,0:0:0:0:
320,192,54380,1,0,0:0:0:80:G#6.wav
64,192,54769,1,8,0:0:0:0:
192,192,54769,1,0,0:0:0:55:Hat open.wav
320,192,54964,1,2,0:0:0:0:
448,192,55159,1,2,0:0:0:0:
192,192,55354,1,0,0:0:0:80:G#6_s.wav
64,192,55548,1,8,0:0:0:0:
320,192,55548,1,0,0:0:0:55:Hat open.wav
192,192,55743,1,2,0:0:0:0:
64,192,55938,1,2,0:0:0:0:
448,192,55938,1,0,0:0:0:55:Hat open.wav
192,192,56328,1,8,0:0:0:0:
320,192,56328,1,0,0:0:0:55:Hat open.wav
448,192,56522,1,2,0:0:0:0:
192,192,56717,128,2,57107:0:0:0:0:
320,192,56717,1,0,0:0:0:55:Hat open.wav
320,192,57107,128,8,57302:0:0:0:0:
448,192,57107,1,0,0:0:0:55:Hat open.wav
64,192,57302,128,2,57496:0:0:0:0:
320,192,57496,1,2,0:0:0:0:
192,192,57691,1,0,0:0:0:0:
64,192,57886,1,8,0:0:0:0:
448,192,57886,1,0,0:0:0:55:Hat open.wav
192,192,58081,1,2,0:0:0:0:
320,192,58276,1,2,0:0:0:0:
64,192,58470,1,0,0:0:0:0:
192,192,58665,1,8,0:0:0:0:
448,192,58665,1,0,0:0:0:55:Hat open.wav
320,192,58860,1,2,0:0:0:0:
64,192,59055,128,6,59444:0:0:0:0:
448,192,59055,1,0,0:0:0:80:A#6_ssl.wav
192,192,59444,1,8,0:0:0:0:
320,192,59444,1,0,0:0:0:55:Hat open.wav
448,192,59639,1,2,0:0:0:0:
64,192,59834,128,2,60029:0:0:0:0:
192,192,60029,128,2,60224:0:0:0:0:
320,192,60224,1,8,0:0:0:0:
448,192,60224,128,0,60419:0:0:0:55:Hat open.wav
64,192,60419,128,2,60613:0:0:0:0:
192,192,60613,1,6,0:0:0:0:
320,192,60808,1,0,0:0:0:0:
192,192,61003,1,8,0:0:0:0:
448,192,61003,1,0,0:0:0:55:Hat open.wav
64,192,61198,1,2,0:0:0:0:
320,192,61393,1,2,0:0:0:0:
192,192,61587,1,0,0:0:0:0:
320,192,61782,1,8,0:0:0:0:
448,192,61782,1,0,0:0:0:55:Hat open.wav
64,192,61977,1,2,0:0:0:0:
192,192,62172,1,6,0:0:0:0:
320,192,62172,128,0,62561:0:0:0:80:C7_ssl.wav
64,192,62367,1,2,0:0:0:0:
192,192,62561,1,8,0:0:0:0:
320,192,62756,1,6,0:0:0:0:
448,192,62756,128,0,63146:0:0:0:80:A#6.wav
64,192,63146,1,2,0:0:0:0:
192,192,63341,1,8,0:0:0:0:
320,192,63341,1,0,0:0:0:55:Hat open.wav
448,192,63535,1,2,0:0:0:0:
64,192,63730,1,6,0:0:0:0:
320,192,63730,1,0,0:0:0:80:C#6.wav
64,192,64120,1,8,0:0:0:0:
448,192,64120,1,0,0:0:0:55:Hat open.wav
320,192,64315,1,2,0:0:0:0:
64,192,64509,1,2,0:0:0:0:
192,192,64509,1,0,0:0:0:55:Hat open.wav
192,192,64899,1,8,0:0:0:0:
448,192,64899,1,0,0:0:0:55:Hat open.wav
64,192,65289,128,6,66068:0:0:0:0:
192,192,65289,1,0,0:0:0:80:F6_ssl.wav
320,192,65483,1,0,0:0:0:0:
448,192,65678,1,8,0:0:0:0:
192,192,65873,1,0,0:0:0:80:F#6_s.wav
320,192,66068,1,2,0:0:0:0:
448,192,66068,1,0,0:0:0:55:Hat open.wav
64,192,66263,1,8,0:0:0:0:
320,192,66457,1,8,0:0:0:0:
448,192,66457,1,0,0:0:0:80:A#6.wav
64,192,66555,1,8,0:0:0:0:
192,192,66652,1,0,0:0:0:45:Tom1.wav
320,192,66750,1,0,0:0:0:43:Tom2.wav
448,192,66847,128,6,67237:0:0:0:0:
64,192,67237,1,8,0:0:0:0:
320,192,67237,1,0,0:0:0:55:Hat open.wav
192,192,67431,1,2,0:0:0:0:
320,192,67626,1,2,0:0:0:0:
448,192,67626,1,0,0:0:0:55:Hat open.wav
192,192,67821,1,0,0:0:0:80:F6_s.wav
64,192,68016,1,8,0:0:0:0:
320,192,68211,128,6,68600:0:0:0:0:
448,192,68211,1,0,0:0:0:80:C7_s.wav
64,192,68600,128,8,68990:0:0:0:0:
192,192,68600,1,0,0:0:0:55:Hat open.wav
320,192,68990,128,8,69380:0:0:0:0:
448,192,68990,1,0,0:0:0:55:Hat open.wav
64,192,69380,1,8,0:0:0:0:
192,192,69380,128,0,69769:0:0:0:55:Hat open.wav
320,192,69574,1,8,0:0:0:0:
64,192,69672,1,8,0:0:0:0:
448,192,69769,128,0,70354:0:0:0:43:Tom1.wav
64,192,69964,1,6,0:0:0:0:
192,192,70159,1,0,0:0:0:0:
64,192,70354,1,8,0:0:0:0:
320,192,70354,1,0,0:0:0:55:Hat open.wav
192,192,70548,1,2,0:0:0:0:
448,192,70743,1,2,0:0:0:0:
320,192,70938,1,0,0:0:0:80:A#6_s.wav
64,192,71133,1,8,0:0:0:0:
192,192,71133,1,0,0:0:0:80:A#6_s.wav
320,192,71328,128,6,71912:0:0:0:0:
448,192,71328,1,0,0:0:0:80:G#6.wav
192,192,71717,1,2,0:0:0:0:
64,192,71912,1,8,0:0:0:0:
448,192,71912,1,0,0:0:0:55:Hat open.wav
320,192,72107,1,2,0:0:0:0:
64,192,72302,1,2,0:0:0:0:
192,192,72496,1,0,0:0:0:80:F6_s.wav
320,192,72691,1,8,0:0:0:0:
448,192,72691,1,0,0:0:0:55:Hat open.wav
64,192,72886,1,0,0:0:0:80:F6.wav
320,192,73081,1,2,0:0:0:0:
448,192,73081,1,4,0:0:0:0:
64,192,73470,1,8,0:0:0:0:
320,192,73470,1,0,0:0:0:55:Hat open.wav
448,192,73665,1,2,0:0:0:0:
320,192,73860,1,2,0:0:0:0:
192,192,74055,1,0,0:0:0:0:
64,192,74250,1,8,0:0:0:0:
448,192,74250,1,0,0:0:0:55:Hat open.wav
192,192,74444,1,0,0:0:0:0:
320,192,74639,1,2,0:0:0:0:
448,192,74639,1,0,0:0:0:55:Hat open.wav
64,192,74834,1,2,0:0:0:0:
192,192,74834,1,0,0:0:0:80:C#6_s.wav
320,192,75029,1,8,0:0:0:0:
448,192,75029,1,0,0:0:0:80:C6_s.wav
64,192,75224,1,6,0:0:0:0:
192,192,75224,1,0,0:0:0:80:C#6.wav
320,192,75613,1,2,0:0:0:0:
64,192,75808,1,8,0:0:0:0:
448,192,75808,1,0,0:0:0:55:Hat open.wav
320,192,76003,1,0,0:0:0:80:D#6_s.wav
64,192,76198,1,6,0:0:0:0:
192,192,76198,1,0,0:0:0:80:F6.wav
320,192,76393,1,0,0:0:0:0:
192,192,76587,1,8,0:0:0:0:
448,192,76587,1,0,0:0:0:55:Hat open.wav
320,192,76782,1,2,0:0:0:0:
64,192,76977,1,0,0:0:0:55:Hat open.wav
320,192,77172,1,2,0:0:0:0:
64,192,77367,1,8,0:0:0:0:
448,192,77367,1,0,0:0:0:55:Hat open.wav
192,192,77561,1,2,0:0:0:0:
64,192,77756,1,8,0:0:0:0:
448,192,77756,128,0,78535:0:0:0:55:Hat open.wav
192,192,77951,1,2,0:0:0:0:
320,192,78146,1,8,0:0:0:0:
192,192,78341,1,2,0:0:0:0:
64,192,78535,128,8,79315:0:0:0:0:
320,192,78535,1,0,0:0:0:55:Hat open.wav
448,192,78730,1,2,0:0:0:0:
192,192,78925,1,8,0:0:0:0:
448,192,79120,128,8,79315:0:0:0:0:
320,192,79509,1,8,0:0:0:0:
448,192,79509,1,0,0:0:0:80:C#6_s.wav
64,192,79704,1,8,0:0:0:0:
192,192,79704,1,0,0:0:0:80:C#6.wav
320,192,79899,1,0,0:0:0:0:
64,192,80094,1,8,0:0:0:0:
192,192,80094,1,0,0:0:0:45:Tom2.wav
320,192,80289,1,8,0:0:0:0:
448,192,80289,1,0,0:0:0:45:Tom2.wav
192,192,80483,1,2,0:0:0:0:
64,192,80678,1,8,0:0:0:0:
320,192,80678,1,4,0:0:0:0:
448,192,80873,128,0,81068:0:0:0:0:
320,192,81068,128,2,81263:0:0:0:0:
64,192,81263,128,8,81457:0:0:0:0:
448,192,81263,1,0,0:0:0:0:
192,192,81457,128,2,81652:0:0:0:0:
320,192,81652,1,8,0:0:0:0:
448,192,81652,128,0,81847:0:0:0:45:Hat open.wav
64,192,81847,128,2,82042:0:0:0:0:
192,192,82042,1,8,0:0:0:0:
320,192,82042,128,0,82237:0:0:0:45:Hat open.wav
448,192,82237,128,0,82431:0:0:0:0:
64,192,82431,1,2,0:0:0:0:
320,192,82626,1,8,0:0:0:0:
448,192,82626,1,4,0:0:0:0:
320,192,82821,1,0,0:0:0:0:
192,192,83016,1,0,0:0:0:0:
64,192,83211,1,8,0:0:0:0:
192,192,83211,1,2,0:0:0:0:
448,192,83406,1,0,0:0:0:0:
320,192,83600,1,0,0:0:0:0:
64,192,83795,128,2,87107:0:0:0:0:
192,192,83795,1,4,0:0:0:0:
192,192,86912,1,8,0:0:0:0:
320,192,86977,1,0,0:0:0:45:Tom1.wav
448,192,87042,1,0,0:0:0:40:Tom2.wav
192,192,87107,1,2,0:0:0:0:
