osu file format v14

[General]
AudioFilename: audio.mp3
AudioLeadIn: 0
PreviewTime: 53406
Countdown: 0
SampleSet: Soft
StackLeniency: 0.6
Mode: 0
LetterboxInBreaks: 0
WidescreenStoryboard: 1

[Editor]
Bookmarks: 15104,26013,38480,54065,66532,79000
DistanceSpacing: 0.9
BeatDivisor: 4
GridSize: 4
TimelineZoom: 1.5

[Metadata]
Title:Zero Centimeters (TV Size)
TitleUnicode:ゼロセンチメートル (TV Size)
Artist:Ohara Yuiko
ArtistUnicode:大原ゆい子
Creator:-Mikan
Version:Normal
Source:からかい上手の高木さん2
Tags:Kanon Matsubara Garden semyon422 _Asha Shinitagari piroshki karakai jouzu no takagi-san 2 skilled teaser anime japanese opening op 2
BeatmapID:2100890
BeatmapSetID:1000722

[Difficulty]
HPDrainRate:4
CircleSize:3.2
OverallDifficulty:5
ApproachRate:6
SliderMultiplier:1.2
SliderTickRate:1

[Events]
//Background and Video events
0,0,"15280438695722.jpg",0,0
Video,-81,"videoplayback.1.mp4"
//Break Periods
//Storyboard Layer 0 (Background)
//Storyboard Layer 1 (Fail)
//Storyboard Layer 2 (Pass)
//Storyboard Layer 3 (Foreground)
//Storyboard Layer 4 (Overlay)
//Storyboard Sound Samples

[TimingPoints]
-944,779.220779220779,4,2,1,50,1,0
614,-50,4,2,20,40,0,0
1198,-50,4,2,1,5,0,0
1393,-50,4,2,21,30,0,0
1978,-50,4,2,1,5,0,0
2075,-50,4,2,22,50,0,0
2172,-50,4,2,22,50,0,0
3146,-50,4,2,23,50,0,0
3341,-50,4,2,24,50,0,0
3536,-50,4,2,25,50,0,0
3731,-50,4,2,26,50,0,0
4120,-50,4,2,27,50,0,0
4510,-50,4,2,28,50,0,0
4900,-50,4,2,29,50,0,0
5289,-50,4,2,30,50,0,0
5874,-50,4,2,31,50,0,0
6068,-50,4,2,29,50,0,0
6263,-50,4,2,23,50,0,0
6458,-50,4,2,32,50,0,0
6653,-50,4,2,33,50,0,0
6848,-50,4,2,21,50,0,0
7432,-50,4,2,33,50,0,0
7627,-50,4,2,41,50,0,0
7822,-50,4,2,34,50,0,0
8017,-50,4,2,23,50,0,0
8211,-50,4,2,25,50,0,0
8406,-50,4,2,22,50,0,0
9185,-50,4,2,35,50,0,0
9965,-50,4,2,30,50,0,0
10549,-50,4,2,40,50,0,0
11523,-50,4,2,36,50,0,0
11913,-50,4,2,37,50,0,0
12302,-50,4,2,36,50,0,0
12692,-50,4,2,38,50,0,0
13081,-50,4,2,35,50,0,0
13861,-50,4,2,39,50,0,0
15419,389.61038961039,4,2,1,70,1,0
19899,-100,4,2,42,70,0,0
20191,-100,4,2,43,70,0,0
20289,-100,4,2,44,70,0,0
20386,-100,4,2,45,70,0,0
20483,-100,4,2,46,70,0,0
20581,-100,4,2,47,70,0,0
20678,-100,4,2,48,70,0,0
20776,-100,4,2,26,70,0,0
20873,-100,4,2,1,70,0,0
24574,-100,4,2,1,70,0,0
25256,-100,4,2,1,5,0,0
25354,-100,4,2,1,70,0,0
26328,-100,4,2,49,50,0,0
27496,-100,4,2,50,50,0,0
27691,-100,4,2,43,50,0,0
27756,-100,4,2,46,50,0,0
27821,-100,4,2,47,50,0,0
27886,-100,4,2,23,50,0,0
28276,-100,4,2,51,50,0,0
28665,-100,4,2,41,50,0,0
28860,-100,4,2,52,50,0,0
29444,-100,4,2,37,50,0,0
30029,-100,4,2,53,50,0,0
30224,-100,4,2,54,50,0,0
30419,-100,4,2,32,50,0,0
30613,-100,4,2,28,50,0,0
31003,-100,4,2,48,50,0,0
31100,-100,4,2,34,50,0,0
31977,-100,4,2,53,50,0,0
32367,-100,4,2,33,50,0,0
32464,-100,4,2,32,50,0,0
32561,-100,4,2,23,50,0,0
33341,-100,4,2,43,50,0,0
33730,-100,4,2,46,50,0,0
34120,-100,4,2,47,50,0,0
34315,-100,4,2,46,50,0,0
34509,-100,4,2,45,50,0,0
34704,-100,4,2,23,50,0,0
34899,-100,4,2,24,50,0,0
35094,-100,4,2,33,50,0,0
35289,-100,4,2,36,50,0,0
35678,-100,4,2,56,50,0,0
36263,-100,4,2,51,50,0,0
36457,-100,4,2,33,50,0,0
36652,-100,4,2,51,50,0,0
36847,-100,4,2,54,50,0,0
37237,-100,4,2,57,50,0,0
37626,-100,4,2,55,50,0,0
38016,-100,4,2,1,65,0,0
38795,-100,4,2,1,40,0,0
39185,-100,4,2,1,60,0,0
45029,-100,4,2,1,40,0,0
45419,-100,4,2,1,60,0,0
50873,-100,4,2,1,70,0,0
52821,-100,4,2,1,90,0,0
54380,-100,4,2,1,80,0,1
76490,-100,4,2,44,80,0,1
76587,-100,4,2,45,80,0,1
76685,-100,4,2,46,80,0,1
76782,-100,4,2,47,80,0,1
76880,-100,4,2,48,80,0,1
76977,-100,4,2,34,80,0,1
77074,-100,4,2,36,80,0,1
77367,-100,4,2,1,80,0,1
79120,-100,4,2,1,80,0,0

[Colours]
Combo1 : 255,255,174
Combo2 : 132,193,255
Combo3 : 253,228,142
Combo4 : 160,230,235

[HitObjects]
367,82,614,6,0,P|461:36|483:139,1,240,2|2,0:0|0:0,0:0:0:0:
353,311,2172,6,0,P|260:303|214:304,1,120,2|0,0:0|0:0,0:0:0:0:
180,316,2757,1,0,0:0:0:0:
180,316,2952,1,0,0:0:0:0:
85,367,3341,1,2,0:0:0:0:
20,280,3731,6,0,B|41:208|-5:231|15:151,2,120,2|2|2,0:0|0:0|0:0,0:0:0:0:
118,235,4900,2,0,P|172:225|199:227,1,60,2|0,0:0|0:0,0:0:0:0:
228,240,5289,2,0,P|218:168|213:92,1,120,2|0,0:0|0:0,0:0:0:0:
264,25,6068,1,2,0:0:0:0:
338,103,6458,1,2,0:0:0:0:
434,55,6848,6,0,B|483:37|483:37|548:94|482:201,1,180,2|2,0:0|0:0,0:0:0:0:
487,204,7627,2,0,P|419:196|361:196,1,120,2|2,0:0|0:0,0:0:0:0:
284,264,8406,2,0,P|251:341|109:278,1,240,2|2,0:0|0:0,0:0:0:0:
171,219,9575,1,0,0:0:0:0:
73,172,9965,2,0,P|72:84|69:40,1,120,2|0,0:0|0:0,0:0:0:0:
106,12,10549,2,0,B|219:0|167:67|301:58,1,180,2|0,0:0|0:0,0:0:0:0:
375,21,11523,5,2,0:0:0:0:
453,95,11913,2,0,P|437:146|436:169,1,60,2|0,0:0|0:0,0:0:0:0:
471,192,12302,2,0,P|389:178|331:180,1,120,2|2,0:0|0:0,0:0:0:0:
246,198,13081,2,0,B|243:273|288:243|272:347,1,120,2|0,0:0|0:0,0:0:0:0:
314,349,13666,1,0,0:0:0:0:
314,349,13861,2,0,P|410:338|414:261,1,180,2|0,0:0|0:0,0:0:0:0:
208,99,15419,6,0,P|173:97|129:89,1,60,4|0,3:1|0:0,0:0:0:0:
102,64,15808,1,8,0:0:0:0:
102,64,16003,2,0,P|123:120|127:188,1,120,2|0,3:2|0:0,0:0:0:0:
78,275,16782,2,0,B|145:267|123:313|193:306,1,120,4|0,1:2|0:0,0:0:0:0:
236,280,17367,1,8,0:0:0:0:
236,280,17561,1,2,0:0:0:0:
338,315,17951,5,2,3:2:0:0:
338,315,18146,2,0,P|395:308|426:309,1,60,8|0,0:0|0:0,0:0:0:0:
449,321,18535,2,0,P|441:248|436:184,1,120,4|10,3:2|0:0,0:0:0:0:
447,148,19120,1,2,3:2:0:0:
339,143,19509,2,0,P|343:89|341:67,1,60,2|10,3:2|0:0,0:0:0:0:
311,38,19899,2,0,B|204:18|260:96|116:69,1,180,2|10,1:2|0:0,0:0:0:0:
33,64,20873,6,0,P|46:130|47:146,1,60,2|2,3:2|3:2,0:0:0:0:
80,163,21263,2,0,P|75:213|74:240,1,60,10|2,0:0|3:2,0:0:0:0:
47,269,21652,1,4,1:2:0:0:
138,326,22042,1,0,3:0:0:0:
138,326,22237,1,4,1:2:0:0:
228,267,22626,1,0,3:0:0:0:
228,267,22821,6,0,P|218:199|218:138,1,120,4|0,1:2|3:0,0:0:0:0:
236,97,23406,1,8,0:0:0:0:
236,97,23600,2,0,P|283:104|307:102,1,60,2|2,3:2|3:2,0:0:0:0:
346,85,23990,1,0,1:0:0:0:
439,31,24380,1,2,3:2:0:0:
439,31,24574,2,0,P|432:102|423:229,1,180,4|0,1:0|0:0,0:0:0:0:
445,260,25354,5,2,1:2:0:0:
445,260,25548,1,2,1:2:0:0:
245,342,26328,6,0,P|206:320|127:319,1,120,2|0,0:0|0:0,0:0:0:0:
87,347,26912,1,0,0:0:0:0:
22,198,27496,2,0,P|11:145|3:127,1,60,2|2,0:0|0:0,0:0:0:0:
12,85,27886,2,0,P|47:52|125:80,1,120,2|2,0:0|0:0,0:0:0:0:
185,144,28665,1,2,0:0:0:0:
185,144,28860,1,2,0:0:0:0:
263,69,29250,5,0,0:0:0:0:
263,69,29444,2,0,P|342:49|398:44,1,120,2|0,0:0|0:0,0:0:0:0:
465,111,30224,2,0,P|496:123|529:112,2,60,2|2|2,0:0|0:0|0:0,0:0:0:0:
384,183,31003,2,0,P|407:230|410:262,1,60,2|2,0:0|0:0,0:0:0:0:
384,285,31393,1,0,0:0:0:0:
384,285,31587,2,0,P|299:276|252:275,1,120,0|2,0:0|0:0,0:0:0:0:
215,298,32172,1,2,0:0:0:0:
122,353,32561,6,0,P|84:344|55:270,1,120,2|0,0:0|0:0,0:0:0:0:
83,229,33146,1,2,0:0:0:0:
83,229,33341,1,2,0:0:0:0:
20,140,33730,1,2,0:0:0:0:
93,60,34120,2,0,P|142:69|158:71,1,60,2|2,0:0|0:0,0:0:0:0:
188,110,34509,1,2,0:0:0:0:
188,110,34704,2,0,B|301:88|237:160|386:123,1,180,2|2,0:0|0:0,0:0:0:0:
469,124,35678,6,0,P|410:157|417:226,1,120,2|0,0:0|0:0,0:0:0:0:
441,244,36263,1,2,0:0:0:0:
441,244,36457,1,2,0:0:0:0:
380,333,36847,2,0,P|332:323|322:323,1,60,2|0,0:0|0:0,0:0:0:0:
270,343,37237,2,0,P|240:369|156:346,1,120,2|2,0:0|0:0,0:0:0:0:
82,287,38016,2,0,P|18:299|8:303,2,60,10|8|8,3:0|3:0|3:0,0:0:0:0:
172,90,39185,6,0,B|239:84|222:128|289:124,1,120,4|2,1:2|0:0,0:0:0:0:
332,102,39769,2,0,P|322:165|322:177,1,60,8|2,3:0|0:0,0:0:0:0:
357,201,40159,2,0,P|417:198|422:305,1,180,4|8,3:2|0:0,0:0:0:0:
343,358,41133,2,0,P|297:346|279:344,1,60,2|0,3:2|3:0,0:0:0:0:
231,351,41522,1,8,0:0:0:0:
123,339,41912,6,0,P|130:288|69:232,1,120,2|10,3:2|0:0,0:0:0:0:
35,247,42496,1,2,3:2:0:0:
35,247,42691,2,0,P|35:197|33:128,1,120,2|10,0:0|0:0,0:0:0:0:
68,85,43276,2,0,B|178:63|123:145|251:125,1,180,4|8,3:2|0:0,0:0:0:0:
314,54,44250,1,10,0:0:0:0:
216,6,44639,1,10,0:0:0:0:
39,131,45419,6,0,P|53:195|60:267,1,120,4|8,1:2|0:0,0:0:0:0:
46,301,46003,2,0,P|93:284|121:297,1,60,0|2,3:0|0:0,0:0:0:0:
146,314,46393,2,0,P|168:359|285:338,1,180,4|8,3:2|0:0,0:0:0:0:
378,301,47367,2,0,P|369:248|369:223,1,60,2|0,3:2|3:0,0:0:0:0:
382,189,47756,1,10,0:0:0:0:
274,198,48146,6,0,B|200:189|225:231|135:217,1,120,4|10,3:2|0:0,0:0:0:0:
62,168,48925,2,0,P|82:112|87:94,1,60,0|0,3:2|3:0,0:0:0:0:
62,61,49315,1,8,0:0:0:0:
62,61,49509,2,0,B|136:52|111:94|201:80,1,120,6|0,3:2|3:0,0:0:0:0:
218,47,50094,1,8,0:0:0:0:
325,40,50483,6,0,P|319:95|318:167,1,120,0|10,3:0|0:0,0:0:0:0:
352,200,51068,1,0,0:0:0:0:
352,200,51263,1,4,1:2:0:0:
441,260,51652,1,0,3:0:0:0:
441,260,51847,2,0,P|430:304|355:332,1,120,2|0,1:2|3:0,0:0:0:0:
317,311,52431,1,2,1:2:0:0:
210,329,52821,2,0,P|209:279|205:257,2,60,0|0|0,1:0|1:0|1:0,0:0:0:0:
50,46,54380,6,0,P|106:34|144:104,1,120,4|8,1:2|0:0,0:0:0:0:
124,126,54964,1,2,3:2:0:0:
124,126,55159,1,2,3:2:0:0:
38,192,55548,2,0,P|62:241|68:268,1,60,8|2,0:0|3:2,0:0:0:0:
60,300,55938,2,0,B|108:291|108:291|138:310|138:310|181:304,1,120,2|10,3:2|0:0,0:0:0:0:
263,245,56717,2,0,P|344:250|359:298,1,120,2|10,3:2|0:0,0:0:0:0:
344,329,57302,1,2,3:2:0:0:
344,329,57496,2,0,P|412:330|471:342,1,120,2|8,3:2|0:0,0:0:0:0:
499,237,58276,6,0,P|493:186|491:164,1,60,2|2,3:2|0:0,0:0:0:0:
441,156,58665,2,0,P|437:126|434:96,1,60,10|2,0:0|3:2,0:0:0:0:
472,57,59055,2,0,P|437:18|361:38,1,120,4|8,3:2|0:0,0:0:0:0:
336,64,59639,1,2,3:2:0:0:
336,64,59834,1,2,3:2:0:0:
238,111,60224,2,0,P|171:105|158:105,1,60,10|2,0:0|3:2,0:0:0:0:
138,68,60613,2,0,P|93:50|36:115,1,120,4|8,3:2|0:0,0:0:0:0:
71,192,61393,2,0,P|80:254|83:327,1,120,2|8,3:2|0:0,0:0:0:0:
120,350,61977,1,0,0:0:0:0:
120,350,62172,6,0,B|186:331|182:377|259:357,1,120,4|2,1:2|3:2,0:0:0:0:
281,330,62756,1,4,3:2:0:0:
386,353,63146,1,2,3:2:0:0:
386,353,63341,2,0,P|392:307|396:290,1,60,10|2,0:0|3:2,0:0:0:0:
430,252,63730,2,0,P|393:194|342:208,1,120,4|10,3:2|0:0,0:0:0:0:
245,173,64509,6,0,P|202:197|135:145,1,120,2|10,3:2|0:0,0:0:0:0:
124,116,65094,1,2,0:0:0:0:
124,116,65289,1,4,3:2:0:0:
200,39,65678,1,10,0:0:0:0:
290,97,66068,6,0,P|336:86|355:83,1,60,4|8,3:2|0:0,0:0:0:0:
390,50,66457,2,0,P|423:44|455:38,1,60,2|2,3:2|3:2,0:0:0:0:
497,62,66847,2,0,P|486:113|478:183,1,120,4|10,3:2|0:0,0:0:0:0:
481,234,67431,1,2,3:2:0:0:
481,234,67626,1,0,3:0:0:0:
501,340,68016,5,8,0:0:0:0:
501,340,68211,2,0,P|442:323|383:341,1,120,4|4,1:2|1:2,0:0:0:0:
281,314,68990,2,0,P|204:341|154:323,1,120,4|4,1:2|1:2,0:0:0:0:
61,331,69769,5,8,3:0:0:0:
61,331,69964,2,0,P|66:275|66:197,1,120,4|10,1:2|0:0,0:0:0:0:
26,110,70743,2,0,P|64:87|87:91,1,60,2|2,3:2|0:0,0:0:0:0:
117,125,71133,1,10,0:0:0:0:
117,125,71328,2,0,P|205:114|246:113,1,120,4|0,3:2|3:0,0:0:0:0:
285,135,71912,1,10,0:0:0:0:
378,188,72302,2,0,P|400:155|409:132,1,60,2|2,3:2|0:0,0:0:0:0:
388,85,72691,1,10,0:0:0:0:
309,10,73081,6,0,B|242:8|257:44|194:45,1,120,4|10,3:2|0:0,0:0:0:0:
146,25,73665,1,0,3:0:0:0:
146,25,73860,1,2,3:2:0:0:
51,78,74250,1,8,0:0:0:0:
123,158,74639,2,0,P|156:156|192:151,2,60,2|2|10,3:2|3:2|0:2,0:0:0:0:
86,198,75224,2,0,P|44:232|72:305,1,120,4|0,3:2|3:0,0:0:0:0:
95,325,75808,1,10,0:0:0:0:
200,350,76198,6,0,P|272:334|329:333,1,120,4|10,3:2|0:0,0:0:0:0:
367,353,76782,1,2,3:2:0:0:
367,353,76977,1,2,3:2:0:0:
463,305,77367,2,0,P|453:257|450:238,1,60,10|2,0:0|3:2,0:0:0:0:
472,196,77756,2,0,P|400:180|343:179,1,120,4|4,1:2|1:2,0:0:0:0:
258,229,78535,2,0,P|191:221|172:160,1,120,4|0,1:2|1:0,0:0:0:0:
192,129,79120,1,0,1:0:0:0:
256,42,79509,5,4,1:2:0:0:
256,42,79704,1,4,3:2:0:0:
154,6,80094,1,4,1:2:0:0:
154,6,80289,1,4,3:2:0:0:
56,51,80678,6,0,P|63:106|67:180,1,120,4|0,1:2|3:0,0:0:0:0:
47,221,81263,1,0,1:2:0:0:
65,327,81652,2,0,P|118:322|133:306,1,60,0|2,1:2|3:2,0:0:0:0:
147,271,82042,2,0,P|187:247|256:281,1,120,0|0,1:2|3:0,0:0:0:0:
266,324,82626,5,4,1:2:0:0:
365,366,83016,1,2,0:0:0:0:
365,366,83211,1,4,1:2:0:0:
457,311,83600,1,2,0:0:0:0:
457,311,83795,1,14,0:1:0:0:
256,192,83990,12,4,86912,3:0:0:0:
