osu file format v14

[General]
AudioFilename: audio.mp3
AudioLeadIn: 0
PreviewTime: 53406
Countdown: 0
SampleSet: Soft
StackLeniency: 0.7
Mode: 0
LetterboxInBreaks: 0
WidescreenStoryboard: 0

[Editor]
DistanceSpacing: 0.9
BeatDivisor: 4
GridSize: 4
TimelineZoom: 2.4

[Metadata]
Title:Zero Centimeters (TV Size)
TitleUnicode:ゼロセンチメートル (TV Size)
Artist:Ohara Yuiko
ArtistUnicode:大原ゆい子
Creator:-Mikan
Version:Garden's Insane
Source:からかい上手の高木さん2
Tags:Kanon Matsubara Garden semyon422 _Asha Shinitagari piroshki karakai jouzu no takagi-san 2 skilled teaser anime japanese opening op 2
BeatmapID:2097276
BeatmapSetID:1000722

[Difficulty]
HPDrainRate:5
CircleSize:4
OverallDifficulty:7.6
ApproachRate:8.5
SliderMultiplier:1.6
SliderTickRate:1

[Events]
//Background and Video events
0,0,"15280438695722.jpg",0,0
Video,-81,"videoplayback.1.mp4"
//Break Periods
//Storyboard Layer 0 (Background)
//Storyboard Layer 1 (Fail)
//Storyboard Layer 2 (Pass)
//Storyboard Layer 3 (Foreground)
//Storyboard Layer 4 (Overlay)
//Storyboard Sound Samples

[TimingPoints]
-944,779.220779220779,4,2,1,50,1,0
614,-100,4,2,20,40,0,0
1198,-100,4,2,1,5,0,0
1393,-100,4,2,21,30,0,0
1978,-100,4,2,1,5,0,0
2075,-66.6666666666667,4,2,22,50,0,0
3146,-66.6666666666667,4,2,23,50,0,0
3341,-66.6666666666667,4,2,24,50,0,0
3536,-66.6666666666667,4,2,25,50,0,0
3731,-66.6666666666667,4,2,26,50,0,0
4120,-66.6666666666667,4,2,27,50,0,0
4510,-66.6666666666667,4,2,28,50,0,0
4900,-66.6666666666667,4,2,29,50,0,0
5289,-66.6666666666667,4,2,30,50,0,0
5874,-66.6666666666667,4,2,31,50,0,0
6068,-66.6666666666667,4,2,29,50,0,0
6263,-66.6666666666667,4,2,23,50,0,0
6458,-66.6666666666667,4,2,32,50,0,0
6653,-66.6666666666667,4,2,33,50,0,0
6848,-100,4,2,21,50,0,0
7432,-100,4,2,33,50,0,0
7627,-66.6666666666667,4,2,41,50,0,0
7822,-66.6666666666667,4,2,34,50,0,0
8017,-66.6666666666667,4,2,23,50,0,0
8211,-66.6666666666667,4,2,25,50,0,0
8406,-66.6666666666667,4,2,22,50,0,0
9185,-100,4,2,35,50,0,0
9965,-66.6666666666667,4,2,29,50,0,0
10549,-66.6666666666667,4,2,40,50,0,0
11523,-100,4,2,36,50,0,0
11913,-100,4,2,37,50,0,0
12302,-100,4,2,36,50,0,0
12692,-100,4,2,38,50,0,0
13081,-100,4,2,35,50,0,0
13861,-100,4,2,39,50,0,0
15419,389.61038961039,4,2,1,70,1,0
16782,-100,4,2,1,70,0,0
17172,-100,4,2,1,70,0,0
19899,-100,4,2,42,70,0,0
20191,-100,4,2,43,70,0,0
20289,-100,4,2,44,70,0,0
20386,-100,4,2,45,70,0,0
20483,-100,4,2,46,70,0,0
20581,-100,4,2,47,70,0,0
20678,-100,4,2,48,70,0,0
20776,-100,4,2,26,70,0,0
20873,-100,4,2,1,70,0,0
24574,-133.333333333333,4,2,1,70,0,0
25256,-100,4,2,1,5,0,0
25354,-100,4,2,1,70,0,0
26328,-100,4,2,49,50,0,0
27496,-100,4,2,50,50,0,0
27691,-100,4,2,43,50,0,0
27756,-100,4,2,46,50,0,0
27821,-100,4,2,47,50,0,0
27886,-100,4,2,23,50,0,0
28276,-100,4,2,51,50,0,0
28665,-100,4,2,41,50,0,0
28860,-100,4,2,52,50,0,0
29444,-100,4,2,37,50,0,0
30029,-100,4,2,53,50,0,0
30224,-100,4,2,54,50,0,0
30419,-100,4,2,32,50,0,0
30613,-100,4,2,28,50,0,0
31003,-100,4,2,48,50,0,0
31100,-100,4,2,34,50,0,0
31977,-100,4,2,53,50,0,0
32367,-100,4,2,33,50,0,0
32464,-100,4,2,32,50,0,0
32561,-100,4,2,23,50,0,0
33341,-100,4,2,43,50,0,0
33730,-100,4,2,46,50,0,0
34120,-100,4,2,47,50,0,0
34315,-100,4,2,46,50,0,0
34509,-100,4,2,45,50,0,0
34704,-100,4,2,23,50,0,0
34899,-100,4,2,24,50,0,0
35094,-100,4,2,32,50,0,0
35289,-100,4,2,36,50,0,0
35483,-100,4,2,50,50,0,0
35678,-100,4,2,56,50,0,0
36263,-100,4,2,51,50,0,0
36457,-100,4,2,33,50,0,0
36652,-100,4,2,51,50,0,0
36847,-100,4,2,54,50,0,0
37237,-100,4,2,57,50,0,0
37626,-100,4,2,55,50,0,0
38016,-100,4,2,1,65,0,0
38795,-100,4,2,1,50,0,0
39185,-100,4,2,1,60,0,0
45029,-100,4,2,1,40,0,0
45419,-100,4,2,1,60,0,0
50873,-100,4,2,1,70,0,0
52431,-100,4,2,1,70,0,0
52821,-100,4,2,1,90,0,0
54380,-100,4,2,1,80,0,1
79120,-100,4,2,1,80,0,0

[Colours]
Combo1 : 255,255,174
Combo2 : 132,193,255
Combo3 : 253,228,142
Combo4 : 160,230,235

[HitObjects]
506,252,614,6,0,P|464:210|382:231,1,120,2|0,0:0|0:0,0:0:0:0:
377,202,1393,2,0,P|388:265|396:324,1,120,2|0,0:0|0:0,0:0:0:0:
321,374,2172,5,2,0:0:0:0:
227,350,2562,1,0,0:0:0:0:
134,325,2952,1,0,0:0:0:0:
134,325,3146,2,0,L|140:263,1,60.0000022888184,2|2,0:0|0:0,0:0:0:0:
193,192,3536,1,2,0:0:0:0:
55,171,3731,6,0,P|90:164|118:147,1,60.0000022888184,2|0,0:0|0:0,0:0:0:0:
237,278,4120,2,0,P|272:285|300:302,1,60.0000022888184,2|0,0:0|0:0,0:0:0:0:
376,104,4510,2,0,P|435:101|482:56,1,120.000004577637,2|2,0:0|0:0,0:0:0:0:
478,62,5094,1,0,0:0:0:0:
399,18,5289,6,0,P|410:76|419:136,1,120.000004577637,2|0,0:0|0:0,0:0:0:0:
512,231,5874,1,2,0:0:0:0:
512,231,6068,2,0,P|482:226|452:222,1,60.0000022888184,2|2,0:0|0:0,0:0:0:0:
222,293,6458,2,0,P|251:297|281:301,1,60.0000022888184,2|2,0:0|0:0,0:0:0:0:
388,376,6848,6,0,P|380:316|370:257,1,120,2|2,0:0|0:0,0:0:0:0:
281,301,7627,1,2,0:0:0:0:
419,172,7822,2,0,P|389:167|359:163,1,60.0000022888184,2|2,0:0|0:0,0:0:0:0:
313,66,8211,1,2,0:0:0:0:
313,66,8406,6,0,P|357:105|354:174,1,120.000004577637,2|0,0:0|0:0,0:0:0:0:
224,323,9185,2,0,P|198:293|195:239,1,80,2|0,0:0|0:0,0:0:0:0:
274,149,9965,6,0,P|217:160|147:171,1,120.000004577637,2|0,0:0|0:0,0:0:0:0:
40,253,10549,2,0,P|48:193|63:135,1,120.000004577637,2|0,0:0|0:0,0:0:0:0:
132,14,11133,2,0,P|138:43|143:72,1,60.0000022888184,0|0,0:0|0:0,0:0:0:0:
296,120,11523,5,2,0:0:0:0:
274,90,11913,1,2,0:0:0:0:
240,102,12302,1,2,0:0:0:0:
240,138,12692,1,2,0:0:0:0:
274,149,13081,6,0,P|323:141|389:134,1,80,2|0,0:0|0:0,0:0:0:0:
353,137,13861,2,0,P|357:180|363:216,1,80,2|0,0:0|0:0,0:0:0:0:
415,300,14445,2,0,P|364:252|271:266,1,160,0|0,0:0|0:0,0:0:0:0:
274,293,15322,1,0,0:0:0:0:
274,293,15419,6,0,P|232:285|107:278,1,160,4|8,3:1|0:0,0:0:0:0:
153,98,16003,2,0,P|162:148|170:187,1,80,2|0,3:2|0:0,0:0:0:0:
21,341,16393,2,0,P|12:291|4:252,1,80,2|2,3:2|3:2,0:0:0:0:
245,322,16782,6,0,P|207:274|109:282,1,160,4|0,1:2|3:0,0:0:0:0:
270,202,17367,1,8,0:0:0:0:
270,202,17561,2,0,P|314:192|356:187,1,80,2|0,0:0|3:0,0:0:0:0:
331,94,17951,1,2,3:2:0:0:
421,263,18146,2,0,P|449:222|449:184,1,80,8|2,0:0|3:2,0:0:0:0:
245,322,18535,5,4,3:2:0:0:
245,322,18925,1,10,0:0:0:0:
154,275,19120,2,0,P|150:317|144:364,1,80,2|0,3:2|0:0,0:0:0:0:
219,201,19509,1,2,3:2:0:0:
54,272,19704,1,10,0:0:0:0:
245,322,19899,6,0,B|329:337|314:264|395:282,1,160,2|2,1:2|3:2,0:0:0:0:
390,384,20483,1,10,0:0:0:0:
490,237,20678,1,2,0:0:0:0:
490,237,20776,1,2,0:0:0:0:
490,237,20873,2,0,L|498:293,2,40,2|10|2,3:2|0:0|3:2,0:0:0:0:
392,281,21263,1,10,0:0:0:0:
476,142,21457,1,2,3:2:0:0:
476,142,21555,1,2,0:0:0:0:
476,142,21652,5,4,1:2:0:0:
392,281,21847,2,0,P|388:243|385:198,1,80,2|0,0:0|3:0,0:0:0:0:
216,240,22237,5,4,1:2:0:0:
286,87,22431,2,0,P|291:130|294:177,1,80,2|0,0:0|3:0,0:0:0:0:
112,206,22821,5,4,1:2:0:0:
222,319,23016,2,0,P|216:279|215:239,1,80,0|0,0:0|3:0,0:0:0:0:
10,177,23406,5,8,0:0:0:0:
132,298,23600,1,2,3:2:0:0:
132,298,23698,1,0,3:0:0:0:
132,298,23795,1,2,3:2:0:0:
0,384,23990,5,0,1:0:0:0:
222,319,24185,1,2,3:2:0:0:
100,205,24380,1,2,3:2:0:0:
100,205,24477,1,0,3:0:0:0:
100,205,24574,6,0,P|112:284|121:396,1,180.000006866455,4|0,1:0|0:0,0:0:0:0:
3,267,25354,1,2,1:2:0:0:
221,319,25548,1,2,1:2:0:0:
221,319,26328,6,0,P|305:304|390:294,1,160,2|0,0:0|0:0,0:0:0:0:
512,136,26912,2,0,P|460:192|384:180,1,160,0|0,0:0|0:0,0:0:0:0:
276,209,27496,2,0,P|285:166|293:119,1,80,2|2,0:0|0:0,0:0:0:0:
291,130,27756,2,0,L|266:137,2,26.6666666666667,2|2|2,0:0|0:0|0:0,0:0:0:0:
371,5,28081,5,0,0:0:0:0:
371,5,28276,2,0,P|379:53|389:99,1,80,2|2,0:0|0:0,0:0:0:0:
264,39,28665,1,2,0:0:0:0:
264,39,28860,2,0,P|200:51|86:62,1,160,2|0,0:0|0:0,0:0:0:0:
0,206,29444,6,0,P|72:153|144:172,1,160,2|0,0:0|0:0,0:0:0:0:
239,145,30029,2,0,P|231:195|227:237,1,80,2|2,0:0|0:0,0:0:0:0:
74,332,30419,1,2,0:0:0:0:
74,332,30613,2,0,P|81:291|89:232,1,80,2|0,0:0|0:0,0:0:0:0:
225,316,31003,6,0,L|173:324,2,40,2|2|2,0:0|0:0|0:0,0:0:0:0:
322,355,31393,1,0,0:0:0:0:
322,355,31587,2,0,P|423:345|452:293,1,160,0|2,0:0|0:0,0:0:0:0:
302,258,32172,1,2,0:0:0:0:
302,258,32367,6,0,P|223:271|143:280,1,160,2|2,0:0|0:0,0:0:0:0:
36,384,32951,2,0,P|77:379|130:373,1,80,0|2,0:0|0:0,0:0:0:0:
59,231,33341,1,2,0:0:0:0:
322,355,33730,1,2,0:0:0:0:
322,355,34120,6,0,P|305:328|304:272,1,80,2|2,0:0|0:0,0:0:0:0:
436,87,34509,2,0,P|455:121|456:161,1,80,2|2,0:0|0:0,0:0:0:0:
381,226,34899,1,2,0:0:0:0:
381,226,35094,1,2,0:0:0:0:
233,171,35289,2,0,P|276:161|332:156,1,80,2|2,0:0|0:0,0:0:0:0:
442,292,35678,6,0,P|374:254|301:279,1,160,2|0,0:0|0:0,0:0:0:0:
208,350,36263,1,2,0:0:0:0:
208,350,36457,2,0,P|201:307|191:254,1,80,2|2,0:0|0:0,0:0:0:0:
233,171,36847,1,2,0:0:0:0:
233,171,37042,1,0,0:0:0:0:
58,120,37237,6,0,P|72:206|86:282,2,160,2|2|10,0:0|0:0|3:0,0:0:0:0:
0,39,38211,1,8,3:0:0:0:
164,155,38406,1,8,3:0:0:0:
164,155,38503,1,8,3:0:0:0:
164,155,38600,1,4,3:0:0:0:
339,71,38795,6,0,L|258:57,1,80,2|0,0:0|0:0,0:0:0:0:
260,57,39185,6,0,P|331:8|415:34,1,160,4|2,1:2|0:0,0:0:0:0:
280,159,39769,2,0,P|239:150|193:144,1,80,8|2,3:0|0:0,0:0:0:0:
383,122,40159,6,0,P|368:200|355:279,1,160,4|2,3:2|3:2,0:0:0:0:
512,384,40743,2,0,P|509:339|484:300,1,80,8|2,0:0|0:0,0:0:0:0:
469,289,41035,1,2,0:0:0:0:
469,289,41133,1,2,3:2:0:0:
331,384,41328,1,0,3:0:0:0:
331,384,41522,2,0,L|420:371,1,80,8|2,0:0|0:0,0:0:0:0:
179,220,41912,5,2,3:2:0:0:
348,268,42107,1,0,0:0:0:0:
230,384,42302,2,0,P|236:345|247:289,1,80,10|2,0:0|3:2,0:0:0:0:
267,166,42691,1,2,0:0:0:0:
83,225,42886,1,0,3:0:0:0:
267,166,43081,1,10,0:0:0:0:
83,225,43276,6,0,P|77:186|66:146,1,80,4|0,3:2|0:0,0:0:0:0:
148,21,43665,1,2,3:2:0:0:
148,21,43860,2,0,P|155:69|163:106,1,80,8|0,0:0|3:0,0:0:0:0:
17,261,44250,2,0,P|44:232|82:224,1,80,10|2,0:0|3:2,0:0:0:0:
263,43,44639,2,0,P|323:90|425:80,1,160,10|2,0:0|3:2,0:0:0:0:
383,273,45321,5,2,0:0:0:0:
383,273,45419,2,0,P|364:244|363:185,1,80,4|0,1:2|0:0,0:0:0:0:
472,208,45808,1,8,0:0:0:0:
365,384,46003,2,0,P|410:372|463:364,1,80,0|2,3:0|0:0,0:0:0:0:
283,310,46393,6,0,P|236:268|132:290,1,160,4|2,3:2|3:2,0:0:0:0:
142,166,46977,1,8,0:0:0:0:
36,318,47172,1,2,0:0:0:0:
36,318,47269,1,2,3:2:0:0:
36,318,47367,2,0,P|39:270|49:208,1,80,2|0,3:2|3:0,0:0:0:0:
229,97,47756,1,10,0:0:0:0:
229,97,48146,6,0,P|172:148|77:131,1,160,4|10,3:2|0:0,0:0:0:0:
93,141,48730,1,2,0:0:0:0:
58,31,48925,2,0,P|98:42|146:52,1,80,0|0,3:2|3:0,0:0:0:0:
340,92,49315,1,8,0:0:0:0:
232,0,49509,6,0,P|241:79|249:159,1,160,6|0,3:2|3:0,0:0:0:0:
431,228,50094,1,8,0:0:0:0:
340,92,50289,1,2,0:2:0:0:
431,228,50483,2,0,P|392:203|331:206,1,80,0|2,3:0|0:2,0:0:0:0:
210,258,50873,2,0,P|202:297|196:336,1,80,10|0,0:0|0:0,0:0:0:0:
116,210,51263,6,0,P|187:216|255:135,1,160,4|0,1:2|3:0,0:0:0:0:
392,13,51847,2,0,P|317:28|226:54,1,160,2|0,1:2|3:0,0:0:0:0:
359,199,52431,2,0,P|361:159|366:105,1,80,2|0,1:2|0:0,0:0:0:0:
279,272,52821,5,0,1:0:0:0:
475,169,53016,1,0,1:0:0:0:
236,50,53211,1,0,1:0:0:0:
334,355,54380,6,0,P|288:304|178:318,1,160,4|8,1:2|0:0,0:0:0:0:
11,350,54964,1,2,3:2:0:0:
11,350,55061,1,2,0:0:0:0:
11,350,55159,1,2,3:2:0:0:
172,214,55354,1,2,0:0:0:0:
110,373,55548,2,0,P|105:329|96:274,1,80,8|2,0:0|3:2,0:0:0:0:
126,123,55938,6,0,P|191:178|280:160,1,160,2|10,3:2|0:0,0:0:0:0:
405,32,56522,1,0,3:0:0:0:
373,205,56717,2,0,P|369:167|361:112,1,80,2|2,3:2|0:0,0:0:0:0:
261,171,57107,1,10,0:0:0:0:
474,236,57302,1,2,3:2:0:0:
289,280,57496,6,0,P|213:271|110:267,1,160,2|8,3:2|0:0,0:0:0:0:
37,322,58081,1,2,3:2:0:0:
132,172,58276,1,2,3:2:0:0:
37,322,58470,1,2,0:0:0:0:
210,272,58665,2,0,P|172:269|125:266,1,80,10|2,0:0|3:2,0:0:0:0:
40,140,59055,6,0,P|99:80|190:98,1,160,4|8,3:2|0:0,0:0:0:0:
362,147,59639,1,2,3:2:0:0:
259,33,59834,2,0,P|265:72|269:112,1,80,2|0,3:2|3:0,0:0:0:0:
464,179,60224,2,0,P|457:135|451:84,1,80,10|2,0:0|3:2,0:0:0:0:
230,200,60613,6,0,P|308:202|362:147,1,160,4|8,3:2|0:0,0:0:0:0:
493,272,61198,1,2,3:2:0:0:
493,272,61295,1,2,0:0:0:0:
493,272,61393,2,0,P|451:266|409:262,1,80,2|0,3:2|0:0,0:0:0:0:
249,322,61782,2,0,P|292:328|332:333,1,80,8|0,0:0|0:0,0:0:0:0:
160,384,62172,5,4,1:2:0:0:
295,232,62367,2,0,P|291:199|284:141,1,80,2|2,3:2|3:2,0:0:0:0:
505,32,62756,2,0,P|452:96|376:93,1,160,4|2,3:2|3:2,0:0:0:0:
284,39,63341,1,10,0:0:0:0:
284,39,63730,6,0,L|183:52,1,80,4|0,3:2|0:0,0:0:0:0:
11,180,64120,2,0,L|112:193,1,80,10|0,0:0|3:0,0:0:0:0:
97,3,64509,2,0,P|96:43|84:81,1,80,2|0,3:2|0:0,0:0:0:0:
214,232,64899,2,0,P|201:194|200:154,1,80,10|2,0:0|0:0,0:0:0:0:
322,98,65289,6,0,P|383:146|461:136,1,160,4|10,3:2|0:0,0:0:0:0:
311,5,65873,1,2,0:0:0:0:
311,5,65970,1,2,0:0:0:0:
311,5,66068,2,0,L|220:21,1,80,4|8,3:2|0:0,0:0:0:0:
421,52,66457,1,2,3:2:0:0:
421,52,66555,1,0,3:0:0:0:
421,52,66652,1,2,3:2:0:0:
294,114,66847,6,0,P|279:192|268:271,1,160,4|10,3:2|0:0,0:0:0:0:
363,328,67431,1,2,3:2:0:0:
363,328,67529,1,0,0:0:0:0:
363,328,67626,1,0,3:0:0:0:
175,219,67821,1,2,0:0:0:0:
394,149,68016,1,8,0:0:0:0:
260,350,68211,6,0,P|264:310|267:271,1,80,4|0,1:2|0:0,0:0:0:0:
466,227,68600,2,0,P|462:266|459:306,1,80,4|0,1:2|0:0,0:0:0:0:
175,219,68990,2,0,L|74:235,1,80,4|0,1:2|0:0,0:0:0:0:
402,117,69380,2,0,L|481:126,1,80,4|0,1:2|1:0,0:0:0:0:
512,131,69672,1,0,1:0:0:0:
512,131,69769,1,8,3:0:0:0:
351,207,69964,6,0,P|297:150|307:61,1,160,4|10,1:2|0:0,0:0:0:0:
511,7,70548,1,0,3:0:0:0:
402,117,70743,1,2,3:2:0:0:
402,117,70938,2,0,L|505:103,1,80,2|10,0:0|0:0,0:0:0:0:
207,23,71328,6,0,P|128:35|48:46,1,160,4|0,3:2|3:0,0:0:0:0:
301,72,71912,1,10,0:0:0:0:
223,207,72107,1,0,3:0:0:0:
223,207,72204,1,0,0:0:0:0:
223,207,72302,2,0,P|205:174|214:113,1,80,2|2,3:2|0:0,0:0:0:0:
422,275,72691,2,0,P|415:317|410:354,1,80,10|2,0:0|3:2,0:0:0:0:
327,233,73081,6,0,P|390:177|485:205,1,160,4|10,3:2|0:0,0:0:0:0:
345,92,73665,1,0,3:0:0:0:
505,43,73860,2,0,P|464:34|420:28,1,80,2|0,3:2|0:0,0:0:0:0:
249,114,74250,1,8,0:0:0:0:
249,114,74639,5,2,3:2:0:0:
389,180,74834,1,2,3:2:0:0:
192,275,75029,1,10,0:2:0:0:
307,364,75224,2,0,P|299:284|288:205,1,160,4|0,3:2|3:0,0:0:0:0:
473,249,75808,2,0,P|434:263|389:284,1,80,10|0,0:0|0:0,0:0:0:0:
237,119,76198,6,0,P|285:164|404:153,1,160,4|10,3:2|0:0,0:0:0:0:
153,16,76782,2,0,P|138:56|132:95,1,80,2|2,3:2|3:2,0:0:0:0:
155,196,77172,1,2,3:2:0:0:
155,196,77367,2,0,P|111:189|57:176,1,80,10|2,0:0|3:2,0:0:0:0:
237,119,77756,5,4,1:2:0:0:
7,257,77951,1,0,3:0:0:0:
306,319,78146,1,4,1:2:0:0:
76,181,78341,1,0,3:0:0:0:
352,80,78535,2,0,P|344:126|340:164,1,80,4|0,1:2|3:0,0:0:0:0:
260,21,78925,1,0,1:0:0:0:
458,108,79120,1,0,1:0:0:0:
458,108,79509,5,4,1:2:0:0:
311,255,79704,2,0,P|356:247|404:240,1,80,4|2,3:2|0:0,0:0:0:0:
260,21,80094,1,4,1:2:0:0:
152,163,80289,2,0,P|195:172|241:178,1,80,4|2,3:2|0:0,0:0:0:0:
367,341,80678,6,0,P|301:294|225:309,1,160,4|0,1:2|3:0,0:0:0:0:
334,201,81263,2,0,P|343:159|347:117,1,80,0|2,1:2|3:2,0:0:0:0:
117,306,81652,2,0,P|110:345|102:384,1,80,0|2,1:2|3:2,0:0:0:0:
227,307,82042,1,0,1:2:0:0:
44,231,82237,1,2,0:0:0:0:
44,231,82626,6,0,P|119:222|209:207,1,160,4|2,1:2|0:0,0:0:0:0:
298,237,83211,2,0,P|234:197|228:117,1,160,4|2,1:2|0:0,0:0:0:0:
285,36,83795,1,6,1:1:0:0:
256,192,83893,12,4,86912,3:0:0:0:
