osu file format v14

[General]
AudioFilename: audio.mp3
AudioLeadIn: 0
PreviewTime: 53406
Countdown: 0
SampleSet: Soft
StackLeniency: 0.4
Mode: 3
LetterboxInBreaks: 0
SpecialStyle: 0
WidescreenStoryboard: 0

[Editor]
Bookmarks: 15104,26013,38480,54065,66532,79000
DistanceSpacing: 0.8
BeatDivisor: 4
GridSize: 4
TimelineZoom: 1.2

[Metadata]
Title:Zero Centimeters (TV Size)
TitleUnicode:ゼロセンチメートル (TV Size)
Artist:Ohara Yuiko
ArtistUnicode:大原ゆい子
Creator:-Mikan
Version:Asha's HD
Source:からかい上手の高木さん2
Tags:Kanon Matsubara Garden semyon422 _Asha Shinitagari piroshki karakai jouzu no takagi-san 2 skilled teaser anime japanese opening op 2
BeatmapID:2096823
BeatmapSetID:1000722

[Difficulty]
HPDrainRate:8
CircleSize:4
OverallDifficulty:8
ApproachRate:9
SliderMultiplier:2.19999990463257
SliderTickRate:2

[Events]
//Background and Video events
0,0,"15280438695722.jpg",0,0
Video,-81,"videoplayback.1.mp4"
//Break Periods
//Storyboard Layer 0 (Background)
//Storyboard Layer 1 (Fail)
//Storyboard Layer 2 (Pass)
//Storyboard Layer 3 (Foreground)
//Storyboard Layer 4 (Overlay)
//Storyboard Sound Samples
Sample,2172,0,"G#6_ssl.wav",70
Sample,3731,0,"C6_ssl.wav",70
Sample,3731,0,"D#6_ssl.wav",70
Sample,3731,0,"G#6_ssl.wav",70
Sample,5289,0,"G#6_ssl.wav",70
Sample,5289,0,"A#5_ssl.wav",70
Sample,6848,0,"D#6_ssl.wav",70
Sample,6848,0,"B5_ssl.wav",70
Sample,6848,0,"A#6_s.wav",70
Sample,8406,0,"A#5_ssl.wav",70
Sample,8406,0,"C#6_ssl.wav",70
Sample,9965,0,"F6.wav",70
Sample,9965,0,"G#6.wav",70
Sample,9965,0,"C7_s.wav",70
Sample,10549,0,"A#6_s.wav",70
Sample,10549,0,"F6_ssl.wav",70
Sample,11523,0,"A#5.wav",70
Sample,11523,0,"F#5.wav",70
Sample,11523,0,"C#6.wav",70
Sample,13081,0,"F#5.wav",70
Sample,13081,0,"A#5.wav",70
Sample,13081,0,"F6_ssl.wav",70
Sample,23406,0,"Hat open.wav",45
Sample,26328,0,"F6.wav",70
Sample,27691,0,"G#7_ss.wav",70
Sample,27756,0,"D#7_ss.wav",70
Sample,27821,0,"C#7_ss.wav",70
Sample,27886,0,"G#6.wav",70
Sample,29250,0,"D#6_ssl.wav",70
Sample,29444,0,"A#5.wav",70
Sample,31003,0,"G#6_s.wav",70
Sample,33146,0,"G#6_s.wav",70
Sample,34120,0,"C#7_s.wav",70
Sample,34315,0,"D#7_s.wav",70
Sample,34704,0,"G#6_s.wav",70
Sample,35678,0,"C#6.wav",70
Sample,36263,0,"C#6_s.wav",70
Sample,37237,0,"F6.wav",70
Sample,37626,0,"D#6.wav",70
Sample,37626,0,"A#5.wav",45
Sample,55938,0,"G#6.wav",80
Sample,56717,0,"D#7.wav",80
Sample,59834,0,"C#6_s.wav",80
Sample,61393,0,"F6.wav",80
Sample,64509,0,"F#6.wav",80
Sample,66068,0,"D#6.wav",80
Sample,66457,0,"A#6.wav",80
Sample,69769,0,"C7_s.wav",80
Sample,72302,0,"D#6_s.wav",80
Sample,73860,0,"C#6.wav",80
Sample,74639,0,"D#6_s.wav",80
Sample,77756,0,"C6.wav",80

[TimingPoints]
-944,779.220779220779,4,2,90,45,1,0
260,-50,4,2,90,45,0,0
15419,389.61038961039,4,2,90,55,1,0
15419,-100,4,2,90,55,0,0
26328,-100,4,2,90,45,0,0
26333,-100,4,2,90,45,0,0
38016,-100,4,2,90,50,0,0
54380,-100,4,2,90,60,0,1
79120,-100,4,2,90,60,0,0

[HitObjects]
320,192,484,5,0,0:0:0:70:C6_ssl.wav
192,192,549,1,0,0:0:0:70:F6_ssl.wav
64,192,614,128,0,1783:0:0:0:70:G#6_ssl.wav
448,192,614,1,0,0:0:0:0:
448,192,1393,128,0,1783:0:0:0:70:A#6_ssl.wav
192,192,2172,1,0,0:0:0:40:C#4_sl.wav
320,192,2172,128,0,2952:0:0:0:40:C#5_sl.wav
448,192,2172,1,0,0:0:0:70:C#6_ssl.wav
64,192,2562,1,0,0:0:0:0:
64,192,2952,1,0,0:0:0:0:
192,192,2952,1,0,0:0:0:0:
320,192,3146,128,0,3341:0:0:0:70:G#6_s.wav
192,192,3341,128,0,3536:0:0:0:70:F6_s.wav
448,192,3536,128,0,3731:0:0:0:70:F#6_s.wav
64,192,3731,128,0,4510:0:0:0:35:C4_sl.wav
192,192,3731,1,0,0:0:0:40:C5_sl.wav
320,192,4120,128,0,4510:0:0:0:70:C7.wav
192,192,4510,1,0,0:0:0:70:D#7.wav
448,192,4510,128,0,5289:0:0:0:0:
320,192,4900,128,0,5094:0:0:0:70:C7_s.wav
192,192,5094,128,0,5289:0:0:0:70:C#7.wav
64,192,5289,128,0,5874:0:0:0:35:A#3_sl.wav
320,192,5289,1,0,0:0:0:40:A#4_sl.wav
448,192,5679,1,0,0:0:0:0:
192,192,5874,128,0,6068:0:0:0:70:C#7_s.wav
320,192,6068,128,0,6263:0:0:0:70:C7_s.wav
448,192,6068,1,0,0:0:0:0:
64,192,6263,128,0,6458:0:0:0:70:G#6_s.wav
192,192,6458,128,0,6653:0:0:0:70:D#6_s.wav
320,192,6653,128,0,6848:0:0:0:70:C#6_s.wav
64,192,6848,1,0,0:0:0:35:G#3_sl.wav
448,192,6848,128,0,7627:0:0:0:40:G#4_sl.wav
192,192,7237,1,0,0:0:0:0:
320,192,7432,1,0,0:0:0:70:C#6_s.wav
64,192,7627,128,0,8406:0:0:0:30:C#4_sl.wav
192,192,7627,1,0,0:0:0:70:C#6_s.wav
448,192,7822,1,0,0:0:0:70:A#6_s.wav
320,192,8017,1,0,0:0:0:70:G#6_s.wav
192,192,8211,1,0,0:0:0:70:F#6_s.wav
320,192,8406,128,0,9185:0:0:0:35:F#3_sl.wav
448,192,8406,1,0,0:0:0:40:F#4_sl.wav
64,192,8796,1,0,0:0:0:0:
192,192,9185,1,0,0:0:0:70:F6_s.wav
448,192,9185,128,0,9965:0:0:0:0:
320,192,9575,1,0,0:0:0:0:
64,192,9965,128,0,10354:0:0:0:35:F3_sl.wav
192,192,9965,1,0,0:0:0:40:F4_sl.wav
320,192,10354,1,0,0:0:0:0:
320,192,10549,128,0,10939:0:0:0:30:A#3_sl.wav
448,192,10549,1,0,0:0:0:70:C#6_ssl.wav
64,192,10744,1,0,0:0:0:0:
192,192,10939,1,0,0:0:0:0:
448,192,11133,1,0,0:0:0:0:
320,192,11328,1,0,0:0:0:0:
64,192,11523,1,0,0:0:0:35:D#3_sl.wav
192,192,11523,128,0,11913:0:0:0:40:D#4_sl.wav
320,192,11718,1,0,0:0:0:0:
448,192,11913,128,0,12302:0:0:0:70:A#5.wav
64,192,12302,128,0,12692:0:0:0:70:C#6.wav
192,192,12302,1,0,0:0:0:0:
320,192,12692,128,0,13081:0:0:0:70:D#6.wav
192,192,13081,1,0,0:0:0:35:G#3_sl.wav
448,192,13081,128,0,13861:0:0:0:40:G#4_sl.wav
64,192,13471,1,0,0:0:0:0:
320,192,13731,1,0,0:0:0:70:F#7_ss.wav
192,192,13796,1,0,0:0:0:70:G#7_ss.wav
64,192,13861,128,0,14445:0:0:0:70:C#8_ss.wav
320,192,14445,128,0,15224:0:0:0:70:C#6_ssl.wav
192,192,15224,1,0,0:0:0:0:
64,192,15322,1,0,0:0:0:0:
192,192,15419,1,4,0:0:0:0:
320,192,15419,1,2,0:0:0:0:
448,192,15419,128,0,15808:0:0:0:0:
64,192,15808,1,8,0:0:0:0:
192,192,15808,1,0,0:0:0:45:Hat open.wav
320,192,16003,1,2,0:0:0:0:
448,192,16003,128,0,16198:0:0:0:0:
192,192,16198,1,0,0:0:0:45:Hat open.wav
320,192,16393,128,2,16587:0:0:0:0:
448,192,16393,1,0,0:0:0:0:
64,192,16587,128,2,16782:0:0:0:0:
192,192,16782,128,4,17172:0:0:0:0:
320,192,16782,1,8,0:0:0:0:
448,192,16782,1,0,0:0:0:0:
64,192,17172,1,2,0:0:0:0:
448,192,17172,1,0,0:0:0:0:
64,192,17367,1,8,0:0:0:0:
192,192,17367,1,0,0:0:0:45:Hat open.wav
320,192,17367,1,0,0:0:0:0:
448,192,17561,128,0,17756:0:0:0:0:
64,192,17756,128,2,17951:0:0:0:0:
192,192,17756,1,0,0:0:0:45:Hat open.wav
320,192,17951,128,2,18146:0:0:0:0:
448,192,17951,1,0,0:0:0:0:
64,192,18146,1,8,0:0:0:0:
192,192,18146,128,0,18341:0:0:0:45:Hat open.wav
448,192,18146,1,0,0:0:0:0:
320,192,18341,128,0,18535:0:0:0:0:
64,192,18535,128,2,18925:0:0:0:0:
192,192,18535,1,4,0:0:0:0:
448,192,18535,1,0,0:0:0:0:
192,192,18925,1,8,0:0:0:0:
320,192,18925,1,0,0:0:0:45:Hat open.wav
448,192,18925,1,0,0:0:0:0:
320,192,19120,128,2,19315:0:0:0:0:
448,192,19120,1,0,0:0:0:0:
192,192,19315,1,0,0:0:0:45:Hat open.wav
320,192,19509,128,2,19704:0:0:0:0:
448,192,19509,1,0,0:0:0:0:
192,192,19704,128,0,19899:0:0:0:45:Hat open.wav
64,192,19899,1,8,0:0:0:0:
320,192,19899,1,4,0:0:0:0:
448,192,19899,1,0,0:0:0:0:
192,192,19996,1,0,0:0:0:0:
448,192,20094,1,0,0:0:0:0:
320,192,20191,1,0,0:0:0:0:
64,192,20289,1,2,0:0:0:0:
192,192,20289,1,0,0:0:0:0:
320,192,20386,1,0,0:0:0:0:
64,192,20483,1,8,0:0:0:0:
192,192,20483,1,0,0:0:0:45:Hat open.wav
448,192,20483,1,0,0:0:0:0:
320,192,20581,1,0,0:0:0:0:
64,192,20678,1,0,0:0:0:0:
192,192,20776,1,0,0:0:0:0:
320,192,20873,1,2,0:0:0:0:
448,192,20873,1,0,0:0:0:45:Hat open.wav
64,192,20970,1,8,0:0:0:0:
192,192,20970,1,0,0:0:0:0:
320,192,21068,1,2,0:0:0:0:
448,192,21068,1,0,0:0:0:0:
192,192,21165,1,0,0:0:0:0:
64,192,21263,1,8,0:0:0:0:
320,192,21263,1,0,0:0:0:45:Hat open.wav
448,192,21263,1,0,0:0:0:0:
192,192,21360,1,0,0:0:0:0:
64,192,21457,1,2,0:0:0:0:
448,192,21457,1,0,0:0:0:0:
320,192,21555,1,0,0:0:0:0:
64,192,21652,128,8,21847:0:0:0:0:
192,192,21652,1,4,0:0:0:0:
448,192,21652,1,0,0:0:0:0:
320,192,21847,128,0,22042:0:0:0:0:
192,192,22042,128,2,22237:0:0:0:0:
448,192,22042,1,0,0:0:0:0:
64,192,22237,1,8,0:0:0:0:
320,192,22237,1,4,0:0:0:0:
448,192,22237,1,0,0:0:0:0:
192,192,22431,128,0,22626:0:0:0:0:
64,192,22626,1,2,0:0:0:0:
320,192,22626,128,0,22821:0:0:0:0:
64,192,22821,1,8,0:0:0:0:
192,192,22821,1,4,0:0:0:0:
448,192,22821,1,0,0:0:0:0:
320,192,23016,128,0,23211:0:0:0:0:
192,192,23211,1,2,0:0:0:0:
448,192,23211,128,0,23406:0:0:0:0:
64,192,23406,1,8,0:0:0:0:
320,192,23503,1,0,0:0:0:0:
64,192,23600,1,2,0:0:0:0:
192,192,23600,1,0,0:0:0:0:
192,192,23795,1,2,0:0:0:0:
448,192,23795,1,0,0:0:0:0:
64,192,23990,1,8,0:0:0:0:
320,192,23990,128,4,24185:0:0:0:0:
448,192,23990,1,0,0:0:0:0:
64,192,24185,128,2,24380:0:0:0:0:
192,192,24185,1,0,0:0:0:0:
320,192,24380,1,2,0:0:0:0:
448,192,24380,1,0,0:0:0:0:
64,192,24574,1,8,0:0:0:0:
192,192,24574,1,4,0:0:0:0:
320,192,24574,128,0,25354:0:0:0:0:
64,192,25354,1,8,0:0:0:0:
192,192,25354,1,0,0:0:0:58:Tom2.wav
448,192,25354,1,0,0:0:0:0:
64,192,25548,1,8,0:0:0:0:
320,192,25548,1,0,0:0:0:58:Tom2.wav
448,192,25548,1,0,0:0:0:0:
192,192,25743,128,0,25938:0:0:0:70:D#6_s.wav
448,192,25938,128,0,26133:0:0:0:70:C#6_s.wav
320,192,26133,128,0,26328:0:0:0:70:D#6_s.wav
64,192,26328,128,0,26717:0:0:0:70:G#5.wav
192,192,26328,1,0,0:0:0:70:C#6.wav
320,192,26717,1,0,0:0:0:0:
448,192,26717,1,0,0:0:0:0:
192,192,26912,1,0,0:0:0:0:
448,192,27107,1,0,0:0:0:0:
320,192,27302,1,0,0:0:0:0:
64,192,27496,1,0,0:0:0:0:
192,192,27496,1,0,0:0:0:0:
448,192,27691,1,0,0:0:0:70:D#6_s.wav
64,192,27886,1,0,0:0:0:70:F6_s.wav
64,192,28081,1,0,0:0:0:70:F6_s.wav
320,192,28276,1,0,0:0:0:70:F6.wav
448,192,28276,1,0,0:0:0:0:
320,192,28470,1,0,0:0:0:0:
192,192,28665,1,0,0:0:0:70:F#6_s.wav
64,192,28860,1,0,0:0:0:70:F6.wav
192,192,29055,1,0,0:0:0:0:
448,192,29055,1,0,0:0:0:0:
320,192,29250,1,0,0:0:0:45:C#5_s.wav
64,192,29444,1,0,0:0:0:70:D#5.wav
192,192,29444,1,0,0:0:0:70:G#5.wav
448,192,29639,1,0,0:0:0:0:
64,192,29834,128,0,30419:0:0:0:0:
320,192,29834,1,0,0:0:0:0:
448,192,30029,128,0,30419:0:0:0:70:A#5.wav
192,192,30224,128,0,30613:0:0:0:70:D#6.wav
320,192,30419,128,0,30613:0:0:0:70:G#6.wav
64,192,30613,128,0,31003:0:0:0:70:D#7.wav
448,192,30613,128,0,31003:0:0:0:0:
192,192,30808,1,0,0:0:0:70:G#6.wav
320,192,31003,1,0,0:0:0:50:A#6_s.wav
192,192,31133,1,0,0:0:0:0:
448,192,31198,1,0,0:0:0:70:G#6_s.wav
64,192,31393,1,0,0:0:0:50:C#7.wav
320,192,31393,1,0,0:0:0:70:G#6_s.wav
192,192,31587,1,0,0:0:0:70:A#6_s.wav
448,192,31782,1,0,0:0:0:0:
320,192,31977,1,0,0:0:0:70:G#6_s.wav
64,192,32172,1,0,0:0:0:70:G#6_s.wav
192,192,32172,1,0,0:0:0:0:
320,192,32367,1,0,0:0:0:70:G#6.wav
192,192,32464,1,0,0:0:0:0:
64,192,32561,1,0,0:0:0:0:
448,192,32756,1,0,0:0:0:70:F6_s.wav
64,192,32951,1,0,0:0:0:70:D#6_s.wav
320,192,32951,1,0,0:0:0:0:
192,192,33146,128,0,33341:0:0:0:70:C#6.wav
320,192,33341,128,0,33730:0:0:0:70:G#7_s.wav
448,192,33341,1,0,0:0:0:0:
192,192,33535,1,0,0:0:0:70:G#6_s.wav
64,192,33730,128,0,34120:0:0:0:70:D#7.wav
448,192,33730,1,0,0:0:0:0:
320,192,33925,1,0,0:0:0:0:
192,192,34120,128,0,34315:0:0:0:70:C#6_s.wav
320,192,34315,128,0,34509:0:0:0:70:D#6_s.wav
192,192,34509,1,0,0:0:0:70:F6_s.wav
448,192,34509,128,0,34704:0:0:0:70:F7_s.wav
64,192,34704,128,0,34899:0:0:0:70:C#6.wav
320,192,34899,128,0,35094:0:0:0:70:F6_s.wav
192,192,35094,128,0,35289:0:0:0:70:D#6_s.wav
64,192,35289,128,0,35483:0:0:0:70:C#6_s.wav
448,192,35289,1,0,0:0:0:0:
320,192,35483,1,0,0:0:0:70:C#6_s.wav
192,192,35678,1,0,0:0:0:70:F#5.wav
320,192,35678,128,0,36068:0:0:0:70:A#5.wav
64,192,36068,1,0,0:0:0:70:A#5_s.wav
448,192,36068,1,0,0:0:0:0:
192,192,36263,1,0,0:0:0:70:F5_s.wav
320,192,36457,1,0,0:0:0:70:C#6_s.wav
448,192,36457,128,0,36847:0:0:0:0:
192,192,36652,1,0,0:0:0:70:F5_s.wav
64,192,36847,1,0,0:0:0:70:A#5_s.wav
320,192,36847,1,0,0:0:0:70:C#6_s.wav
448,192,37042,1,0,0:0:0:70:D#6_s.wav
64,192,37237,128,0,37626:0:0:0:40:F#5.wav
192,192,37237,1,0,0:0:0:45:A#5.wav
320,192,37626,128,0,38016:0:0:0:40:F#5.wav
64,192,38016,1,8,0:0:0:0:
192,192,38016,1,0,0:0:0:70:F6.wav
448,192,38016,1,0,0:0:0:0:
64,192,38211,1,8,0:0:0:0:
320,192,38211,1,0,0:0:0:0:
448,192,38211,1,0,0:0:0:0:
64,192,38406,1,8,0:0:0:0:
448,192,38406,1,0,0:0:0:70:F#6_s.wav
192,192,38503,1,8,0:0:0:0:
320,192,38503,1,0,0:0:0:0:
64,192,38600,1,0,0:0:0:48:Tom1.wav
448,192,38600,1,0,0:0:0:0:
64,192,39185,128,8,39574:0:0:0:0:
192,192,39185,128,4,39574:0:0:0:0:
448,192,39185,1,0,0:0:0:0:
320,192,39574,128,0,39964:0:0:0:0:
64,192,39769,1,0,0:0:0:45:Tom1.wav
192,192,39964,1,0,0:0:0:43:Tom2.wav
448,192,39964,1,0,0:0:0:0:
64,192,40159,1,2,0:0:0:0:
320,192,40159,1,4,0:0:0:0:
448,192,40159,128,0,40354:0:0:0:0:
192,192,40354,128,0,40548:0:0:0:0:
320,192,40548,128,2,40743:0:0:0:0:
64,192,40743,1,8,0:0:0:0:
192,192,40743,1,0,0:0:0:0:
448,192,40743,128,0,40938:0:0:0:0:
64,192,40938,128,0,41328:0:0:0:0:
320,192,41133,1,2,0:0:0:0:
448,192,41133,1,0,0:0:0:0:
192,192,41328,1,2,0:0:0:0:
320,192,41328,1,0,0:0:0:0:
64,192,41522,1,8,0:0:0:0:
192,192,41522,1,0,0:0:0:0:
448,192,41522,1,0,0:0:0:0:
320,192,41717,1,0,0:0:0:0:
64,192,41912,1,2,0:0:0:0:
192,192,41912,1,0,0:0:0:0:
192,192,42107,1,0,0:0:0:0:
64,192,42302,1,8,0:0:0:0:
320,192,42302,1,0,0:0:0:0:
448,192,42302,1,0,0:0:0:0:
192,192,42496,1,2,0:0:0:0:
320,192,42496,1,0,0:0:0:0:
448,192,42691,1,0,0:0:0:0:
192,192,42886,1,2,0:0:0:0:
448,192,42886,1,0,0:0:0:0:
64,192,43081,1,8,0:0:0:0:
192,192,43081,1,0,0:0:0:0:
320,192,43081,1,0,0:0:0:0:
64,192,43276,1,2,0:0:0:0:
320,192,43276,1,4,0:0:0:0:
448,192,43276,128,0,43665:0:0:0:0:
192,192,43665,1,2,0:0:0:0:
320,192,43665,1,0,0:0:0:0:
64,192,43860,1,8,0:0:0:0:
192,192,43860,1,0,0:0:0:0:
448,192,43860,1,0,0:0:0:0:
320,192,44055,1,2,0:0:0:0:
448,192,44055,1,0,0:0:0:0:
64,192,44250,1,8,0:0:0:0:
192,192,44250,1,0,0:0:0:45:Hat open.wav
320,192,44250,1,0,0:0:0:0:
64,192,44444,1,2,0:0:0:0:
448,192,44444,1,0,0:0:0:0:
192,192,44639,128,8,45029:0:0:0:0:
320,192,44639,1,0,0:0:0:45:Hat open.wav
448,192,44639,1,0,0:0:0:0:
64,192,45029,1,2,0:0:0:0:
320,192,45029,1,0,0:0:0:0:
192,192,45419,1,8,0:0:0:0:
320,192,45419,128,4,45808:0:0:0:0:
448,192,45419,128,0,45808:0:0:0:0:
64,192,45808,1,8,0:0:0:0:
192,192,45808,1,0,0:0:0:0:
192,192,46003,1,2,0:0:0:0:
320,192,46003,1,0,0:0:0:0:
64,192,46198,1,2,0:0:0:0:
448,192,46198,1,0,0:0:0:0:
64,192,46393,128,2,46782:0:0:0:0:
320,192,46393,1,4,0:0:0:0:
448,192,46393,128,0,46782:0:0:0:0:
192,192,46782,1,2,0:0:0:0:
320,192,46782,1,0,0:0:0:0:
64,192,46977,1,8,0:0:0:0:
192,192,46977,1,0,0:0:0:0:
448,192,46977,1,0,0:0:0:0:
320,192,47172,1,0,0:0:0:0:
64,192,47367,1,2,0:0:0:0:
192,192,47367,1,0,0:0:0:0:
320,192,47561,1,2,0:0:0:0:
448,192,47561,1,0,0:0:0:0:
64,192,47756,1,8,0:0:0:0:
192,192,47756,1,0,0:0:0:0:
448,192,47756,1,0,0:0:0:0:
320,192,47951,1,0,0:0:0:0:
64,192,48146,1,2,0:0:0:0:
320,192,48146,128,4,48535:0:0:0:0:
448,192,48146,1,0,0:0:0:0:
64,192,48535,128,8,48925:0:0:0:0:
192,192,48535,1,0,0:0:0:0:
448,192,48535,1,0,0:0:0:0:
320,192,48730,1,0,0:0:0:0:
192,192,48925,1,2,0:0:0:0:
448,192,48925,1,0,0:0:0:0:
64,192,49120,1,2,0:0:0:0:
320,192,49120,1,0,0:0:0:0:
64,192,49315,1,8,0:0:0:0:
192,192,49315,1,0,0:0:0:0:
448,192,49315,1,0,0:0:0:0:
192,192,49509,128,2,49899:0:0:0:0:
320,192,49509,1,0,0:0:0:0:
64,192,49899,1,2,0:0:0:0:
448,192,49899,1,0,0:0:0:0:
64,192,50094,1,8,0:0:0:0:
320,192,50094,1,0,0:0:0:0:
448,192,50094,1,0,0:0:0:0:
192,192,50289,1,0,0:0:0:0:
320,192,50483,1,2,0:0:0:0:
448,192,50483,1,0,0:0:0:0:
192,192,50678,1,2,0:0:0:0:
320,192,50678,1,0,0:0:0:0:
64,192,50873,1,8,0:0:0:0:
192,192,50873,128,0,51263:0:0:0:0:
448,192,50873,1,0,0:0:0:0:
64,192,51263,128,8,51652:0:0:0:0:
320,192,51263,128,0,51652:0:0:0:45:Hat open.wav
448,192,51263,128,0,51652:0:0:0:90:G#6.wav
192,192,51652,1,2,0:0:0:0:
64,192,51847,128,8,52237:0:0:0:0:
192,192,51847,128,0,52237:0:0:0:45:Hat open.wav
448,192,51847,1,0,0:0:0:90:F#6.wav
320,192,52237,1,2,0:0:0:0:
448,192,52237,1,0,0:0:0:0:
64,192,52431,1,8,0:0:0:0:
192,192,52431,1,0,0:0:0:45:Hat open.wav
320,192,52431,128,0,52821:0:0:0:90:F6.wav
64,192,52821,1,8,0:0:0:0:
192,192,52821,1,0,0:0:0:90:D#6.wav
448,192,52821,1,0,0:0:0:0:
64,192,53016,1,8,0:0:0:0:
192,192,53016,1,0,0:0:0:0:
448,192,53016,1,0,0:0:0:0:
64,192,53211,1,8,0:0:0:0:
192,192,53211,1,0,0:0:0:0:
448,192,53211,1,0,0:0:0:0:
320,192,53600,128,0,53990:0:0:0:80:G#6.wav
448,192,53990,128,0,54380:0:0:0:80:A#6.wav
64,192,54380,128,2,54769:0:0:0:0:
192,192,54380,1,4,0:0:0:0:
320,192,54380,1,0,0:0:0:80:G#6.wav
192,192,54769,1,8,0:0:0:0:
320,192,54769,1,0,0:0:0:55:Hat open.wav
448,192,54769,1,0,0:0:0:0:
64,192,54964,1,2,0:0:0:0:
192,192,54964,1,0,0:0:0:0:
320,192,55159,1,2,0:0:0:0:
448,192,55159,128,0,55548:0:0:0:55:Hat open.wav
192,192,55354,1,0,0:0:0:80:G#6_s.wav
64,192,55548,1,8,0:0:0:0:
192,192,55548,1,0,0:0:0:55:Hat open.wav
320,192,55548,1,0,0:0:0:80:F6_s.wav
320,192,55743,1,2,0:0:0:0:
448,192,55743,1,0,0:0:0:80:F#6_s.wav
64,192,55938,128,2,56328:0:0:0:0:
192,192,55938,1,0,0:0:0:55:Hat open.wav
192,192,56328,1,8,0:0:0:0:
320,192,56328,1,0,0:0:0:55:Hat open.wav
448,192,56328,128,0,56717:0:0:0:80:C7.wav
64,192,56522,1,2,0:0:0:0:
192,192,56522,1,0,0:0:0:0:
64,192,56717,1,2,0:0:0:0:
320,192,56717,128,0,57107:0:0:0:55:Hat open.wav
64,192,57107,1,8,0:0:0:0:
192,192,57107,1,0,0:0:0:55:Hat open.wav
448,192,57107,1,0,0:0:0:80:C7_s.wav
320,192,57302,1,2,0:0:0:0:
448,192,57302,1,0,0:0:0:80:C#7_ssl.wav
64,192,57496,128,2,57886:0:0:0:0:
192,192,57496,1,0,0:0:0:55:Hat open.wav
192,192,57886,1,8,0:0:0:0:
320,192,57886,128,0,58081:0:0:0:55:Hat open.wav
448,192,57886,1,0,0:0:0:0:
64,192,58081,1,2,0:0:0:0:
192,192,58081,128,0,58276:0:0:0:0:
320,192,58276,128,2,58665:0:0:0:0:
448,192,58276,128,0,58470:0:0:0:55:Hat open.wav
64,192,58470,128,0,58665:0:0:0:0:
192,192,58665,128,8,58860:0:0:0:0:
448,192,58665,1,0,0:0:0:55:Hat open.wav
64,192,58860,1,2,0:0:0:0:
320,192,58860,128,0,59055:0:0:0:0:
64,192,59055,1,2,0:0:0:0:
192,192,59055,1,4,0:0:0:0:
448,192,59055,128,0,59444:0:0:0:80:A#6_ssl.wav
64,192,59444,1,8,0:0:0:0:
192,192,59444,1,0,0:0:0:55:Hat open.wav
320,192,59444,1,0,0:0:0:0:
320,192,59639,1,2,0:0:0:0:
448,192,59639,1,0,0:0:0:80:C#6_s.wav
64,192,59834,1,2,0:0:0:0:
448,192,59834,1,0,0:0:0:55:Hat open.wav
192,192,60029,1,2,0:0:0:0:
320,192,60029,1,0,0:0:0:80:A#6_s.wav
64,192,60224,1,8,0:0:0:0:
192,192,60224,1,0,0:0:0:55:Hat open.wav
448,192,60224,1,0,0:0:0:80:G#6_s.wav
64,192,60419,1,2,0:0:0:0:
320,192,60419,1,0,0:0:0:80:F#6_s.wav
192,192,60613,1,2,0:0:0:0:
320,192,60613,128,4,61003:0:0:0:0:
448,192,60613,1,0,0:0:0:80:G#6_s.wav
64,192,61003,1,8,0:0:0:0:
192,192,61003,1,0,0:0:0:55:Hat open.wav
448,192,61003,1,0,0:0:0:0:
192,192,61198,1,2,0:0:0:0:
320,192,61198,1,0,0:0:0:0:
64,192,61393,128,2,61782:0:0:0:0:
448,192,61393,1,0,0:0:0:55:Hat open.wav
192,192,61782,1,8,0:0:0:0:
320,192,61782,1,0,0:0:0:55:Hat open.wav
448,192,61782,1,0,0:0:0:0:
64,192,61977,1,2,0:0:0:0:
320,192,61977,1,0,0:0:0:0:
64,192,62172,1,2,0:0:0:0:
192,192,62172,1,4,0:0:0:0:
448,192,62172,128,0,62561:0:0:0:80:C7_ssl.wav
320,192,62367,1,2,0:0:0:0:
64,192,62561,1,8,0:0:0:0:
192,192,62561,1,0,0:0:0:0:
64,192,62756,1,2,0:0:0:0:
320,192,62756,128,4,63146:0:0:0:0:
448,192,62756,1,0,0:0:0:80:A#6.wav
64,192,63146,1,2,0:0:0:0:
192,192,63146,1,0,0:0:0:0:
64,192,63341,1,8,0:0:0:0:
320,192,63341,1,0,0:0:0:55:Hat open.wav
448,192,63341,1,0,0:0:0:0:
192,192,63535,1,2,0:0:0:0:
320,192,63535,1,0,0:0:0:0:
64,192,63730,1,2,0:0:0:0:
192,192,63730,128,4,64120:0:0:0:0:
448,192,63730,1,0,0:0:0:80:C#6.wav
64,192,64120,1,8,0:0:0:0:
320,192,64120,1,0,0:0:0:55:Hat open.wav
448,192,64120,128,0,64509:0:0:0:80:G#6.wav
192,192,64315,1,2,0:0:0:0:
320,192,64315,1,0,0:0:0:0:
64,192,64509,128,2,64899:0:0:0:0:
192,192,64509,1,0,0:0:0:55:Hat open.wav
192,192,64899,1,8,0:0:0:0:
320,192,64899,128,0,65289:0:0:0:55:Hat open.wav
448,192,64899,1,0,0:0:0:80:F6.wav
64,192,65289,1,2,0:0:0:0:
192,192,65289,128,4,65678:0:0:0:0:
448,192,65289,1,0,0:0:0:80:F6_ssl.wav
64,192,65678,1,8,0:0:0:0:
320,192,65678,1,0,0:0:0:55:Hat open.wav
448,192,65678,1,0,0:0:0:0:
192,192,65873,1,0,0:0:0:80:F#6_s.wav
320,192,66068,1,2,0:0:0:0:
448,192,66068,128,0,66457:0:0:0:55:Hat open.wav
64,192,66263,1,8,0:0:0:0:
192,192,66263,1,0,0:0:0:0:
320,192,66457,1,8,0:0:0:0:
192,192,66506,1,0,0:0:0:0:
64,192,66555,1,8,0:0:0:0:
448,192,66652,1,0,0:0:0:45:Tom1.wav
320,192,66750,1,0,0:0:0:43:Tom2.wav
64,192,66847,128,2,67237:0:0:0:0:
192,192,66847,1,4,0:0:0:0:
448,192,66847,1,0,0:0:0:80:G#6.wav
192,192,67237,1,8,0:0:0:0:
320,192,67237,1,0,0:0:0:55:Hat open.wav
448,192,67237,1,0,0:0:0:0:
64,192,67431,1,2,0:0:0:0:
320,192,67431,1,0,0:0:0:0:
64,192,67626,1,2,0:0:0:0:
192,192,67626,1,0,0:0:0:55:Hat open.wav
448,192,67626,128,0,68016:0:0:0:0:
320,192,67821,1,0,0:0:0:80:F6_s.wav
64,192,68016,1,8,0:0:0:0:
192,192,68016,1,0,0:0:0:80:F6_s.wav
64,192,68211,128,2,68406:0:0:0:0:
320,192,68211,128,4,68406:0:0:0:0:
448,192,68211,128,0,68406:0:0:0:80:C7_s.wav
64,192,68600,128,8,68795:0:0:0:0:
192,192,68600,128,0,68795:0:0:0:55:Hat open.wav
320,192,68600,128,0,68795:0:0:0:80:C#7_s.wav
192,192,68990,128,8,69185:0:0:0:0:
320,192,68990,128,0,69185:0:0:0:55:Hat open.wav
448,192,68990,128,0,69185:0:0:0:80:C7_s.wav
64,192,69380,128,8,69574:0:0:0:0:
192,192,69380,128,0,69574:0:0:0:55:Hat open.wav
448,192,69380,1,0,0:0:0:80:F6_s.wav
320,192,69574,1,8,0:0:0:0:
448,192,69574,1,0,0:0:0:0:
64,192,69672,1,8,0:0:0:0:
192,192,69672,1,0,0:0:0:0:
320,192,69769,1,0,0:0:0:43:Tom1.wav
192,192,69867,1,0,0:0:0:0:
64,192,69964,128,2,70354:0:0:0:0:
320,192,69964,1,4,0:0:0:0:
448,192,69964,1,0,0:0:0:80:C#7.wav
192,192,70354,1,8,0:0:0:0:
320,192,70354,1,0,0:0:0:55:Hat open.wav
448,192,70354,1,0,0:0:0:0:
64,192,70548,1,2,0:0:0:0:
192,192,70548,1,0,0:0:0:0:
320,192,70743,1,2,0:0:0:0:
448,192,70743,128,0,71133:0:0:0:55:Hat open.wav
192,192,70938,1,0,0:0:0:80:A#6_s.wav
64,192,71133,1,8,0:0:0:0:
320,192,71133,1,0,0:0:0:80:A#6_s.wav
64,192,71328,1,2,0:0:0:0:
192,192,71328,128,4,71717:0:0:0:0:
448,192,71328,1,0,0:0:0:80:G#6.wav
320,192,71717,1,2,0:0:0:0:
448,192,71717,1,0,0:0:0:0:
64,192,71912,1,8,0:0:0:0:
192,192,71912,1,0,0:0:0:55:Hat open.wav
448,192,71912,1,0,0:0:0:0:
64,192,72107,1,2,0:0:0:0:
320,192,72107,1,0,0:0:0:0:
192,192,72302,1,2,0:0:0:0:
448,192,72302,1,0,0:0:0:55:Hat open.wav
320,192,72496,1,0,0:0:0:80:F6_s.wav
64,192,72691,1,8,0:0:0:0:
192,192,72691,1,0,0:0:0:55:Hat open.wav
448,192,72691,1,0,0:0:0:80:F#6_s.wav
192,192,72886,1,0,0:0:0:80:F6.wav
64,192,73081,1,2,0:0:0:0:
320,192,73081,128,4,73470:0:0:0:0:
448,192,73081,1,0,0:0:0:0:
64,192,73470,128,8,73860:0:0:0:0:
192,192,73470,1,0,0:0:0:55:Hat open.wav
448,192,73470,1,0,0:0:0:80:C#6.wav
320,192,73665,1,2,0:0:0:0:
320,192,73860,128,2,74250:0:0:0:0:
448,192,73860,1,0,0:0:0:55:Hat open.wav
64,192,74250,1,8,0:0:0:0:
192,192,74250,1,0,0:0:0:55:Hat open.wav
448,192,74250,1,0,0:0:0:0:
320,192,74444,1,0,0:0:0:0:
64,192,74639,1,2,0:0:0:0:
192,192,74639,128,0,74834:0:0:0:55:Hat open.wav
320,192,74834,128,2,75029:0:0:0:0:
448,192,74834,1,0,0:0:0:80:C#6_s.wav
64,192,75029,1,8,0:0:0:0:
192,192,75029,1,0,0:0:0:80:C6_s.wav
448,192,75029,1,0,0:0:0:0:
192,192,75224,1,2,0:0:0:0:
320,192,75224,1,4,0:0:0:0:
448,192,75224,128,0,75613:0:0:0:80:C#6.wav
64,192,75613,1,2,0:0:0:0:
192,192,75613,1,0,0:0:0:0:
64,192,75808,1,8,0:0:0:0:
320,192,75808,1,0,0:0:0:55:Hat open.wav
448,192,75808,1,0,0:0:0:80:C#6_s.wav
192,192,76003,1,0,0:0:0:80:D#6_s.wav
320,192,76003,1,0,0:0:0:0:
64,192,76198,128,2,76587:0:0:0:0:
192,192,76198,1,4,0:0:0:0:
448,192,76198,1,0,0:0:0:80:F6.wav
192,192,76587,1,8,0:0:0:0:
320,192,76587,1,0,0:0:0:55:Hat open.wav
448,192,76587,1,0,0:0:0:0:
64,192,76782,1,2,0:0:0:0:
192,192,76782,128,0,76977:0:0:0:80:F#6.wav
320,192,76977,1,0,0:0:0:55:Hat open.wav
192,192,77172,1,2,0:0:0:0:
448,192,77172,1,0,0:0:0:0:
64,192,77367,1,8,0:0:0:0:
320,192,77367,1,0,0:0:0:55:Hat open.wav
448,192,77367,128,0,77756:0:0:0:80:C#6.wav
192,192,77561,1,2,0:0:0:0:
320,192,77561,1,0,0:0:0:0:
64,192,77756,1,8,0:0:0:0:
192,192,77756,128,0,78535:0:0:0:55:Hat open.wav
320,192,77951,1,2,0:0:0:0:
448,192,77951,1,0,0:0:0:0:
64,192,78146,1,8,0:0:0:0:
320,192,78146,1,0,0:0:0:55:Hat open.wav
448,192,78341,1,2,0:0:0:0:
64,192,78535,1,8,0:0:0:0:
320,192,78535,1,0,0:0:0:55:Hat open.wav
448,192,78535,1,0,0:0:0:80:C#6.wav
192,192,78730,1,2,0:0:0:0:
320,192,78730,1,0,0:0:0:0:
64,192,78925,1,8,0:0:0:0:
192,192,78925,1,0,0:0:0:80:D#6_s.wav
448,192,78925,1,0,0:0:0:0:
64,192,79120,1,8,0:0:0:0:
192,192,79120,1,0,0:0:0:80:D#6_s.wav
448,192,79120,1,0,0:0:0:0:
320,192,79217,1,8,0:0:0:0:
64,192,79509,1,8,0:0:0:0:
320,192,79509,1,0,0:0:0:80:C#6_s.wav
448,192,79509,1,0,0:0:0:0:
64,192,79704,1,8,0:0:0:0:
320,192,79704,128,0,79899:0:0:0:80:C#6.wav
448,192,79704,1,0,0:0:0:0:
64,192,79899,128,0,80094:0:0:0:0:
192,192,80094,1,8,0:0:0:0:
320,192,80094,1,0,0:0:0:45:Tom2.wav
448,192,80094,1,0,0:0:0:0:
192,192,80289,128,8,80483:0:0:0:0:
320,192,80289,1,0,0:0:0:45:Tom2.wav
448,192,80289,1,0,0:0:0:0:
64,192,80483,1,2,0:0:0:0:
448,192,80483,128,0,80678:0:0:0:0:
64,192,80678,1,8,0:0:0:0:
192,192,80678,1,4,0:0:0:0:
320,192,80678,1,0,0:0:0:0:
320,192,80873,128,0,81068:0:0:0:0:
192,192,81068,128,2,81263:0:0:0:0:
448,192,81068,1,0,0:0:0:0:
64,192,81263,1,8,0:0:0:0:
320,192,81263,1,0,0:0:0:0:
448,192,81263,1,0,0:0:0:0:
192,192,81457,1,2,0:0:0:0:
320,192,81457,1,0,0:0:0:0:
64,192,81652,1,8,0:0:0:0:
192,192,81652,1,0,0:0:0:45:Hat open.wav
448,192,81652,1,0,0:0:0:0:
64,192,81847,1,2,0:0:0:0:
320,192,81847,1,0,0:0:0:0:
192,192,82042,1,8,0:0:0:0:
320,192,82042,1,0,0:0:0:45:Hat open.wav
448,192,82042,1,0,0:0:0:0:
448,192,82237,128,0,82431:0:0:0:0:
64,192,82431,1,2,0:0:0:0:
320,192,82431,1,0,0:0:0:0:
64,192,82626,128,8,82821:0:0:0:0:
192,192,82626,1,4,0:0:0:0:
448,192,82626,1,0,0:0:0:0:
320,192,82821,128,0,83016:0:0:0:0:
192,192,83016,128,0,83211:0:0:0:0:
64,192,83211,1,8,0:0:0:0:
320,192,83211,1,2,0:0:0:0:
448,192,83211,128,0,83406:0:0:0:0:
192,192,83406,128,0,83600:0:0:0:0:
320,192,83600,128,0,83795:0:0:0:0:
64,192,83795,128,2,87107:0:0:0:0:
192,192,83795,1,4,0:0:0:0:
448,192,83795,1,0,0:0:0:0:
448,192,86912,1,8,0:0:0:0:
320,192,86977,1,0,0:0:0:45:Tom1.wav
192,192,87042,1,0,0:0:0:40:Tom2.wav
448,192,87107,1,2,0:0:0:0:
