osu file format v14

[General]
AudioFilename: audio.mp3
AudioLeadIn: 0
PreviewTime: 53406
Countdown: 0
SampleSet: Soft
StackLeniency: 0.7
Mode: 3
LetterboxInBreaks: 0
SpecialStyle: 0
WidescreenStoryboard: 1

[Editor]
DistanceSpacing: 0.5
BeatDivisor: 4
GridSize: 32
TimelineZoom: 2.4

[Metadata]
Title:Zero Centimeters (TV Size)
TitleUnicode:ゼロセンチメートル (TV Size)
Artist:Ohara Yuiko
ArtistUnicode:大原ゆい子
Creator:[Ping]
Version:Hitsound
Source:からかい上手の高木さん2
Tags:karakai jouzu no takagi-san 2 skilled teaser op opening jpop japanese anime 星に名前をつけるとき hoshi ni namae wo tsukeru toki ankhph THCS-60245 THCS-60246 THCA-60249
BeatmapID:2396307
BeatmapSetID:1000994

[Difficulty]
HPDrainRate:8
CircleSize:6
OverallDifficulty:8
ApproachRate:5
SliderMultiplier:1.4
SliderTickRate:1

[Events]
//Background and Video events
Video,0,"video.mp4"
0,0,"bg.jpg",0,0
//Break Periods
//Storyboard Layer 0 (Background)
//Storyboard Layer 1 (Fail)
//Storyboard Layer 2 (Pass)
//Storyboard Layer 3 (Foreground)
//Storyboard Layer 4 (Overlay)
//Storyboard Sound Samples

[TimingPoints]
614,389.61038961039,4,2,1,45,1,0
15419,389.61038961039,4,2,1,60,1,0
26328,-100,4,2,1,45,0,0
54380,-100,4,2,1,65,0,1
76198,-100,4,2,1,60,0,0

[HitObjects]
213,192,2951,5,0,0:0:0:30:LR_Clap Med .wav
213,192,4510,1,0,0:0:0:30:LR_Clap Med .wav
213,192,6068,1,0,0:0:0:30:LR_Clap Med .wav
469,192,6847,1,0,0:0:0:40:D#8S_Eb8S.wav
469,192,7626,1,0,0:0:0:40:F8S.wav
384,192,8276,1,0,0:0:0:70:LR_Ride Low.wav
384,192,8341,1,0,0:0:0:70:LR_Ride Low.wav
469,192,8406,1,0,0:0:0:40:C#8S_Db8S.wav
213,192,9185,1,0,0:0:0:30:LR_Clap Med .wav
469,192,9964,1,0,0:0:0:40:C8S.wav
469,192,10549,1,0,0:0:0:40:C#8S_Db8S.wav
213,192,10743,1,0,0:0:0:30:LR_Clap Med .wav
469,192,11523,1,0,0:0:0:40:D#8S_Eb8S.wav
213,192,12302,1,0,0:0:0:30:LR_Clap Med .wav
469,192,13081,1,0,0:0:0:40:F8S.wav
213,192,13860,1,0,0:0:0:30:LR_Clap Med .wav
298,192,15419,1,4,0:0:0:0:
128,192,15808,1,8,0:0:0:0:
42,192,16003,1,2,0:0:0:0:
42,192,16393,1,2,0:0:0:0:
213,192,16587,1,0,0:0:0:50:LR_Tom Normal.wav
298,192,16782,1,4,0:0:0:0:
128,192,16782,1,8,0:0:0:0:
42,192,17172,1,2,0:0:0:0:
128,192,17367,1,8,0:0:0:0:
42,192,17756,1,2,0:0:0:0:
42,192,17951,1,2,0:0:0:0:
128,192,18146,1,8,0:0:0:0:
213,192,18341,1,0,0:0:0:50:LR_Tom Normal.wav
298,192,18535,1,4,0:0:0:0:
42,192,18535,1,2,0:0:0:0:
128,192,18925,1,8,0:0:0:0:
42,192,19120,1,2,0:0:0:0:
42,192,19509,1,2,0:0:0:0:
213,192,19704,1,0,0:0:0:40:LR_Clap Med .wav
298,192,19899,1,4,0:0:0:0:
128,192,19899,1,8,0:0:0:0:
42,192,20289,1,2,0:0:0:0:
128,192,20483,1,8,0:0:0:0:
42,192,20873,1,2,0:0:0:0:
128,192,20970,1,8,0:0:0:0:
42,192,21068,1,2,0:0:0:0:
128,192,21263,1,8,0:0:0:0:
42,192,21457,1,2,0:0:0:0:
298,192,21652,1,4,0:0:0:0:
128,192,21652,1,8,0:0:0:0:
42,192,22042,1,2,0:0:0:0:
298,192,22237,1,4,0:0:0:0:
128,192,22237,1,8,0:0:0:0:
42,192,22626,1,2,0:0:0:0:
128,192,22821,1,8,0:0:0:0:
298,192,22821,1,4,0:0:0:0:
42,192,23211,1,2,0:0:0:0:
213,192,23406,1,0,0:0:0:50:LR_Tom Hit.wav
128,192,23600,1,8,0:0:0:0:
128,192,23698,1,8,0:0:0:0:
42,192,23795,1,2,0:0:0:0:
213,192,23990,1,0,0:0:0:50:LR_Tom Hit.wav
298,192,23990,1,4,0:0:0:0:
42,192,24185,1,2,0:0:0:0:
42,192,24380,1,2,0:0:0:0:
128,192,24574,1,8,0:0:0:0:
298,192,24574,1,4,0:0:0:0:
128,192,25354,1,8,0:0:0:0:
213,192,25354,1,0,0:0:0:50:LR_Tom Hit.wav
128,192,25548,1,8,0:0:0:0:
213,192,25548,1,0,0:0:0:50:LR_Tom Hit.wav
213,192,27496,1,0,0:0:0:30:LR_Clap Med .wav
213,192,29055,1,0,0:0:0:30:LR_Clap Med .wav
213,192,30029,1,0,0:0:0:30:LR_Clap Med .wav
213,192,30613,1,0,0:0:0:30:LR_Clap Med .wav
213,192,31587,1,0,0:0:0:30:LR_Clap Med .wav
213,192,32172,1,0,0:0:0:30:LR_Clap Med .wav
213,192,33730,1,0,0:0:0:30:LR_Clap Med .wav
213,192,35289,1,0,0:0:0:30:LR_Clap Med .wav
213,192,36847,1,0,0:0:0:30:LR_Clap Med .wav
213,192,38016,1,0,0:0:0:50:LR_Tom Hit.wav
213,192,38211,1,0,0:0:0:50:LR_Tom Hit.wav
213,192,38406,1,0,0:0:0:50:LR_Tom Hit.wav
213,192,38503,1,0,0:0:0:50:LR_Tom Hit.wav
213,192,38600,1,0,0:0:0:50:LR_Tom Normal.wav
298,192,39185,1,4,0:0:0:0:
128,192,39185,1,8,0:0:0:0:
213,192,39769,1,0,0:0:0:50:LR_Tom Normal.wav
213,192,39964,1,0,0:0:0:50:LR_Tom Drop.wav
298,192,40159,1,4,0:0:0:0:
42,192,40548,1,2,0:0:0:0:
128,192,40743,1,8,0:0:0:0:
42,192,41133,1,2,0:0:0:0:
42,192,41328,1,2,0:0:0:0:
128,192,41522,1,8,0:0:0:0:
42,192,41912,1,2,0:0:0:0:
128,192,42302,1,8,0:0:0:0:
42,192,42496,1,2,0:0:0:0:
42,192,42886,1,2,0:0:0:0:
128,192,43081,1,8,0:0:0:0:
298,192,43276,1,4,0:0:0:0:
42,192,43276,1,2,0:0:0:0:
42,192,43665,1,2,0:0:0:0:
128,192,43860,1,8,0:0:0:0:
42,192,44055,1,2,0:0:0:0:
128,192,44250,1,8,0:0:0:0:
42,192,44444,1,2,0:0:0:0:
128,192,44639,1,8,0:0:0:0:
42,192,45029,1,2,0:0:0:0:
298,192,45419,1,4,0:0:0:0:
128,192,45419,1,8,0:0:0:0:
128,192,45808,1,8,0:0:0:0:
42,192,46003,1,2,0:0:0:0:
42,192,46198,1,2,0:0:0:0:
298,192,46393,1,4,0:0:0:0:
42,192,46393,1,2,0:0:0:0:
42,192,46782,1,2,0:0:0:0:
128,192,46977,1,8,0:0:0:0:
42,192,47367,1,2,0:0:0:0:
42,192,47561,1,2,0:0:0:0:
128,192,47756,1,8,0:0:0:0:
42,192,48146,1,2,0:0:0:0:
298,192,48146,1,4,0:0:0:0:
128,192,48535,1,8,0:0:0:0:
42,192,48925,1,2,0:0:0:0:
42,192,49120,1,2,0:0:0:0:
128,192,49315,1,8,0:0:0:0:
42,192,49509,1,2,0:0:0:0:
42,192,49899,1,2,0:0:0:0:
128,192,50094,1,8,0:0:0:0:
42,192,50483,1,2,0:0:0:0:
42,192,50678,1,2,0:0:0:0:
128,192,50873,1,8,0:0:0:0:
128,192,51263,1,8,0:0:0:0:
298,192,51263,1,4,0:0:0:0:
469,192,51263,1,0,0:0:0:40:D#8S_Eb8S.wav
42,192,51652,1,2,0:0:0:0:
128,192,51847,1,8,0:0:0:0:
298,192,51847,1,4,0:0:0:0:
469,192,51847,1,0,0:0:0:40:F8S.wav
42,192,52237,1,2,0:0:0:0:
128,192,52431,1,8,0:0:0:0:
298,192,52431,1,4,0:0:0:0:
469,192,52431,1,0,0:0:0:40:F#8S_Gb8S.wav
213,192,52821,1,0,0:0:0:70:LR_Tom Hit 3.wav
213,192,53016,1,0,0:0:0:70:LR_Tom Hit 3.wav
213,192,53211,1,0,0:0:0:70:LR_Tom Hit 3.wav
42,192,54380,1,2,0:0:0:0:
298,192,54380,1,4,0:0:0:0:
128,192,54769,1,8,0:0:0:0:
42,192,54964,1,2,0:0:0:0:
42,192,55159,1,2,0:0:0:0:
128,192,55548,1,8,0:0:0:0:
42,192,55743,1,2,0:0:0:0:
42,192,55938,1,2,0:0:0:0:
128,192,56328,1,8,0:0:0:0:
42,192,56522,1,2,0:0:0:0:
42,192,56717,1,2,0:0:0:0:
128,192,57107,1,8,0:0:0:0:
42,192,57302,1,2,0:0:0:0:
42,192,57496,1,2,0:0:0:0:
128,192,57886,1,8,0:0:0:0:
42,192,58081,1,2,0:0:0:0:
42,192,58276,1,2,0:0:0:0:
469,192,58276,1,0,0:0:0:40:D#8S_Eb8S.wav
128,192,58665,1,8,0:0:0:0:
469,192,58665,1,0,0:0:0:40:C8S.wav
42,192,58860,1,2,0:0:0:0:
469,192,58860,1,0,0:0:0:40:C#8S_Db8S.wav
42,192,59055,1,2,0:0:0:0:
298,192,59055,1,4,0:0:0:0:
128,192,59444,1,8,0:0:0:0:
42,192,59639,1,2,0:0:0:0:
42,192,59834,1,2,0:0:0:0:
42,192,60029,1,2,0:0:0:0:
128,192,60224,1,8,0:0:0:0:
42,192,60419,1,2,0:0:0:0:
42,192,60613,1,2,0:0:0:0:
298,192,60613,1,4,0:0:0:0:
128,192,61003,1,8,0:0:0:0:
42,192,61198,1,2,0:0:0:0:
42,192,61393,1,2,0:0:0:0:
128,192,61782,1,8,0:0:0:0:
42,192,61977,1,2,0:0:0:0:
42,192,62172,1,2,0:0:0:0:
298,192,62172,1,4,0:0:0:0:
42,192,62367,1,2,0:0:0:0:
128,192,62561,1,8,0:0:0:0:
42,192,62756,1,2,0:0:0:0:
298,192,62756,1,4,0:0:0:0:
42,192,63146,1,2,0:0:0:0:
128,192,63341,1,8,0:0:0:0:
42,192,63535,1,2,0:0:0:0:
42,192,63730,1,2,0:0:0:0:
298,192,63730,1,4,0:0:0:0:
128,192,64120,1,8,0:0:0:0:
42,192,64315,1,2,0:0:0:0:
42,192,64509,1,2,0:0:0:0:
128,192,64899,1,8,0:0:0:0:
213,192,65094,1,0,0:0:0:70:LR_Tom Hit 3.wav
42,192,65289,1,2,0:0:0:0:
298,192,65289,1,4,0:0:0:0:
469,192,65289,1,0,0:0:0:50:C#8S_Db8S.wav
128,192,65678,1,8,0:0:0:0:
213,192,65873,1,0,0:0:0:70:LR_Tom Hit 3.wav
42,192,66068,1,2,0:0:0:0:
469,192,66068,1,0,0:0:0:50:D#8S_Eb8S.wav
128,192,66263,1,8,0:0:0:0:
128,192,66457,1,8,0:0:0:0:
128,192,66555,1,8,0:0:0:0:
213,192,66652,1,0,0:0:0:60:LR_Tom Normal.wav
298,192,66847,1,4,0:0:0:0:
128,192,67237,1,8,0:0:0:0:
42,192,67431,1,2,0:0:0:0:
42,192,67626,1,2,0:0:0:0:
128,192,68016,1,8,0:0:0:0:
298,192,68211,1,4,0:0:0:0:
42,192,68211,1,2,0:0:0:0:
213,192,68600,1,0,0:0:0:60:LR_Tom Hit.wav
213,192,68990,1,0,0:0:0:60:LR_Tom Hit.wav
213,192,69282,1,0,0:0:0:40:LR_Clap Med .wav
213,192,69380,1,0,0:0:0:60:LR_Tom Hit.wav
128,192,69574,1,8,0:0:0:0:
128,192,69672,1,8,0:0:0:0:
213,192,69769,1,0,0:0:0:60:LR_Tom Drop.wav
42,192,69964,1,2,0:0:0:0:
298,192,69964,1,4,0:0:0:0:
128,192,70354,1,8,0:0:0:0:
469,192,70354,1,0,0:0:0:40:F8S.wav
42,192,70548,1,2,0:0:0:0:
42,192,70743,1,2,0:0:0:0:
469,192,70743,1,0,0:0:0:40:D#8S_Eb8S.wav
128,192,71133,1,8,0:0:0:0:
42,192,71328,1,2,0:0:0:0:
298,192,71328,1,4,0:0:0:0:
42,192,71717,1,2,0:0:0:0:
128,192,71912,1,8,0:0:0:0:
42,192,72107,1,2,0:0:0:0:
42,192,72302,1,2,0:0:0:0:
213,192,72691,1,0,0:0:0:60:LR_Tom Hit.wav
213,192,72886,1,0,0:0:0:60:LR_Tom Drop.wav
298,192,73081,1,4,0:0:0:0:
128,192,73470,1,8,0:0:0:0:
42,192,73665,1,2,0:0:0:0:
42,192,73860,1,2,0:0:0:0:
128,192,74250,1,8,0:0:0:0:
213,192,74444,1,0,0:0:0:70:LR_Tom Hit 3.wav
42,192,74639,1,2,0:0:0:0:
469,192,74639,1,0,0:0:0:40:F#8S_Gb8S.wav
42,192,74834,1,2,0:0:0:0:
469,192,74834,1,0,0:0:0:40:F8S.wav
128,192,75029,1,8,0:0:0:0:
469,192,75029,1,0,0:0:0:40:D#8S_Eb8S.wav
42,192,75224,1,2,0:0:0:0:
298,192,75224,1,4,0:0:0:0:
469,192,75224,1,0,0:0:0:40:F8S.wav
42,192,75613,1,2,0:0:0:0:
128,192,75808,1,8,0:0:0:0:
42,192,76198,1,2,0:0:0:0:
298,192,76198,1,4,0:0:0:0:
128,192,76587,1,8,0:0:0:0:
42,192,76782,1,2,0:0:0:0:
213,192,76977,1,0,0:0:0:70:LR_Tom Hit 3.wav
42,192,77172,1,2,0:0:0:0:
128,192,77367,1,8,0:0:0:0:
42,192,77561,1,2,0:0:0:0:
128,192,77756,1,8,0:0:0:0:
298,192,77756,1,4,0:0:0:0:
469,192,77756,1,0,0:0:0:40:C8S.wav
42,192,77951,1,2,0:0:0:0:
128,192,78146,1,8,0:0:0:0:
42,192,78341,1,2,0:0:0:0:
128,192,78535,1,8,0:0:0:0:
469,192,78535,1,0,0:0:0:40:C#8S_Db8S.wav
42,192,78730,1,2,0:0:0:0:
128,192,78925,1,8,0:0:0:0:
469,192,78925,1,0,0:0:0:40:D#8S_Eb8S.wav
128,192,79120,1,8,0:0:0:0:
298,192,79509,1,4,0:0:0:0:
213,192,79509,1,0,0:0:0:50:LR_Tom Hit.wav
298,192,79704,1,4,0:0:0:0:
213,192,79704,1,0,0:0:0:50:LR_Tom Hit.wav
213,192,80094,1,0,0:0:0:50:LR_Tom Drop.wav
213,192,80289,1,0,0:0:0:50:LR_Tom Drop.wav
42,192,80483,1,2,0:0:0:0:
298,192,80678,1,4,0:0:0:0:
128,192,80678,1,8,0:0:0:0:
42,192,81068,1,2,0:0:0:0:
128,192,81263,1,8,0:0:0:0:
298,192,81263,1,4,0:0:0:0:
42,192,81457,1,2,0:0:0:0:
128,192,81652,1,8,0:0:0:0:
42,192,81847,1,2,0:0:0:0:
128,192,82042,1,8,0:0:0:0:
213,192,82237,1,0,0:0:0:60:LR_Tom Hit 3.wav
42,192,82431,1,2,0:0:0:0:
298,192,82626,1,4,0:0:0:0:
213,192,82626,1,0,0:0:0:50:LR_Tom Hit.wav
469,192,82626,1,0,0:0:0:40:C#8S_Db8S.wav
298,192,83211,1,4,0:0:0:0:
213,192,83211,1,0,0:0:0:50:LR_Tom Hit.wav
469,192,83211,1,0,0:0:0:40:D#8S_Eb8S.wav
213,192,83795,1,0,0:0:0:50:LR_Tom Normal.wav
298,192,83795,1,4,0:0:0:0:
469,192,83795,1,0,0:0:0:40:F8S.wav
128,192,86912,5,8,0:0:0:0:
213,192,86977,1,0,0:0:0:50:LR_Tom Normal.wav
213,192,87042,1,0,0:0:0:50:LR_Tom Drop.wav
64,192,87107,1,2,0:0:0:0:
