osu file format v14

[General]
AudioFilename: audio.mp3
AudioLeadIn: 0
PreviewTime: 53406
Countdown: 0
SampleSet: Soft
StackLeniency: 0.7
Mode: 3
LetterboxInBreaks: 0
SpecialStyle: 0
WidescreenStoryboard: 1

[Editor]
DistanceSpacing: 0.5
BeatDivisor: 4
GridSize: 32
TimelineZoom: 2.3

[Metadata]
Title:Zero Centimeters (TV Size)
TitleUnicode:ゼロセンチメートル (TV Size)
Artist:Ohara Yuiko
ArtistUnicode:大原ゆい子
Creator:[Ping]
Version:Ankh's Easy
Source:からかい上手の高木さん2
Tags:karakai jouzu no takagi-san 2 skilled teaser op opening jpop japanese anime 星に名前をつけるとき hoshi ni namae wo tsukeru toki ankhph THCS-60245 THCS-60246 THCA-60249
BeatmapID:2098470
BeatmapSetID:1000994

[Difficulty]
HPDrainRate:7
CircleSize:4
OverallDifficulty:7
ApproachRate:5
SliderMultiplier:1.4
SliderTickRate:1

[Events]
//Background and Video events
Video,0,"video.mp4"
0,0,"bg.jpg",0,0
//Break Periods
//Storyboard Layer 0 (Background)
//Storyboard Layer 1 (Fail)
//Storyboard Layer 2 (Pass)
//Storyboard Layer 3 (Foreground)
//Storyboard Layer 4 (Overlay)
//Storyboard Sound Samples
Sample,25354,0,"LR_Tom Hit.wav",50
Sample,25548,0,"LR_Tom Hit.wav",50
Sample,58276,0,"D#8S_Eb8S.wav",40
Sample,58665,0,"C8S.wav",40
Sample,58860,0,"C#8S_Db8S.wav",40
Sample,66068,0,"D#8S_Eb8S.wav",50
Sample,70354,0,"F8S.wav",40
Sample,70743,0,"D#8S_Eb8S.wav",40
Sample,74639,0,"F#8S_Gb8S.wav",40
Sample,74834,0,"F8S.wav",40
Sample,75029,0,"D#8S_Eb8S.wav",40
Sample,78535,0,"C#8S_Db8S.wav",40
Sample,78925,0,"D#8S_Eb8S.wav",40
Sample,82626,0,"C#8S_Db8S.wav",40
Sample,83211,0,"D#8S_Eb8S.wav",40
Sample,83795,0,"F8S.wav",40

[TimingPoints]
614,389.61038961039,4,2,1,45,1,0
15419,389.61038961039,4,2,1,60,1,0
26328,-100,4,2,1,45,0,0
54380,-100,4,2,1,65,0,1
76198,-100,4,2,1,60,0,0

[HitObjects]
448,192,614,128,0,2172:0:0:0:0:
64,192,2172,1,0,0:0:0:0:
192,192,2951,1,0,0:0:0:30:LR_Clap Med .wav
320,192,3341,1,0,0:0:0:0:
64,192,3730,1,0,0:0:0:0:
448,192,3730,1,0,0:0:0:0:
320,192,4510,1,0,0:0:0:30:LR_Clap Med .wav
192,192,4899,1,0,0:0:0:0:
64,192,5289,1,0,0:0:0:0:
320,192,5289,1,0,0:0:0:0:
448,192,5678,1,0,0:0:0:0:
192,192,6068,128,0,6847:0:0:0:30:LR_Clap Med .wav
320,192,6847,1,0,0:0:0:40:D#8S_Eb8S.wav
448,192,6847,1,0,0:0:0:0:
64,192,7626,1,0,0:0:0:40:F8S.wav
192,192,7626,1,0,0:0:0:0:
64,192,8406,1,0,0:0:0:40:C#8S_Db8S.wav
448,192,8406,1,0,0:0:0:0:
320,192,9185,1,0,0:0:0:30:LR_Clap Med .wav
192,192,9575,1,0,0:0:0:0:
64,192,9964,1,0,0:0:0:40:C8S.wav
320,192,9964,1,0,0:0:0:0:
192,192,10549,1,0,0:0:0:40:C#8S_Db8S.wav
448,192,10549,1,0,0:0:0:0:
64,192,11133,1,0,0:0:0:0:
320,192,11523,1,0,0:0:0:40:D#8S_Eb8S.wav
448,192,11523,1,0,0:0:0:0:
192,192,12302,1,0,0:0:0:30:LR_Clap Med .wav
320,192,12691,1,0,0:0:0:0:
64,192,13081,1,0,0:0:0:40:F8S.wav
448,192,13081,1,0,0:0:0:0:
320,192,13860,1,0,0:0:0:30:LR_Clap Med .wav
192,192,14445,128,0,15419:0:0:0:0:
320,192,15419,1,4,0:0:0:0:
448,192,15419,1,0,0:0:0:0:
64,192,15808,1,8,0:0:0:0:
448,192,16003,1,2,0:0:0:0:
320,192,16393,1,2,0:0:0:0:
64,192,16782,1,4,0:0:0:0:
192,192,16782,1,8,0:0:0:0:
320,192,17172,1,2,0:0:0:0:
64,192,17367,1,8,0:0:0:0:
320,192,17756,1,2,0:0:0:0:
192,192,17951,1,2,0:0:0:0:
448,192,18146,1,8,0:0:0:0:
64,192,18535,1,4,0:0:0:0:
320,192,18535,1,2,0:0:0:0:
192,192,18925,1,8,0:0:0:0:
448,192,19120,1,2,0:0:0:0:
64,192,19509,1,2,0:0:0:0:
320,192,19899,1,4,0:0:0:0:
448,192,19899,1,8,0:0:0:0:
192,192,20289,1,2,0:0:0:0:
448,192,20483,1,8,0:0:0:0:
64,192,20873,1,2,0:0:0:0:
192,192,21068,1,2,0:0:0:0:
320,192,21263,1,8,0:0:0:0:
64,192,21652,1,4,0:0:0:0:
448,192,21652,1,8,0:0:0:0:
192,192,22042,1,2,0:0:0:0:
320,192,22237,1,4,0:0:0:0:
448,192,22237,1,8,0:0:0:0:
320,192,22626,1,2,0:0:0:0:
64,192,22821,1,8,0:0:0:0:
192,192,22821,1,4,0:0:0:0:
192,192,23211,1,2,0:0:0:0:
448,192,23406,1,0,0:0:0:50:LR_Tom Hit.wav
64,192,23600,1,8,0:0:0:0:
192,192,23795,1,2,0:0:0:0:
320,192,23990,1,4,0:0:0:0:
448,192,23990,1,0,0:0:0:50:LR_Tom Hit.wav
320,192,24380,1,2,0:0:0:0:
64,192,24574,1,8,0:0:0:0:
192,192,24574,1,4,0:0:0:0:
320,192,25354,1,8,0:0:0:0:
320,192,25548,1,8,0:0:0:0:
64,192,26328,1,0,0:0:0:0:
448,192,26328,1,0,0:0:0:0:
192,192,26912,1,0,0:0:0:0:
320,192,27496,1,0,0:0:0:30:LR_Clap Med .wav
64,192,27886,1,0,0:0:0:0:
448,192,28470,1,0,0:0:0:0:
320,192,29055,1,0,0:0:0:30:LR_Clap Med .wav
64,192,29444,1,0,0:0:0:0:
192,192,29444,1,0,0:0:0:0:
320,192,30029,128,0,30613:0:0:0:30:LR_Clap Med .wav
192,192,30613,1,0,0:0:0:30:LR_Clap Med .wav
64,192,31003,1,0,0:0:0:0:
320,192,31003,1,0,0:0:0:0:
192,192,31587,1,0,0:0:0:30:LR_Clap Med .wav
320,192,32172,1,0,0:0:0:30:LR_Clap Med .wav
64,192,32561,1,0,0:0:0:0:
448,192,32561,1,0,0:0:0:0:
192,192,33146,1,0,0:0:0:0:
448,192,33341,1,0,0:0:0:0:
320,192,33730,1,0,0:0:0:30:LR_Clap Med .wav
192,192,34120,128,0,34704:0:0:0:0:
320,192,34704,128,0,35289:0:0:0:0:
64,192,35289,1,0,0:0:0:30:LR_Clap Med .wav
192,192,35678,1,0,0:0:0:0:
448,192,35678,1,0,0:0:0:0:
320,192,36263,1,0,0:0:0:0:
192,192,36457,1,0,0:0:0:0:
64,192,36847,1,0,0:0:0:30:LR_Clap Med .wav
192,192,37237,128,0,38016:0:0:0:0:
448,192,37237,1,0,0:0:0:0:
320,192,38016,1,0,0:0:0:50:LR_Tom Hit.wav
64,192,38211,1,0,0:0:0:50:LR_Tom Hit.wav
448,192,38406,1,0,0:0:0:50:LR_Tom Hit.wav
192,192,38600,1,0,0:0:0:50:LR_Tom Normal.wav
64,192,39185,1,4,0:0:0:0:
448,192,39185,1,8,0:0:0:0:
320,192,39769,1,0,0:0:0:50:LR_Tom Normal.wav
192,192,39964,1,0,0:0:0:50:LR_Tom Drop.wav
64,192,40159,1,4,0:0:0:0:
448,192,40159,1,0,0:0:0:0:
320,192,40548,1,2,0:0:0:0:
192,192,40743,1,8,0:0:0:0:
320,192,41133,1,2,0:0:0:0:
64,192,41328,1,2,0:0:0:0:
448,192,41522,1,8,0:0:0:0:
192,192,41912,1,2,0:0:0:0:
64,192,42302,1,8,0:0:0:0:
448,192,42496,1,2,0:0:0:0:
320,192,42886,1,2,0:0:0:0:
192,192,43081,1,8,0:0:0:0:
64,192,43276,1,4,0:0:0:0:
320,192,43276,1,2,0:0:0:0:
192,192,43665,1,2,0:0:0:0:
448,192,43860,1,8,0:0:0:0:
64,192,44250,1,8,0:0:0:0:
320,192,44639,1,8,0:0:0:0:
192,192,45029,1,2,0:0:0:0:
64,192,45419,1,4,0:0:0:0:
448,192,45419,1,8,0:0:0:0:
320,192,45808,1,8,0:0:0:0:
192,192,46198,1,2,0:0:0:0:
320,192,46393,1,4,0:0:0:0:
448,192,46393,1,2,0:0:0:0:
64,192,46782,1,2,0:0:0:0:
448,192,46977,1,8,0:0:0:0:
64,192,47367,1,2,0:0:0:0:
192,192,47561,1,2,0:0:0:0:
320,192,47756,1,8,0:0:0:0:
64,192,48146,1,2,0:0:0:0:
448,192,48146,1,4,0:0:0:0:
192,192,48535,1,8,0:0:0:0:
320,192,48925,1,2,0:0:0:0:
192,192,49120,1,2,0:0:0:0:
448,192,49315,1,8,0:0:0:0:
64,192,49509,1,2,0:0:0:0:
320,192,49899,1,2,0:0:0:0:
64,192,50094,1,8,0:0:0:0:
192,192,50483,1,2,0:0:0:0:
320,192,50678,1,2,0:0:0:0:
448,192,50873,1,8,0:0:0:0:
64,192,51263,1,12,0:0:0:0:
192,192,51263,1,0,0:0:0:40:D#8S_Eb8S.wav
320,192,51847,1,12,0:0:0:0:
448,192,51847,1,0,0:0:0:40:F8S.wav
64,192,52431,1,12,0:0:0:0:
192,192,52431,1,0,0:0:0:40:F#8S_Gb8S.wav
448,192,52821,1,0,0:0:0:70:LR_Tom Hit 3.wav
64,192,53016,1,0,0:0:0:70:LR_Tom Hit 3.wav
448,192,53211,1,0,0:0:0:70:LR_Tom Hit 3.wav
64,192,54380,1,2,0:0:0:0:
192,192,54380,1,4,0:0:0:0:
320,192,54769,1,8,0:0:0:0:
192,192,54964,1,2,0:0:0:0:
448,192,55159,1,2,0:0:0:0:
320,192,55548,1,8,0:0:0:0:
64,192,55743,1,2,0:0:0:0:
448,192,55938,1,2,0:0:0:0:
192,192,56328,1,8,0:0:0:0:
320,192,56522,1,2,0:0:0:0:
64,192,56717,1,2,0:0:0:0:
192,192,57107,1,8,0:0:0:0:
448,192,57302,1,2,0:0:0:0:
64,192,57496,1,2,0:0:0:0:
320,192,57886,1,8,0:0:0:0:
64,192,58081,1,2,0:0:0:0:
448,192,58276,1,2,0:0:0:0:
320,192,58665,1,8,0:0:0:0:
192,192,58860,1,2,0:0:0:0:
64,192,59055,1,2,0:0:0:0:
448,192,59055,1,4,0:0:0:0:
192,192,59444,1,8,0:0:0:0:
448,192,59639,1,2,0:0:0:0:
64,192,59834,1,2,0:0:0:0:
192,192,60224,1,8,0:0:0:0:
320,192,60419,1,2,0:0:0:0:
448,192,60613,1,4,0:0:0:0:
64,192,60613,1,2,0:0:0:0:
192,192,61003,1,8,0:0:0:0:
320,192,61198,1,2,0:0:0:0:
64,192,61393,1,2,0:0:0:0:
448,192,61782,1,8,0:0:0:0:
320,192,61977,1,2,0:0:0:0:
64,192,62172,1,2,0:0:0:0:
192,192,62172,1,4,0:0:0:0:
448,192,62561,1,8,0:0:0:0:
64,192,62756,1,2,0:0:0:0:
192,192,62756,1,4,0:0:0:0:
320,192,63146,1,2,0:0:0:0:
192,192,63341,1,8,0:0:0:0:
64,192,63730,1,2,0:0:0:0:
448,192,63730,1,4,0:0:0:0:
320,192,64120,1,8,0:0:0:0:
192,192,64315,1,2,0:0:0:0:
64,192,64509,1,2,0:0:0:0:
320,192,64899,1,8,0:0:0:0:
192,192,65289,1,6,0:0:0:0:
448,192,65289,1,0,0:0:0:50:C#8S_Db8S.wav
64,192,65678,1,8,0:0:0:0:
320,192,66068,1,2,0:0:0:0:
192,192,66263,1,8,0:0:0:0:
448,192,66457,128,8,66847:0:0:0:0:
64,192,66847,1,4,0:0:0:0:
192,192,66847,1,0,0:0:0:0:
320,192,67237,1,8,0:0:0:0:
192,192,67431,1,2,0:0:0:0:
448,192,67626,1,2,0:0:0:0:
320,192,68016,1,8,0:0:0:0:
64,192,68211,1,4,0:0:0:0:
192,192,68211,1,2,0:0:0:0:
320,192,68600,1,0,0:0:0:60:LR_Tom Hit.wav
64,192,68990,1,0,0:0:0:60:LR_Tom Hit.wav
448,192,69380,1,0,0:0:0:60:LR_Tom Hit.wav
192,192,69574,1,8,0:0:0:0:
320,192,69769,1,0,0:0:0:60:LR_Tom Drop.wav
64,192,69964,1,2,0:0:0:0:
192,192,69964,1,4,0:0:0:0:
448,192,70354,1,8,0:0:0:0:
192,192,70548,1,2,0:0:0:0:
320,192,70743,1,2,0:0:0:0:
64,192,71133,1,8,0:0:0:0:
320,192,71328,1,2,0:0:0:0:
448,192,71328,1,4,0:0:0:0:
192,192,71717,1,2,0:0:0:0:
448,192,71912,1,8,0:0:0:0:
64,192,72107,1,2,0:0:0:0:
320,192,72302,1,2,0:0:0:0:
192,192,72691,1,0,0:0:0:60:LR_Tom Hit.wav
64,192,73081,1,4,0:0:0:0:
448,192,73081,1,0,0:0:0:0:
320,192,73470,1,8,0:0:0:0:
64,192,73665,1,2,0:0:0:0:
448,192,73860,1,2,0:0:0:0:
192,192,74250,1,8,0:0:0:0:
64,192,74639,1,2,0:0:0:0:
448,192,74834,1,2,0:0:0:0:
192,192,75029,1,8,0:0:0:0:
320,192,75224,1,6,0:0:0:0:
448,192,75224,1,0,0:0:0:40:F8S.wav
192,192,75613,1,2,0:0:0:0:
320,192,75808,1,8,0:0:0:0:
64,192,76198,1,2,0:0:0:0:
448,192,76198,1,4,0:0:0:0:
192,192,76587,1,8,0:0:0:0:
320,192,76782,1,2,0:0:0:0:
64,192,76977,1,0,0:0:0:70:LR_Tom Hit 3.wav
448,192,77172,1,2,0:0:0:0:
192,192,77367,1,8,0:0:0:0:
64,192,77756,1,12,0:0:0:0:
320,192,77756,1,0,0:0:0:40:C8S.wav
448,192,78146,1,8,0:0:0:0:
320,192,78535,1,8,0:0:0:0:
64,192,78730,1,2,0:0:0:0:
448,192,78925,1,8,0:0:0:0:
192,192,79120,1,8,0:0:0:0:
320,192,79509,1,4,0:0:0:0:
448,192,79509,1,0,0:0:0:50:LR_Tom Hit.wav
64,192,79704,1,4,0:0:0:0:
192,192,79704,1,0,0:0:0:50:LR_Tom Hit.wav
448,192,80094,1,0,0:0:0:50:LR_Tom Drop.wav
64,192,80289,1,0,0:0:0:50:LR_Tom Drop.wav
192,192,80678,1,4,0:0:0:0:
448,192,80678,1,8,0:0:0:0:
64,192,81068,1,2,0:0:0:0:
320,192,81263,1,12,0:0:0:0:
192,192,81457,1,2,0:0:0:0:
320,192,81652,1,8,0:0:0:0:
448,192,81652,1,0,0:0:0:0:
64,192,82042,1,8,0:0:0:0:
192,192,82042,1,0,0:0:0:0:
192,192,82626,1,4,0:0:0:0:
448,192,82626,1,0,0:0:0:50:LR_Tom Hit.wav
64,192,83211,1,4,0:0:0:0:
320,192,83211,1,0,0:0:0:50:LR_Tom Hit.wav
64,192,83795,1,4,0:0:0:0:
448,192,83795,128,0,86912:0:0:0:50:LR_Tom Normal.wav
320,192,86912,1,8,0:0:0:0:
192,192,87107,1,2,0:0:0:0:
