osu file format v14

[General]
AudioFilename: audio.mp3
AudioLeadIn: 0
PreviewTime: 53699
Countdown: 0
SampleSet: Normal
StackLeniency: 0.7
Mode: 3
LetterboxInBreaks: 0
SpecialStyle: 0
WidescreenStoryboard: 0

[Editor]
DistanceSpacing: 0.3
BeatDivisor: 4
GridSize: 16
TimelineZoom: 1.6

[Metadata]
Title:Zero Centimeter
TitleUnicode:ゼロセンチメートル
Artist:Ohara Yuiko
ArtistUnicode:大原ゆい子
Creator:Finesse4k
Version:Distance
Source:からかい上手の高木さん2
Tags:karakai jouzu no takagi-san teasing master takagi san season two 2 opening anime japanese
BeatmapID:2130343
BeatmapSetID:1017927

[Difficulty]
HPDrainRate:5
CircleSize:4
OverallDifficulty:5
ApproachRate:5
SliderMultiplier:1.4
SliderTickRate:1

[Events]
//Background and Video events
0,0,"Harunatsu-Karakai-Jouzu-no-Takagi-san-04-720p-Hi444PP-AACC6413447.mkv_snapshot_05.41_2018.03.05_00.57.37.jpg",0,0
//Break Periods
//Storyboard Layer 0 (Background)
//Storyboard Layer 1 (Fail)
//Storyboard Layer 2 (Pass)
//Storyboard Layer 3 (Foreground)
//Storyboard Layer 4 (Overlay)
//Storyboard Sound Samples

[TimingPoints]
2369,779.220779220779,4,1,0,100,1,0
2369,-50,4,1,0,100,0,0
15615,389.61038961039,4,1,0,100,1,0
15615,-100,4,1,0,100,0,0
38697,-100,4,1,0,100,0,0

[HitObjects]
64,192,615,5,0,0:0:0:0:
192,192,713,1,0,0:0:0:0:
448,192,810,128,0,1589:0:0:0:0:
320,192,810,1,0,0:0:0:0:
192,192,1589,128,0,2369:0:0:0:0:
320,192,2369,128,0,3148:0:0:0:0:
448,192,3343,128,0,3537:0:0:0:0:
320,192,3537,128,0,3732:0:0:0:0:
192,192,3732,128,0,3927:0:0:0:0:
64,192,3927,128,0,4122:0:0:0:0:
320,192,4317,128,0,4706:0:0:0:0:
192,192,4706,128,0,5096:0:0:0:0:
320,192,5096,128,0,5291:0:0:0:0:
448,192,5291,128,0,6070:0:0:0:0:
320,192,5485,1,0,0:0:0:0:
192,192,5583,1,0,0:0:0:0:
320,192,6070,128,0,6265:0:0:0:0:
192,192,6070,1,0,0:0:0:0:
192,192,6265,128,0,6459:0:0:0:0:
64,192,6265,1,0,0:0:0:0:
64,192,6459,128,0,6654:0:0:0:0:
192,192,6654,128,0,6849:0:0:0:0:
320,192,6654,1,0,0:0:0:0:
320,192,6849,128,0,7044:0:0:0:0:
448,192,6849,1,0,0:0:0:0:
448,192,7044,128,0,7628:0:0:0:0:
64,192,7044,1,0,0:0:0:0:
320,192,7628,128,0,7823:0:0:0:0:
64,192,7823,128,0,8018:0:0:0:0:
192,192,7823,1,0,0:0:0:0:
192,192,8018,128,0,8213:0:0:0:0:
320,192,8213,128,0,8407:0:0:0:0:
192,192,8407,128,0,8602:0:0:0:0:
448,192,8602,128,0,9381:0:0:0:0:
64,192,8602,1,0,0:0:0:0:
320,192,9381,128,0,10161:0:0:0:0:
192,192,10161,128,0,10745:0:0:0:0:
64,192,10161,1,0,0:0:0:0:
320,192,10745,128,0,11330:0:0:0:0:
448,192,10745,1,0,0:0:0:0:
64,192,11719,1,0,0:0:0:0:
448,192,11719,128,0,11914:0:0:0:0:
192,192,12109,1,0,0:0:0:0:
320,192,12109,128,0,12304:0:0:0:0:
448,192,12498,1,0,0:0:0:0:
192,192,12498,128,0,12693:0:0:0:0:
448,192,12888,128,0,13083:0:0:0:0:
64,192,12888,1,0,0:0:0:0:
192,192,13278,1,0,0:0:0:0:
64,192,13278,128,0,14057:0:0:0:0:
192,192,14057,128,0,14641:0:0:0:0:
320,192,14057,1,0,0:0:0:0:
448,192,14154,1,0,0:0:0:0:
448,192,14641,128,0,15420:0:0:0:0:
320,192,15420,1,0,0:0:0:0:
192,192,15518,1,0,0:0:0:0:
64,192,15615,128,0,16004:0:0:0:0:
448,192,16004,1,0,0:0:0:0:
192,192,16199,128,0,16394:0:0:0:0:
320,192,16199,1,0,0:0:0:0:
448,192,16589,1,0,0:0:0:0:
320,192,16589,128,0,16783:0:0:0:0:
64,192,16978,1,0,0:0:0:0:
192,192,16978,128,0,17563:0:0:0:0:
320,192,17563,1,0,0:0:0:0:
448,192,17757,1,0,0:0:0:0:
192,192,17952,1,0,0:0:0:0:
64,192,18147,128,0,18342:0:0:0:0:
192,192,18342,128,0,18537:0:0:0:0:
320,192,18537,128,0,18731:0:0:0:0:
448,192,18731,128,0,19121:0:0:0:0:
64,192,18731,1,0,0:0:0:0:
320,192,19121,128,0,19316:0:0:0:0:
192,192,19316,128,0,19511:0:0:0:0:
64,192,19705,128,0,19900:0:0:0:0:
192,192,19900,128,0,20095:0:0:0:0:
320,192,20095,128,0,20290:0:0:0:0:
448,192,20095,1,0,0:0:0:0:
192,192,20290,1,0,0:0:0:0:
64,192,20387,1,0,0:0:0:0:
192,192,20485,1,0,0:0:0:0:
320,192,20582,1,0,0:0:0:0:
448,192,20679,1,0,0:0:0:0:
320,192,20777,1,0,0:0:0:0:
192,192,20874,1,0,0:0:0:0:
64,192,20972,1,0,0:0:0:0:
320,192,21069,1,0,0:0:0:0:
448,192,21069,1,0,0:0:0:0:
192,192,21166,1,0,0:0:0:0:
64,192,21166,1,0,0:0:0:0:
320,192,21264,1,0,0:0:0:0:
448,192,21264,1,0,0:0:0:0:
64,192,21361,1,0,0:0:0:0:
192,192,21459,1,0,0:0:0:0:
320,192,21459,1,0,0:0:0:0:
320,192,21653,1,0,0:0:0:0:
192,192,21848,1,0,0:0:0:0:
448,192,21848,1,0,0:0:0:0:
320,192,22043,1,0,0:0:0:0:
192,192,22238,1,0,0:0:0:0:
64,192,22433,128,0,22627:0:0:0:0:
192,192,22627,1,0,0:0:0:0:
448,192,22627,1,0,0:0:0:0:
320,192,22822,1,0,0:0:0:0:
448,192,23017,128,0,23212:0:0:0:0:
320,192,23212,1,0,0:0:0:0:
64,192,23212,1,0,0:0:0:0:
64,192,23407,128,0,23699:0:0:0:0:
192,192,23407,1,0,0:0:0:0:
320,192,23602,1,0,0:0:0:0:
448,192,23699,128,0,23991:0:0:0:0:
320,192,23991,128,0,24186:0:0:0:0:
192,192,24186,128,0,24381:0:0:0:0:
64,192,24186,1,0,0:0:0:0:
320,192,24381,1,0,0:0:0:0:
448,192,24381,128,0,24576:0:0:0:0:
320,192,24576,1,0,0:0:0:0:
64,192,24770,128,0,25550:0:0:0:0:
192,192,24770,1,0,0:0:0:0:
448,192,25550,128,0,25647:0:0:0:0:
320,192,25550,128,0,25647:0:0:0:0:
320,192,25744,128,0,25842:0:0:0:0:
448,192,25744,128,0,25842:0:0:0:0:
448,192,26524,1,0,0:0:0:0:
64,192,26524,1,0,0:0:0:0:
192,192,26718,1,0,0:0:0:0:
448,192,26913,1,0,0:0:0:0:
320,192,26913,1,0,0:0:0:0:
192,192,27108,1,0,0:0:0:0:
448,192,27303,1,0,0:0:0:0:
448,192,27692,1,0,0:0:0:0:
320,192,27692,1,0,0:0:0:0:
64,192,28082,1,0,0:0:0:0:
448,192,28082,1,0,0:0:0:0:
320,192,28277,1,0,0:0:0:0:
64,192,28472,1,0,0:0:0:0:
448,192,28472,1,0,0:0:0:0:
192,192,28666,1,0,0:0:0:0:
320,192,28861,1,0,0:0:0:0:
320,192,29251,1,0,0:0:0:0:
64,192,29251,1,0,0:0:0:0:
192,192,29640,1,0,0:0:0:0:
448,192,29640,1,0,0:0:0:0:
320,192,29835,1,0,0:0:0:0:
192,192,30030,1,0,0:0:0:0:
320,192,30225,128,0,30420:0:0:0:0:
448,192,30420,128,0,30615:0:0:0:0:
320,192,30615,128,0,30809:0:0:0:0:
192,192,30809,128,0,31004:0:0:0:0:
64,192,31004,128,0,31199:0:0:0:0:
448,192,31199,1,0,0:0:0:0:
320,192,31296,1,0,0:0:0:0:
192,192,31394,1,0,0:0:0:0:
64,192,31589,1,0,0:0:0:0:
320,192,31589,1,0,0:0:0:0:
192,192,31783,1,0,0:0:0:0:
320,192,31978,1,0,0:0:0:0:
320,192,32368,1,0,0:0:0:0:
64,192,32368,1,0,0:0:0:0:
192,192,32757,1,0,0:0:0:0:
448,192,32757,1,0,0:0:0:0:
320,192,32952,1,0,0:0:0:0:
192,192,33147,1,0,0:0:0:0:
64,192,33147,1,0,0:0:0:0:
448,192,33342,1,0,0:0:0:0:
64,192,33537,1,0,0:0:0:0:
320,192,33926,1,0,0:0:0:0:
192,192,33926,1,0,0:0:0:0:
192,192,34316,1,0,0:0:0:0:
448,192,34316,1,0,0:0:0:0:
320,192,34511,1,0,0:0:0:0:
192,192,34705,1,0,0:0:0:0:
64,192,34705,1,0,0:0:0:0:
448,192,34900,1,0,0:0:0:0:
192,192,35095,1,0,0:0:0:0:
192,192,35485,1,0,0:0:0:0:
64,192,35485,1,0,0:0:0:0:
192,192,35874,1,0,0:0:0:0:
448,192,35874,1,0,0:0:0:0:
320,192,36069,1,0,0:0:0:0:
64,192,36264,1,0,0:0:0:0:
192,192,36264,1,0,0:0:0:0:
320,192,36459,1,0,0:0:0:0:
448,192,36653,1,0,0:0:0:0:
448,192,37043,1,0,0:0:0:0:
192,192,37043,1,0,0:0:0:0:
64,192,37433,1,0,0:0:0:0:
320,192,37433,1,0,0:0:0:0:
192,192,37627,1,0,0:0:0:0:
320,192,37822,1,0,0:0:0:0:
448,192,38017,1,0,0:0:0:0:
64,192,38212,1,0,0:0:0:0:
192,192,38212,1,0,0:0:0:0:
448,192,38407,1,0,0:0:0:0:
320,192,38407,1,0,0:0:0:0:
64,192,38602,1,0,0:0:0:0:
192,192,38602,1,0,0:0:0:0:
320,192,38699,1,0,0:0:0:0:
448,192,38699,1,0,0:0:0:0:
64,192,38796,1,0,0:0:0:0:
192,192,38796,1,0,0:0:0:0:
64,192,39381,128,0,40160:0:0:0:0:
448,192,39381,128,0,40160:0:0:0:0:
192,192,39965,1,0,0:0:0:0:
320,192,39965,1,0,0:0:0:0:
448,192,40355,128,0,41134:0:0:0:0:
64,192,40355,128,0,41134:0:0:0:0:
320,192,40939,1,0,0:0:0:0:
192,192,41134,1,0,0:0:0:0:
64,192,41329,1,0,0:0:0:0:
192,192,41524,1,0,0:0:0:0:
192,192,41718,1,0,0:0:0:0:
448,192,41718,1,0,0:0:0:0:
320,192,41913,1,0,0:0:0:0:
64,192,42108,128,0,42692:0:0:0:0:
192,192,42108,1,0,0:0:0:0:
448,192,42303,1,0,0:0:0:0:
320,192,42498,1,0,0:0:0:0:
192,192,42692,1,0,0:0:0:0:
448,192,42887,1,0,0:0:0:0:
320,192,43082,1,0,0:0:0:0:
192,192,43277,1,0,0:0:0:0:
320,192,43472,1,0,0:0:0:0:
64,192,43472,128,0,44056:0:0:0:0:
192,192,43861,1,0,0:0:0:0:
448,192,43861,1,0,0:0:0:0:
320,192,44056,1,0,0:0:0:0:
192,192,44251,1,0,0:0:0:0:
448,192,44446,128,0,44835:0:0:0:0:
64,192,44446,1,0,0:0:0:0:
64,192,44835,128,0,45225:0:0:0:0:
192,192,44835,1,0,0:0:0:0:
448,192,45225,1,0,0:0:0:0:
64,192,45615,128,0,46004:0:0:0:0:
448,192,45615,128,0,46004:0:0:0:0:
320,192,46004,1,0,0:0:0:0:
192,192,46199,1,0,0:0:0:0:
64,192,46394,1,0,0:0:0:0:
320,192,46589,1,0,0:0:0:0:
192,192,46589,1,0,0:0:0:0:
448,192,46978,1,0,0:0:0:0:
192,192,46978,1,0,0:0:0:0:
320,192,47173,1,0,0:0:0:0:
320,192,47368,1,0,0:0:0:0:
192,192,47563,1,0,0:0:0:0:
64,192,47757,1,0,0:0:0:0:
192,192,47952,1,0,0:0:0:0:
448,192,47952,1,0,0:0:0:0:
320,192,48147,1,0,0:0:0:0:
192,192,48342,1,0,0:0:0:0:
64,192,48342,1,0,0:0:0:0:
192,192,48537,1,0,0:0:0:0:
320,192,48731,1,0,0:0:0:0:
448,192,48926,1,0,0:0:0:0:
64,192,49121,1,0,0:0:0:0:
192,192,49121,1,0,0:0:0:0:
448,192,49316,1,0,0:0:0:0:
320,192,49511,1,0,0:0:0:0:
192,192,49705,1,0,0:0:0:0:
448,192,50095,1,0,0:0:0:0:
192,192,50095,1,0,0:0:0:0:
64,192,50290,1,0,0:0:0:0:
192,192,50485,1,0,0:0:0:0:
448,192,50679,1,0,0:0:0:0:
64,192,50679,1,0,0:0:0:0:
320,192,50874,1,0,0:0:0:0:
192,192,51069,1,0,0:0:0:0:
64,192,51264,1,0,0:0:0:0:
448,192,51459,128,0,52043:0:0:0:0:
192,192,51459,1,0,0:0:0:0:
320,192,51848,1,0,0:0:0:0:
192,192,52043,1,0,0:0:0:0:
64,192,52043,128,0,52627:0:0:0:0:
320,192,52627,128,0,52822:0:0:0:0:
192,192,52627,1,0,0:0:0:0:
64,192,53017,128,0,53602:0:0:0:0:
320,192,53017,128,0,53115:0:0:0:0:
448,192,53017,128,0,53115:0:0:0:0:
448,192,53212,128,0,53309:0:0:0:0:
320,192,53212,128,0,53309:0:0:0:0:
320,192,53407,128,0,53504:0:0:0:0:
448,192,53407,128,0,53504:0:0:0:0:
448,192,54576,128,0,55355:0:0:0:0:
320,192,54576,1,0,0:0:0:0:
64,192,54965,1,0,0:0:0:0:
192,192,55160,1,0,0:0:0:0:
64,192,55355,1,0,0:0:0:0:
448,192,55744,1,0,0:0:0:0:
320,192,55939,1,0,0:0:0:0:
64,192,56134,1,0,0:0:0:0:
192,192,56134,1,0,0:0:0:0:
192,192,56524,1,0,0:0:0:0:
320,192,56718,1,0,0:0:0:0:
448,192,56913,1,0,0:0:0:0:
64,192,56913,1,0,0:0:0:0:
64,192,57303,1,0,0:0:0:0:
448,192,57303,1,0,0:0:0:0:
192,192,57498,1,0,0:0:0:0:
320,192,57692,1,0,0:0:0:0:
448,192,57692,1,0,0:0:0:0:
64,192,58082,1,0,0:0:0:0:
448,192,58082,1,0,0:0:0:0:
192,192,58277,1,0,0:0:0:0:
320,192,58277,1,0,0:0:0:0:
448,192,58472,1,0,0:0:0:0:
64,192,58472,128,0,58666:0:0:0:0:
192,192,58666,128,0,58861:0:0:0:0:
320,192,58861,128,0,59056:0:0:0:0:
448,192,59056,128,0,59251:0:0:0:0:
192,192,59251,1,0,0:0:0:0:
64,192,59251,128,0,59446:0:0:0:0:
192,192,59640,1,0,0:0:0:0:
320,192,59835,1,0,0:0:0:0:
64,192,60030,1,0,0:0:0:0:
192,192,60030,1,0,0:0:0:0:
320,192,60225,1,0,0:0:0:0:
448,192,60420,1,0,0:0:0:0:
320,192,60615,1,0,0:0:0:0:
64,192,60809,1,0,0:0:0:0:
192,192,60809,1,0,0:0:0:0:
192,192,61199,1,0,0:0:0:0:
448,192,61199,1,0,0:0:0:0:
320,192,61394,1,0,0:0:0:0:
64,192,61589,1,0,0:0:0:0:
192,192,61589,1,0,0:0:0:0:
64,192,61978,1,0,0:0:0:0:
320,192,61978,1,0,0:0:0:0:
192,192,62173,1,0,0:0:0:0:
448,192,62368,128,0,62952:0:0:0:0:
320,192,62368,1,0,0:0:0:0:
192,192,62563,1,0,0:0:0:0:
64,192,62757,1,0,0:0:0:0:
64,192,62952,128,0,63537:0:0:0:0:
192,192,62952,1,0,0:0:0:0:
320,192,63342,1,0,0:0:0:0:
448,192,63537,1,0,0:0:0:0:
448,192,63926,1,0,0:0:0:0:
320,192,64121,1,0,0:0:0:0:
192,192,64316,1,0,0:0:0:0:
448,192,64316,1,0,0:0:0:0:
64,192,64511,1,0,0:0:0:0:
64,192,64705,1,0,0:0:0:0:
192,192,64900,1,0,0:0:0:0:
320,192,65095,1,0,0:0:0:0:
448,192,65095,1,0,0:0:0:0:
192,192,65290,1,0,0:0:0:0:
64,192,65485,1,0,0:0:0:0:
448,192,65485,1,0,0:0:0:0:
192,192,65679,1,0,0:0:0:0:
320,192,65874,1,0,0:0:0:0:
448,192,66069,1,0,0:0:0:0:
64,192,66264,128,0,66556:0:0:0:0:
448,192,66459,1,0,0:0:0:0:
320,192,66459,1,0,0:0:0:0:
64,192,66653,1,0,0:0:0:0:
192,192,66653,1,0,0:0:0:0:
320,192,66751,1,0,0:0:0:0:
448,192,66751,1,0,0:0:0:0:
64,192,66848,1,0,0:0:0:0:
192,192,66848,1,0,0:0:0:0:
192,192,67043,1,0,0:0:0:0:
320,192,67043,1,0,0:0:0:0:
320,192,67238,1,0,0:0:0:0:
448,192,67433,1,0,0:0:0:0:
320,192,67627,1,0,0:0:0:0:
192,192,67822,1,0,0:0:0:0:
64,192,67822,128,0,68017:0:0:0:0:
448,192,68017,1,0,0:0:0:0:
320,192,68212,1,0,0:0:0:0:
64,192,68407,128,0,68602:0:0:0:0:
448,192,68407,128,0,68602:0:0:0:0:
192,192,68796,128,0,68991:0:0:0:0:
448,192,68796,128,0,68991:0:0:0:0:
64,192,69186,128,0,69381:0:0:0:0:
320,192,69186,128,0,69381:0:0:0:0:
192,192,69576,128,0,69770:0:0:0:0:
320,192,69576,128,0,69770:0:0:0:0:
448,192,69770,1,0,0:0:0:0:
320,192,69868,1,0,0:0:0:0:
192,192,69965,1,0,0:0:0:0:
64,192,69965,1,0,0:0:0:0:
448,192,69965,1,0,0:0:0:0:
320,192,70160,1,0,0:0:0:0:
192,192,70160,1,0,0:0:0:0:
448,192,70355,1,0,0:0:0:0:
320,192,70550,1,0,0:0:0:0:
192,192,70744,1,0,0:0:0:0:
64,192,70939,1,0,0:0:0:0:
448,192,70939,1,0,0:0:0:0:
192,192,71134,1,0,0:0:0:0:
320,192,71329,1,0,0:0:0:0:
448,192,71524,128,0,71913:0:0:0:0:
64,192,71524,1,0,0:0:0:0:
64,192,71913,128,0,72303:0:0:0:0:
320,192,71913,1,0,0:0:0:0:
320,192,72108,1,0,0:0:0:0:
448,192,72303,128,0,72498:0:0:0:0:
192,192,72303,1,0,0:0:0:0:
320,192,72498,1,0,0:0:0:0:
192,192,72692,1,0,0:0:0:0:
64,192,72887,1,0,0:0:0:0:
448,192,73082,128,0,73472:0:0:0:0:
320,192,73082,1,0,0:0:0:0:
64,192,73277,1,0,0:0:0:0:
192,192,73277,1,0,0:0:0:0:
64,192,73666,128,0,74056:0:0:0:0:
192,192,73861,1,0,0:0:0:0:
448,192,74056,128,0,74446:0:0:0:0:
320,192,74056,1,0,0:0:0:0:
320,192,74446,1,0,0:0:0:0:
192,192,74640,1,0,0:0:0:0:
448,192,74835,128,0,75030:0:0:0:0:
320,192,75030,128,0,75225:0:0:0:0:
192,192,75225,128,0,75420:0:0:0:0:
64,192,75420,128,0,75615:0:0:0:0:
320,192,75809,1,0,0:0:0:0:
192,192,76004,1,0,0:0:0:0:
448,192,76004,1,0,0:0:0:0:
320,192,76199,1,0,0:0:0:0:
192,192,76394,1,0,0:0:0:0:
64,192,76394,1,0,0:0:0:0:
64,192,76783,1,0,0:0:0:0:
192,192,76978,1,0,0:0:0:0:
320,192,77173,1,0,0:0:0:0:
448,192,77173,128,0,77368:0:0:0:0:
192,192,77368,1,0,0:0:0:0:
64,192,77563,1,0,0:0:0:0:
192,192,77563,1,0,0:0:0:0:
320,192,77757,1,0,0:0:0:0:
448,192,77952,1,0,0:0:0:0:
64,192,77952,1,0,0:0:0:0:
320,192,78147,1,0,0:0:0:0:
64,192,78342,1,0,0:0:0:0:
192,192,78342,1,0,0:0:0:0:
320,192,78537,1,0,0:0:0:0:
64,192,78731,1,0,0:0:0:0:
448,192,78731,1,0,0:0:0:0:
192,192,78926,1,0,0:0:0:0:
448,192,79121,1,0,0:0:0:0:
320,192,79121,1,0,0:0:0:0:
320,192,79316,1,0,0:0:0:0:
448,192,79316,1,0,0:0:0:0:
64,192,79705,128,0,79900:0:0:0:0:
448,192,79705,128,0,79900:0:0:0:0:
192,192,79705,1,0,0:0:0:0:
320,192,79900,1,0,0:0:0:0:
320,192,80290,1,0,0:0:0:0:
448,192,80290,128,0,80485:0:0:0:0:
64,192,80290,128,0,80485:0:0:0:0:
192,192,80485,1,0,0:0:0:0:
192,192,80874,128,0,81264:0:0:0:0:
320,192,80874,128,0,81264:0:0:0:0:
448,192,81459,1,0,0:0:0:0:
64,192,81459,1,0,0:0:0:0:
320,192,81653,1,0,0:0:0:0:
64,192,81848,128,0,82043:0:0:0:0:
448,192,82238,128,0,82433:0:0:0:0:
64,192,82822,128,0,83017:0:0:0:0:
320,192,82822,1,0,0:0:0:0:
448,192,82822,128,0,83017:0:0:0:0:
192,192,83017,1,0,0:0:0:0:
448,192,83407,128,0,83602:0:0:0:0:
192,192,83407,1,0,0:0:0:0:
64,192,83407,128,0,83602:0:0:0:0:
320,192,83602,1,0,0:0:0:0:
448,192,83991,128,0,84381:0:0:0:0:
64,192,83991,128,0,84381:0:0:0:0:
448,192,84770,128,0,84868:0:0:0:0:
320,192,84868,128,0,84965:0:0:0:0:
192,192,84965,128,0,85063:0:0:0:0:
64,192,85063,128,0,85160:0:0:0:0:
448,192,85160,1,0,0:0:0:0:
320,192,85257,1,0,0:0:0:0:
192,192,85355,1,0,0:0:0:0:
64,192,85452,1,0,0:0:0:0:
320,192,85452,1,0,0:0:0:0:
192,192,85550,1,0,0:0:0:0:
448,192,85647,1,0,0:0:0:0:
64,192,85647,1,0,0:0:0:0:
64,192,85939,128,0,86134:0:0:0:0:
448,192,85939,128,0,86134:0:0:0:0:
320,192,85939,1,0,0:0:0:0:
192,192,86134,1,0,0:0:0:0:
64,192,86524,128,0,86718:0:0:0:0:
192,192,86524,128,0,86718:0:0:0:0:
448,192,86524,1,0,0:0:0:0:
320,192,86718,1,0,0:0:0:0:
64,192,87108,128,0,87692:0:0:0:0:
192,192,87108,128,0,87692:0:0:0:0:
320,192,87108,128,0,87692:0:0:0:0:
448,192,87108,128,0,87692:0:0:0:0:
448,192,87887,1,0,0:0:0:0:
320,192,88082,1,0,0:0:0:0:
192,192,88277,1,0,0:0:0:0:
64,192,88472,1,0,0:0:0:0:
192,192,88666,1,0,0:0:0:0:
448,192,88666,128,0,89348:0:0:0:0:
448,192,89835,128,0,90225:0:0:0:0:
320,192,89835,1,0,0:0:0:0:
192,192,90420,1,0,0:0:0:0:
448,192,90420,1,0,0:0:0:0:
320,192,90615,1,0,0:0:0:0:
192,192,90712,1,0,0:0:0:0:
64,192,90809,1,0,0:0:0:0:
448,192,90907,1,0,0:0:0:0:
320,192,91004,1,0,0:0:0:0:
192,192,91004,1,0,0:0:0:0:
64,192,91199,1,0,0:0:0:0:
192,192,91296,1,0,0:0:0:0:
320,192,91394,1,0,0:0:0:0:
448,192,91491,1,0,0:0:0:0:
64,192,91589,1,0,0:0:0:0:
192,192,91589,1,0,0:0:0:0:
320,192,91783,1,0,0:0:0:0:
448,192,91978,1,0,0:0:0:0:
192,192,91978,1,0,0:0:0:0:
320,192,92173,1,0,0:0:0:0:
192,192,92270,1,0,0:0:0:0:
64,192,92368,1,0,0:0:0:0:
192,192,92563,1,0,0:0:0:0:
448,192,92563,1,0,0:0:0:0:
320,192,92757,1,0,0:0:0:0:
192,192,92952,1,0,0:0:0:0:
64,192,93050,1,0,0:0:0:0:
320,192,93147,1,0,0:0:0:0:
448,192,93147,1,0,0:0:0:0:
64,192,93342,1,0,0:0:0:0:
192,192,93537,1,0,0:0:0:0:
448,192,93537,1,0,0:0:0:0:
320,192,93731,1,0,0:0:0:0:
192,192,93829,1,0,0:0:0:0:
64,192,93926,1,0,0:0:0:0:
448,192,94121,1,0,0:0:0:0:
192,192,94121,1,0,0:0:0:0:
320,192,94316,1,0,0:0:0:0:
192,192,94511,1,0,0:0:0:0:
64,192,94705,1,0,0:0:0:0:
320,192,94705,1,0,0:0:0:0:
192,192,94900,1,0,0:0:0:0:
448,192,95095,1,0,0:0:0:0:
320,192,95095,1,0,0:0:0:0:
64,192,95290,1,0,0:0:0:0:
192,192,95387,1,0,0:0:0:0:
320,192,95485,1,0,0:0:0:0:
64,192,95679,1,0,0:0:0:0:
448,192,95679,1,0,0:0:0:0:
320,192,95874,1,0,0:0:0:0:
192,192,96069,1,0,0:0:0:0:
448,192,96264,1,0,0:0:0:0:
320,192,96264,1,0,0:0:0:0:
64,192,96459,1,0,0:0:0:0:
192,192,96653,1,0,0:0:0:0:
448,192,96653,1,0,0:0:0:0:
64,192,96848,1,0,0:0:0:0:
192,192,96946,1,0,0:0:0:0:
320,192,97043,1,0,0:0:0:0:
64,192,97238,1,0,0:0:0:0:
320,192,97238,1,0,0:0:0:0:
192,192,97433,1,0,0:0:0:0:
320,192,97627,1,0,0:0:0:0:
192,192,97822,1,0,0:0:0:0:
448,192,97822,1,0,0:0:0:0:
64,192,98017,128,0,98115:0:0:0:0:
192,192,98115,128,0,98212:0:0:0:0:
320,192,98212,128,0,98407:0:0:0:0:
192,192,98504,1,0,0:0:0:0:
64,192,98602,1,0,0:0:0:0:
192,192,98796,1,0,0:0:0:0:
448,192,98796,1,0,0:0:0:0:
320,192,98991,1,0,0:0:0:0:
192,192,99089,1,0,0:0:0:0:
64,192,99186,1,0,0:0:0:0:
320,192,99381,1,0,0:0:0:0:
448,192,99381,1,0,0:0:0:0:
448,192,99576,1,0,0:0:0:0:
320,192,99673,1,0,0:0:0:0:
64,192,99770,1,0,0:0:0:0:
192,192,99770,1,0,0:0:0:0:
448,192,99965,1,0,0:0:0:0:
192,192,100160,1,0,0:0:0:0:
64,192,100355,1,0,0:0:0:0:
448,192,100355,1,0,0:0:0:0:
320,192,100550,1,0,0:0:0:0:
192,192,100647,1,0,0:0:0:0:
64,192,100744,1,0,0:0:0:0:
192,192,100939,1,0,0:0:0:0:
448,192,100939,1,0,0:0:0:0:
320,192,101134,1,0,0:0:0:0:
320,192,101329,1,0,0:0:0:0:
192,192,101426,1,0,0:0:0:0:
64,192,101524,1,0,0:0:0:0:
192,192,101621,1,0,0:0:0:0:
320,192,101718,1,0,0:0:0:0:
64,192,101718,1,0,0:0:0:0:
448,192,101816,1,0,0:0:0:0:
320,192,101913,1,0,0:0:0:0:
192,192,102011,1,0,0:0:0:0:
64,192,102108,1,0,0:0:0:0:
320,192,102108,1,0,0:0:0:0:
192,192,102205,1,0,0:0:0:0:
320,192,102303,1,0,0:0:0:0:
448,192,102400,1,0,0:0:0:0:
64,192,102498,1,0,0:0:0:0:
192,192,102498,1,0,0:0:0:0:
320,192,102692,1,0,0:0:0:0:
448,192,102887,128,0,103666:0:0:0:0:
320,192,103277,1,0,0:0:0:0:
192,192,103472,1,0,0:0:0:0:
64,192,103666,1,0,0:0:0:0:
448,192,104056,1,0,0:0:0:0:
320,192,104251,1,0,0:0:0:0:
64,192,104446,128,0,104738:0:0:0:0:
192,192,104446,1,0,0:0:0:0:
320,192,104835,1,0,0:0:0:0:
448,192,105030,1,0,0:0:0:0:
192,192,105420,1,0,0:0:0:0:
448,192,105420,1,0,0:0:0:0:
320,192,105615,1,0,0:0:0:0:
448,192,105809,1,0,0:0:0:0:
64,192,106004,128,0,106394:0:0:0:0:
192,192,106004,1,0,0:0:0:0:
320,192,106394,1,0,0:0:0:0:
448,192,106394,128,0,106783:0:0:0:0:
192,192,106783,128,0,107173:0:0:0:0:
64,192,106783,1,0,0:0:0:0:
320,192,107173,128,0,107368:0:0:0:0:
192,192,107368,1,0,0:0:0:0:
64,192,107368,128,0,107563:0:0:0:0:
320,192,107563,1,0,0:0:0:0:
192,192,107757,1,0,0:0:0:0:
448,192,107757,1,0,0:0:0:0:
320,192,107855,1,0,0:0:0:0:
192,192,107952,1,0,0:0:0:0:
64,192,107952,1,0,0:0:0:0:
192,192,108147,1,0,0:0:0:0:
320,192,108244,1,0,0:0:0:0:
192,192,108342,1,0,0:0:0:0:
448,192,108342,1,0,0:0:0:0:
64,192,108439,1,0,0:0:0:0:
192,192,108537,1,0,0:0:0:0:
320,192,108537,1,0,0:0:0:0:
448,192,108634,1,0,0:0:0:0:
64,192,108731,1,0,0:0:0:0:
192,192,108731,1,0,0:0:0:0:
320,192,108926,1,0,0:0:0:0:
448,192,108926,1,0,0:0:0:0:
64,192,109511,128,0,110095:0:0:0:0:
448,192,109511,128,0,110095:0:0:0:0:
320,192,109900,1,0,0:0:0:0:
192,192,110095,1,0,0:0:0:0:
192,192,110290,1,0,0:0:0:0:
320,192,110485,1,0,0:0:0:0:
448,192,110485,1,0,0:0:0:0:
64,192,110874,1,0,0:0:0:0:
192,192,111069,1,0,0:0:0:0:
448,192,111069,1,0,0:0:0:0:
320,192,111264,1,0,0:0:0:0:
192,192,111459,1,0,0:0:0:0:
192,192,111653,1,0,0:0:0:0:
320,192,111848,1,0,0:0:0:0:
448,192,111848,1,0,0:0:0:0:
192,192,112043,1,0,0:0:0:0:
64,192,112238,1,0,0:0:0:0:
320,192,112238,1,0,0:0:0:0:
192,192,112433,1,0,0:0:0:0:
64,192,112627,1,0,0:0:0:0:
64,192,112822,1,0,0:0:0:0:
192,192,113017,1,0,0:0:0:0:
448,192,113017,1,0,0:0:0:0:
320,192,113212,1,0,0:0:0:0:
192,192,113407,1,0,0:0:0:0:
320,192,113602,1,0,0:0:0:0:
448,192,113602,128,0,113991:0:0:0:0:
320,192,113991,1,0,0:0:0:0:
192,192,114186,1,0,0:0:0:0:
64,192,114186,1,0,0:0:0:0:
320,192,114381,1,0,0:0:0:0:
192,192,114576,1,0,0:0:0:0:
192,192,114770,1,0,0:0:0:0:
320,192,114965,1,0,0:0:0:0:
448,192,114965,1,0,0:0:0:0:
192,192,115160,1,0,0:0:0:0:
320,192,115355,1,0,0:0:0:0:
64,192,115355,128,0,115939:0:0:0:0:
448,192,115355,128,0,115939:0:0:0:0:
320,192,115744,1,0,0:0:0:0:
192,192,115939,1,0,0:0:0:0:
320,192,116329,1,0,0:0:0:0:
192,192,116524,1,0,0:0:0:0:
448,192,116524,1,0,0:0:0:0:
64,192,116524,128,0,116913:0:0:0:0:
448,192,116913,1,0,0:0:0:0:
192,192,117108,1,0,0:0:0:0:
64,192,117205,1,0,0:0:0:0:
320,192,117303,1,0,0:0:0:0:
448,192,117303,1,0,0:0:0:0:
192,192,117498,1,0,0:0:0:0:
64,192,117692,1,0,0:0:0:0:
192,192,117790,1,0,0:0:0:0:
320,192,117887,1,0,0:0:0:0:
448,192,117985,1,0,0:0:0:0:
64,192,117985,1,0,0:0:0:0:
192,192,117985,1,0,0:0:0:0:
320,192,118082,1,0,0:0:0:0:
64,192,118179,1,0,0:0:0:0:
192,192,118179,1,0,0:0:0:0:
320,192,118277,1,0,0:0:0:0:
448,192,118277,1,0,0:0:0:0:
192,192,118472,1,0,0:0:0:0:
64,192,118472,128,0,118764:0:0:0:0:
448,192,118861,1,0,0:0:0:0:
320,192,119056,1,0,0:0:0:0:
192,192,119251,1,0,0:0:0:0:
64,192,119251,128,0,119640:0:0:0:0:
448,192,119640,1,0,0:0:0:0:
192,192,119835,1,0,0:0:0:0:
320,192,120030,1,0,0:0:0:0:
448,192,120030,128,0,120420:0:0:0:0:
320,192,120420,1,0,0:0:0:0:
192,192,120615,1,0,0:0:0:0:
64,192,120809,1,0,0:0:0:0:
320,192,120809,128,0,121199:0:0:0:0:
192,192,121199,1,0,0:0:0:0:
64,192,121394,1,0,0:0:0:0:
448,192,121589,128,0,121978:0:0:0:0:
320,192,121589,1,0,0:0:0:0:
320,192,122173,1,0,0:0:0:0:
448,192,122368,1,0,0:0:0:0:
64,192,122563,1,0,0:0:0:0:
192,192,122660,1,0,0:0:0:0:
320,192,122757,1,0,0:0:0:0:
448,192,122952,1,0,0:0:0:0:
64,192,123147,128,0,123537:0:0:0:0:
192,192,123147,1,0,0:0:0:0:
448,192,123537,1,0,0:0:0:0:
192,192,123731,1,0,0:0:0:0:
64,192,123926,1,0,0:0:0:0:
320,192,123926,1,0,0:0:0:0:
448,192,124121,1,0,0:0:0:0:
192,192,124316,1,0,0:0:0:0:
64,192,124511,1,0,0:0:0:0:
320,192,124705,1,0,0:0:0:0:
448,192,124705,128,0,125485:0:0:0:0:
320,192,125095,1,0,0:0:0:0:
192,192,125290,1,0,0:0:0:0:
64,192,125485,1,0,0:0:0:0:
320,192,125874,1,0,0:0:0:0:
64,192,126069,1,0,0:0:0:0:
320,192,126264,1,0,0:0:0:0:
448,192,126264,128,0,126848:0:0:0:0:
320,192,126459,1,0,0:0:0:0:
192,192,126653,1,0,0:0:0:0:
320,192,126848,1,0,0:0:0:0:
448,192,127238,1,0,0:0:0:0:
320,192,127433,1,0,0:0:0:0:
64,192,127433,1,0,0:0:0:0:
192,192,127627,1,0,0:0:0:0:
320,192,127822,1,0,0:0:0:0:
192,192,128017,1,0,0:0:0:0:
64,192,128212,1,0,0:0:0:0:
320,192,128407,1,0,0:0:0:0:
448,192,128602,1,0,0:0:0:0:
64,192,128602,1,0,0:0:0:0:
192,192,128796,1,0,0:0:0:0:
320,192,128991,1,0,0:0:0:0:
448,192,129186,1,0,0:0:0:0:
192,192,129381,1,0,0:0:0:0:
448,192,129381,1,0,0:0:0:0:
320,192,129576,1,0,0:0:0:0:
192,192,129770,1,0,0:0:0:0:
448,192,129965,1,0,0:0:0:0:
448,192,130160,1,0,0:0:0:0:
320,192,130160,1,0,0:0:0:0:
64,192,130257,1,0,0:0:0:0:
192,192,130257,1,0,0:0:0:0:
320,192,130355,1,0,0:0:0:0:
448,192,130355,1,0,0:0:0:0:
192,192,130550,1,0,0:0:0:0:
448,192,130550,1,0,0:0:0:0:
64,192,130744,1,0,0:0:0:0:
192,192,130744,1,0,0:0:0:0:
320,192,130842,1,0,0:0:0:0:
448,192,130842,1,0,0:0:0:0:
64,192,130939,1,0,0:0:0:0:
192,192,130939,1,0,0:0:0:0:
192,192,131329,1,0,0:0:0:0:
448,192,131329,1,0,0:0:0:0:
320,192,131524,1,0,0:0:0:0:
320,192,131718,1,0,0:0:0:0:
192,192,131913,1,0,0:0:0:0:
320,192,132108,1,0,0:0:0:0:
448,192,132303,128,0,132692:0:0:0:0:
320,192,132303,1,0,0:0:0:0:
320,192,132692,128,0,133082:0:0:0:0:
192,192,132692,1,0,0:0:0:0:
192,192,133082,128,0,133472:0:0:0:0:
64,192,133082,1,0,0:0:0:0:
64,192,133472,128,0,133861:0:0:0:0:
448,192,133472,1,0,0:0:0:0:
320,192,133666,1,0,0:0:0:0:
320,192,133861,1,0,0:0:0:0:
448,192,133861,128,0,134446:0:0:0:0:
192,192,133959,1,0,0:0:0:0:
64,192,134056,1,0,0:0:0:0:
64,192,134446,1,0,0:0:0:0:
320,192,134640,1,0,0:0:0:0:
192,192,134835,1,0,0:0:0:0:
64,192,135030,1,0,0:0:0:0:
320,192,135030,1,0,0:0:0:0:
192,192,135225,1,0,0:0:0:0:
320,192,135420,1,0,0:0:0:0:
448,192,135420,128,0,135712:0:0:0:0:
64,192,135809,1,0,0:0:0:0:
192,192,136004,1,0,0:0:0:0:
320,192,136199,1,0,0:0:0:0:
192,192,136394,1,0,0:0:0:0:
448,192,136394,1,0,0:0:0:0:
320,192,136589,1,0,0:0:0:0:
192,192,136783,1,0,0:0:0:0:
448,192,136978,1,0,0:0:0:0:
320,192,137076,1,0,0:0:0:0:
192,192,137173,128,0,137563:0:0:0:0:
320,192,137563,1,0,0:0:0:0:
448,192,137563,128,0,137952:0:0:0:0:
64,192,137757,1,0,0:0:0:0:
320,192,137952,128,0,138147:0:0:0:0:
192,192,138342,1,0,0:0:0:0:
448,192,138537,1,0,0:0:0:0:
320,192,138634,1,0,0:0:0:0:
64,192,138731,128,0,138926:0:0:0:0:
192,192,138731,1,0,0:0:0:0:
192,192,138926,128,0,139121:0:0:0:0:
320,192,139121,128,0,139316:0:0:0:0:
448,192,139316,128,0,139511:0:0:0:0:
64,192,139705,1,0,0:0:0:0:
320,192,139705,1,0,0:0:0:0:
192,192,139900,1,0,0:0:0:0:
320,192,140095,1,0,0:0:0:0:
192,192,140290,1,0,0:0:0:0:
448,192,140290,128,0,140679:0:0:0:0:
320,192,140679,1,0,0:0:0:0:
192,192,140874,1,0,0:0:0:0:
64,192,141069,1,0,0:0:0:0:
192,192,141069,128,0,141459:0:0:0:0:
448,192,141459,1,0,0:0:0:0:
320,192,141653,1,0,0:0:0:0:
64,192,141848,1,0,0:0:0:0:
448,192,141848,1,0,0:0:0:0:
192,192,142043,1,0,0:0:0:0:
320,192,142238,1,0,0:0:0:0:
448,192,142238,1,0,0:0:0:0:
192,192,142433,1,0,0:0:0:0:
64,192,142627,1,0,0:0:0:0:
320,192,142627,1,0,0:0:0:0:
192,192,142725,1,0,0:0:0:0:
64,192,142822,1,0,0:0:0:0:
448,192,142822,1,0,0:0:0:0:
320,192,142920,1,0,0:0:0:0:
64,192,143017,1,0,0:0:0:0:
448,192,143017,1,0,0:0:0:0:
192,192,143115,1,0,0:0:0:0:
320,192,143115,1,0,0:0:0:0:
64,192,143407,1,0,0:0:0:0:
192,192,143504,1,0,0:0:0:0:
320,192,143602,128,0,143796:0:0:0:0:
448,192,143796,128,0,143991:0:0:0:0:
320,192,143991,128,0,144186:0:0:0:0:
64,192,144186,128,0,144478:0:0:0:0:
192,192,144186,1,0,0:0:0:0:
192,192,144478,128,0,144673:0:0:0:0:
64,192,144673,128,0,144965:0:0:0:0:
192,192,144965,1,0,0:0:0:0:
320,192,144965,128,0,145160:0:0:0:0:
448,192,145160,128,0,145355:0:0:0:0:
320,192,145355,128,0,145550:0:0:0:0:
192,192,145550,128,0,145744:0:0:0:0:
64,192,145744,128,0,145939:0:0:0:0:
192,192,145939,128,0,146134:0:0:0:0:
320,192,146134,128,0,146329:0:0:0:0:
448,192,146329,128,0,146524:0:0:0:0:
64,192,146718,128,0,146913:0:0:0:0:
192,192,146718,1,0,0:0:0:0:
192,192,146913,128,0,147108:0:0:0:0:
64,192,147108,128,0,147303:0:0:0:0:
320,192,147303,1,0,0:0:0:0:
448,192,147303,128,0,147498:0:0:0:0:
320,192,147498,128,0,147692:0:0:0:0:
448,192,147692,128,0,147887:0:0:0:0:
64,192,147887,128,0,148082:0:0:0:0:
192,192,148082,128,0,148277:0:0:0:0:
64,192,148277,128,0,148472:0:0:0:0:
192,192,148472,128,0,148666:0:0:0:0:
320,192,148666,128,0,148861:0:0:0:0:
448,192,148861,128,0,149056:0:0:0:0:
320,192,149056,128,0,149251:0:0:0:0:
192,192,149251,128,0,149446:0:0:0:0:
64,192,149446,128,0,149640:0:0:0:0:
192,192,149640,128,0,150225:0:0:0:0:
320,192,150225,128,0,150615:0:0:0:0:
448,192,150615,128,0,150712:0:0:0:0:
320,192,150712,128,0,150809:0:0:0:0:
192,192,150809,128,0,151004:0:0:0:0:
320,192,151004,128,0,151199:0:0:0:0:
64,192,151199,128,0,151394:0:0:0:0:
192,192,151394,128,0,151589:0:0:0:0:
320,192,151589,128,0,151783:0:0:0:0:
448,192,151783,128,0,151978:0:0:0:0:
192,192,151978,128,0,152173:0:0:0:0:
64,192,152173,128,0,152368:0:0:0:0:
192,192,152368,128,0,152563:0:0:0:0:
320,192,152563,128,0,152757:0:0:0:0:
448,192,152757,128,0,153147:0:0:0:0:
192,192,153342,128,0,153926:0:0:0:0:
320,192,153926,128,0,154121:0:0:0:0:
448,192,154121,128,0,154316:0:0:0:0:
320,192,154316,128,0,154413:0:0:0:0:
192,192,154413,128,0,154511:0:0:0:0:
64,192,154511,128,0,154608:0:0:0:0:
192,192,154608,128,0,154705:0:0:0:0:
320,192,154705,128,0,154803:0:0:0:0:
448,192,154803,128,0,154900:0:0:0:0:
320,192,154900,128,0,155095:0:0:0:0:
192,192,155095,128,0,155290:0:0:0:0:
64,192,155290,128,0,155485:0:0:0:0:
192,192,155485,128,0,155679:0:0:0:0:
320,192,155679,128,0,156459:0:0:0:0:
448,192,155679,128,0,156069:0:0:0:0:
192,192,156459,128,0,156848:0:0:0:0:
64,192,156848,128,0,157238:0:0:0:0:
192,192,157238,128,0,157433:0:0:0:0:
320,192,157433,128,0,157627:0:0:0:0:
448,192,157627,128,0,157822:0:0:0:0:
320,192,157822,128,0,157920:0:0:0:0:
192,192,157920,128,0,158017:0:0:0:0:
64,192,158017,128,0,158115:0:0:0:0:
320,192,158212,128,0,158602:0:0:0:0:
192,192,158602,128,0,158796:0:0:0:0:
64,192,158796,128,0,158991:0:0:0:0:
192,192,158991,128,0,159283:0:0:0:0:
320,192,159283,128,0,159576:0:0:0:0:
448,192,159576,128,0,160160:0:0:0:0:
320,192,160160,128,0,160257:0:0:0:0:
192,192,160257,128,0,160355:0:0:0:0:
64,192,160355,128,0,160452:0:0:0:0:
448,192,160355,128,0,160452:0:0:0:0:
320,192,160452,128,0,160550:0:0:0:0:
192,192,160550,128,0,160647:0:0:0:0:
64,192,160647,128,0,160744:0:0:0:0:
448,192,160647,128,0,160744:0:0:0:0:
320,192,160744,128,0,160842:0:0:0:0:
192,192,160842,128,0,160939:0:0:0:0:
64,192,160939,128,0,161037:0:0:0:0:
192,192,161037,128,0,161134:0:0:0:0:
320,192,161134,128,0,161231:0:0:0:0:
448,192,161231,128,0,161329:0:0:0:0:
64,192,161231,128,0,161329:0:0:0:0:
192,192,161329,128,0,161426:0:0:0:0:
320,192,161426,128,0,161524:0:0:0:0:
448,192,161524,128,0,161621:0:0:0:0:
320,192,161621,128,0,161718:0:0:0:0:
192,192,161718,128,0,161816:0:0:0:0:
64,192,161816,128,0,161913:0:0:0:0:
192,192,161913,128,0,162108:0:0:0:0:
320,192,162108,128,0,162692:0:0:0:0:
64,192,162692,128,0,162887:0:0:0:0:
192,192,162887,128,0,163082:0:0:0:0:
320,192,163082,128,0,163277:0:0:0:0:
448,192,163472,128,0,163861:0:0:0:0:
192,192,163861,128,0,164251:0:0:0:0:
64,192,164251,128,0,164640:0:0:0:0:
192,192,164835,128,0,164933:0:0:0:0:
320,192,164933,128,0,165030:0:0:0:0:
192,192,165030,128,0,165127:0:0:0:0:
64,192,165225,128,0,165420:0:0:0:0:
192,192,165420,128,0,165615:0:0:0:0:
320,192,165615,128,0,165809:0:0:0:0:
448,192,165809,128,0,166004:0:0:0:0:
320,192,166004,128,0,166199:0:0:0:0:
192,192,166199,128,0,166394:0:0:0:0:
64,192,166394,128,0,166589:0:0:0:0:
192,192,166589,128,0,166783:0:0:0:0:
320,192,166978,128,0,167173:0:0:0:0:
64,192,167173,128,0,167368:0:0:0:0:
320,192,167368,128,0,168050:0:0:0:0:
64,192,167952,1,0,0:0:0:0:
448,192,168342,128,0,168439:0:0:0:0:
64,192,168342,1,0,0:0:0:0:
320,192,168537,1,0,0:0:0:0:
64,192,168537,128,0,168634:0:0:0:0:
192,192,168731,1,0,0:0:0:0:
448,192,168731,128,0,168829:0:0:0:0:
320,192,168926,1,0,0:0:0:0:
64,192,168926,128,0,169024:0:0:0:0:
192,192,169511,1,0,0:0:0:0:
448,192,169511,128,0,169608:0:0:0:0:
320,192,169705,1,0,0:0:0:0:
64,192,169705,128,0,169803:0:0:0:0:
192,192,169900,1,0,0:0:0:0:
448,192,169900,128,0,169998:0:0:0:0:
64,192,170095,128,0,170192:0:0:0:0:
320,192,170095,1,0,0:0:0:0:
448,192,170679,128,0,170777:0:0:0:0:
64,192,170679,1,0,0:0:0:0:
64,192,170874,128,0,170972:0:0:0:0:
320,192,170874,1,0,0:0:0:0:
192,192,171069,1,0,0:0:0:0:
448,192,171069,1,0,0:0:0:0:
320,192,171166,1,0,0:0:0:0:
192,192,171264,1,0,0:0:0:0:
448,192,171264,1,0,0:0:0:0:
320,192,171459,1,0,0:0:0:0:
64,192,171459,128,0,171556:0:0:0:0:
192,192,171653,1,0,0:0:0:0:
448,192,171653,128,0,171751:0:0:0:0:
64,192,171848,128,0,171946:0:0:0:0:
320,192,171848,1,0,0:0:0:0:
192,192,172043,1,0,0:0:0:0:
448,192,172043,128,0,172140:0:0:0:0:
448,192,172627,128,0,172725:0:0:0:0:
320,192,172627,1,0,0:0:0:0:
320,192,172822,128,0,172920:0:0:0:0:
192,192,172822,1,0,0:0:0:0:
192,192,173017,128,0,173115:0:0:0:0:
64,192,173017,1,0,0:0:0:0:
64,192,173212,1,0,0:0:0:0:
448,192,173212,128,0,173309:0:0:0:0:
320,192,173602,1,0,0:0:0:0:
192,192,173796,1,0,0:0:0:0:
448,192,173796,1,0,0:0:0:0:
320,192,173991,1,0,0:0:0:0:
64,192,174186,1,0,0:0:0:0:
192,192,174576,1,0,0:0:0:0:
448,192,174576,1,0,0:0:0:0:
320,192,174965,1,0,0:0:0:0:
192,192,175160,1,0,0:0:0:0:
64,192,175355,1,0,0:0:0:0:
448,192,175355,1,0,0:0:0:0:
192,192,175550,1,0,0:0:0:0:
320,192,175744,1,0,0:0:0:0:
64,192,175939,1,0,0:0:0:0:
192,192,175939,1,0,0:0:0:0:
192,192,176329,1,0,0:0:0:0:
448,192,176329,1,0,0:0:0:0:
64,192,176524,1,0,0:0:0:0:
320,192,176718,1,0,0:0:0:0:
64,192,176913,1,0,0:0:0:0:
192,192,176913,1,0,0:0:0:0:
320,192,177108,1,0,0:0:0:0:
64,192,177303,1,0,0:0:0:0:
448,192,177303,1,0,0:0:0:0:
320,192,177498,1,0,0:0:0:0:
64,192,177692,1,0,0:0:0:0:
192,192,177692,1,0,0:0:0:0:
320,192,177887,1,0,0:0:0:0:
192,192,178082,1,0,0:0:0:0:
64,192,178277,1,0,0:0:0:0:
320,192,178277,1,0,0:0:0:0:
320,192,178472,1,0,0:0:0:0:
448,192,178472,1,0,0:0:0:0:
192,192,178861,1,0,0:0:0:0:
448,192,178861,1,0,0:0:0:0:
320,192,179056,1,0,0:0:0:0:
64,192,179251,1,0,0:0:0:0:
192,192,179446,1,0,0:0:0:0:
448,192,179640,1,0,0:0:0:0:
64,192,179640,1,0,0:0:0:0:
192,192,180030,1,0,0:0:0:0:
320,192,180030,128,0,180225:0:0:0:0:
192,192,180225,128,0,180420:0:0:0:0:
64,192,180420,128,0,180615:0:0:0:0:
192,192,180809,1,0,0:0:0:0:
448,192,180809,1,0,0:0:0:0:
64,192,181004,1,0,0:0:0:0:
320,192,181199,1,0,0:0:0:0:
192,192,181394,1,0,0:0:0:0:
448,192,181589,1,0,0:0:0:0:
192,192,181783,1,0,0:0:0:0:
320,192,181978,1,0,0:0:0:0:
64,192,182173,1,0,0:0:0:0:
448,192,182173,128,0,183147:0:0:0:0:
192,192,182563,1,0,0:0:0:0:
64,192,182757,1,0,0:0:0:0:
320,192,182757,1,0,0:0:0:0:
192,192,183147,1,0,0:0:0:0:
192,192,183342,1,0,0:0:0:0:
64,192,183537,1,0,0:0:0:0:
448,192,183537,1,0,0:0:0:0:
448,192,183926,128,0,184316:0:0:0:0:
320,192,183926,1,0,0:0:0:0:
192,192,184121,1,0,0:0:0:0:
320,192,184316,128,0,184705:0:0:0:0:
64,192,184316,1,0,0:0:0:0:
192,192,184705,128,0,185095:0:0:0:0:
448,192,184705,1,0,0:0:0:0:
320,192,184900,1,0,0:0:0:0:
64,192,185095,1,0,0:0:0:0:
64,192,185290,1,0,0:0:0:0:
448,192,185290,1,0,0:0:0:0:
320,192,185679,1,0,0:0:0:0:
192,192,185874,1,0,0:0:0:0:
64,192,186069,1,0,0:0:0:0:
192,192,186166,1,0,0:0:0:0:
448,192,186264,1,0,0:0:0:0:
320,192,186264,1,0,0:0:0:0:
448,192,186459,1,0,0:0:0:0:
64,192,186653,1,0,0:0:0:0:
320,192,186653,1,0,0:0:0:0:
448,192,186848,1,0,0:0:0:0:
64,192,187043,1,0,0:0:0:0:
192,192,187043,1,0,0:0:0:0:
320,192,187238,1,0,0:0:0:0:
192,192,187433,1,0,0:0:0:0:
448,192,187433,1,0,0:0:0:0:
320,192,187627,1,0,0:0:0:0:
64,192,187822,1,0,0:0:0:0:
192,192,188017,1,0,0:0:0:0:
64,192,188212,1,0,0:0:0:0:
448,192,188212,1,0,0:0:0:0:
320,192,188407,1,0,0:0:0:0:
320,192,188602,1,0,0:0:0:0:
64,192,188796,1,0,0:0:0:0:
448,192,188796,1,0,0:0:0:0:
192,192,188991,1,0,0:0:0:0:
192,192,189186,1,0,0:0:0:0:
64,192,189381,1,0,0:0:0:0:
448,192,189381,1,0,0:0:0:0:
320,192,189576,1,0,0:0:0:0:
192,192,189770,1,0,0:0:0:0:
320,192,189965,1,0,0:0:0:0:
448,192,190160,128,0,190550:0:0:0:0:
64,192,190160,1,0,0:0:0:0:
320,192,190550,1,0,0:0:0:0:
64,192,190744,1,0,0:0:0:0:
448,192,190744,1,0,0:0:0:0:
320,192,190939,1,0,0:0:0:0:
192,192,191134,1,0,0:0:0:0:
64,192,191329,1,0,0:0:0:0:
448,192,191329,1,0,0:0:0:0:
320,192,191718,1,0,0:0:0:0:
448,192,191718,1,0,0:0:0:0:
192,192,191913,1,0,0:0:0:0:
64,192,192108,1,0,0:0:0:0:
320,192,192303,1,0,0:0:0:0:
448,192,192303,1,0,0:0:0:0:
64,192,192498,1,0,0:0:0:0:
320,192,192692,1,0,0:0:0:0:
192,192,192887,1,0,0:0:0:0:
448,192,192887,1,0,0:0:0:0:
64,192,193082,1,0,0:0:0:0:
448,192,193277,128,0,193764:0:0:0:0:
320,192,193277,1,0,0:0:0:0:
192,192,193666,1,0,0:0:0:0:
64,192,193861,1,0,0:0:0:0:
192,192,194056,1,0,0:0:0:0:
448,192,194056,1,0,0:0:0:0:
64,192,194251,1,0,0:0:0:0:
320,192,194251,1,0,0:0:0:0:
448,192,194446,1,0,0:0:0:0:
64,192,194446,1,0,0:0:0:0:
320,192,194543,1,0,0:0:0:0:
192,192,194640,1,0,0:0:0:0:
64,192,194835,128,0,194933:0:0:0:0:
448,192,194835,128,0,194933:0:0:0:0:
448,192,195615,128,0,196004:0:0:0:0:
448,192,196394,128,0,196589:0:0:0:0:
64,192,196394,1,0,0:0:0:0:
320,192,196589,1,0,0:0:0:0:
192,192,196783,1,0,0:0:0:0:
64,192,196978,1,0,0:0:0:0:
448,192,197563,1,0,0:0:0:0:
64,192,197952,1,0,0:0:0:0:
192,192,198147,1,0,0:0:0:0:
320,192,198342,1,0,0:0:0:0:
448,192,198537,1,0,0:0:0:0:
64,192,198731,1,0,0:0:0:0:
448,192,199121,1,0,0:0:0:0:
64,192,199511,1,0,0:0:0:0:
192,192,199705,1,0,0:0:0:0:
320,192,199900,1,0,0:0:0:0:
448,192,200095,1,0,0:0:0:0:
320,192,200290,1,0,0:0:0:0:
192,192,200485,1,0,0:0:0:0:
320,192,200485,1,0,0:0:0:0:
64,192,200582,1,0,0:0:0:0:
448,192,200582,1,0,0:0:0:0:
192,192,200679,1,0,0:0:0:0:
320,192,200679,1,0,0:0:0:0:
192,192,200874,1,0,0:0:0:0:
64,192,201069,1,0,0:0:0:0:
448,192,201069,1,0,0:0:0:0:
192,192,201264,1,0,0:0:0:0:
320,192,201459,1,0,0:0:0:0:
448,192,201653,1,0,0:0:0:0:
320,192,201848,1,0,0:0:0:0:
192,192,202043,1,0,0:0:0:0:
64,192,202238,1,0,0:0:0:0:
192,192,202433,1,0,0:0:0:0:
320,192,202627,1,0,0:0:0:0:
64,192,203017,128,0,203212:0:0:0:0:
448,192,203017,128,0,203212:0:0:0:0:
192,192,203407,128,0,204186:0:0:0:0:
320,192,203407,128,0,204186:0:0:0:0:
64,192,203407,1,0,0:0:0:0:
448,192,204186,1,0,0:0:0:0:
320,192,204576,1,0,0:0:0:0:
64,192,204770,1,0,0:0:0:0:
448,192,204770,1,0,0:0:0:0:
192,192,205160,1,0,0:0:0:0:
320,192,205160,1,0,0:0:0:0:
448,192,205355,1,0,0:0:0:0:
192,192,205550,1,0,0:0:0:0:
64,192,205744,1,0,0:0:0:0:
320,192,205744,1,0,0:0:0:0:
192,192,206134,1,0,0:0:0:0:
64,192,206329,1,0,0:0:0:0:
448,192,206524,1,0,0:0:0:0:
320,192,206718,1,0,0:0:0:0:
192,192,206913,1,0,0:0:0:0:
320,192,207108,1,0,0:0:0:0:
64,192,207303,1,0,0:0:0:0:
320,192,207400,1,0,0:0:0:0:
64,192,207498,1,0,0:0:0:0:
448,192,207498,1,0,0:0:0:0:
320,192,207595,1,0,0:0:0:0:
192,192,207692,1,0,0:0:0:0:
64,192,207790,1,0,0:0:0:0:
448,192,207790,1,0,0:0:0:0:
192,192,207887,1,0,0:0:0:0:
320,192,207985,1,0,0:0:0:0:
448,192,208082,1,0,0:0:0:0:
64,192,208082,1,0,0:0:0:0:
192,192,208179,1,0,0:0:0:0:
320,192,208277,1,0,0:0:0:0:
448,192,208277,1,0,0:0:0:0:
64,192,208374,1,0,0:0:0:0:
192,192,208374,1,0,0:0:0:0:
320,192,208472,1,0,0:0:0:0:
448,192,208472,1,0,0:0:0:0:
64,192,208569,1,0,0:0:0:0:
192,192,208569,1,0,0:0:0:0:
320,192,208666,1,0,0:0:0:0:
448,192,208666,1,0,0:0:0:0:
64,192,208764,1,0,0:0:0:0:
192,192,208764,1,0,0:0:0:0:
320,192,208861,1,0,0:0:0:0:
448,192,208861,128,0,209251:0:0:0:0:
320,192,209251,1,0,0:0:0:0:
192,192,209446,1,0,0:0:0:0:
64,192,209640,1,0,0:0:0:0:
192,192,209640,1,0,0:0:0:0:
320,192,209738,1,0,0:0:0:0:
448,192,209738,1,0,0:0:0:0:
64,192,209835,1,0,0:0:0:0:
192,192,209835,1,0,0:0:0:0:
320,192,209933,1,0,0:0:0:0:
448,192,209933,1,0,0:0:0:0:
64,192,210030,1,0,0:0:0:0:
192,192,210030,1,0,0:0:0:0:
320,192,210127,1,0,0:0:0:0:
448,192,210127,1,0,0:0:0:0:
64,192,210225,128,0,210615:0:0:0:0:
192,192,210225,1,0,0:0:0:0:
320,192,210615,1,0,0:0:0:0:
448,192,210615,128,0,211004:0:0:0:0:
192,192,211004,1,0,0:0:0:0:
64,192,211004,128,0,211394:0:0:0:0:
192,192,211394,1,0,0:0:0:0:
320,192,211394,1,0,0:0:0:0:
64,192,211589,1,0,0:0:0:0:
192,192,211589,1,0,0:0:0:0:
320,192,211686,1,0,0:0:0:0:
448,192,211686,1,0,0:0:0:0:
64,192,211783,1,0,0:0:0:0:
192,192,211783,1,0,0:0:0:0:
192,192,211978,1,0,0:0:0:0:
448,192,211978,128,0,212173:0:0:0:0:
320,192,212173,128,0,212368:0:0:0:0:
192,192,212368,128,0,212563:0:0:0:0:
64,192,212563,128,0,212757:0:0:0:0:
192,192,212757,128,0,212952:0:0:0:0:
448,192,212855,1,0,0:0:0:0:
192,192,213147,1,0,0:0:0:0:
320,192,213342,1,0,0:0:0:0:
448,192,213342,1,0,0:0:0:0:
64,192,213731,1,0,0:0:0:0:
320,192,213731,1,0,0:0:0:0:
192,192,213926,1,0,0:0:0:0:
192,192,214121,1,0,0:0:0:0:
64,192,214316,1,0,0:0:0:0:
448,192,214316,1,0,0:0:0:0:
320,192,214511,1,0,0:0:0:0:
192,192,214705,1,0,0:0:0:0:
448,192,214900,1,0,0:0:0:0:
192,192,215095,1,0,0:0:0:0:
64,192,215290,1,0,0:0:0:0:
320,192,215485,1,0,0:0:0:0:
448,192,215679,1,0,0:0:0:0:
320,192,215874,1,0,0:0:0:0:
64,192,215874,1,0,0:0:0:0:
192,192,216069,1,0,0:0:0:0:
320,192,216264,1,0,0:0:0:0:
192,192,216459,1,0,0:0:0:0:
448,192,216653,128,0,216848:0:0:0:0:
64,192,216653,1,0,0:0:0:0:
320,192,216848,128,0,217043:0:0:0:0:
192,192,217043,128,0,217238:0:0:0:0:
64,192,217238,128,0,217433:0:0:0:0:
448,192,217627,1,0,0:0:0:0:
320,192,217822,1,0,0:0:0:0:
320,192,218017,1,0,0:0:0:0:
64,192,218212,1,0,0:0:0:0:
192,192,218212,1,0,0:0:0:0:
448,192,218212,128,0,218309:0:0:0:0:
320,192,218309,128,0,218407:0:0:0:0:
192,192,218407,128,0,218504:0:0:0:0:
64,192,218504,128,0,218602:0:0:0:0:
192,192,218602,128,0,218699:0:0:0:0:
320,192,218699,128,0,218796:0:0:0:0:
448,192,218796,128,0,218894:0:0:0:0:
320,192,218894,128,0,218991:0:0:0:0:
192,192,218991,128,0,219089:0:0:0:0:
64,192,219089,128,0,219186:0:0:0:0:
192,192,219186,128,0,219283:0:0:0:0:
320,192,219283,128,0,219381:0:0:0:0:
448,192,219381,128,0,219478:0:0:0:0:
320,192,219478,128,0,219576:0:0:0:0:
192,192,219576,128,0,219673:0:0:0:0:
64,192,219673,128,0,219770:0:0:0:0:
320,192,219770,1,0,0:0:0:0:
448,192,219868,1,0,0:0:0:0:
320,192,219965,1,0,0:0:0:0:
192,192,220063,1,0,0:0:0:0:
64,192,220160,1,0,0:0:0:0:
448,192,220160,1,0,0:0:0:0:
320,192,220355,1,0,0:0:0:0:
64,192,220550,1,0,0:0:0:0:
448,192,220550,1,0,0:0:0:0:
64,192,220744,1,0,0:0:0:0:
192,192,220744,1,0,0:0:0:0:
320,192,220842,1,0,0:0:0:0:
448,192,220842,1,0,0:0:0:0:
64,192,220939,1,0,0:0:0:0:
192,192,220939,1,0,0:0:0:0:
320,192,221037,1,0,0:0:0:0:
448,192,221037,1,0,0:0:0:0:
64,192,221134,1,0,0:0:0:0:
192,192,221134,1,0,0:0:0:0:
320,192,221231,1,0,0:0:0:0:
448,192,221329,128,0,221718:0:0:0:0:
192,192,221329,1,0,0:0:0:0:
320,192,221718,1,0,0:0:0:0:
192,192,221913,1,0,0:0:0:0:
64,192,221913,128,0,222303:0:0:0:0:
320,192,222303,1,0,0:0:0:0:
448,192,222498,1,0,0:0:0:0:
320,192,222692,1,0,0:0:0:0:
64,192,222887,1,0,0:0:0:0:
320,192,223082,1,0,0:0:0:0:
192,192,223277,1,0,0:0:0:0:
448,192,223277,1,0,0:0:0:0:
320,192,223472,1,0,0:0:0:0:
192,192,223666,1,0,0:0:0:0:
64,192,223861,1,0,0:0:0:0:
192,192,224056,1,0,0:0:0:0:
448,192,224056,1,0,0:0:0:0:
320,192,224251,1,0,0:0:0:0:
64,192,224446,1,0,0:0:0:0:
448,192,224446,1,0,0:0:0:0:
320,192,224640,1,0,0:0:0:0:
192,192,224835,1,0,0:0:0:0:
64,192,225030,1,0,0:0:0:0:
448,192,225225,1,0,0:0:0:0:
192,192,225420,1,0,0:0:0:0:
64,192,225615,1,0,0:0:0:0:
448,192,225615,1,0,0:0:0:0:
320,192,225809,1,0,0:0:0:0:
448,192,226004,128,0,226394:0:0:0:0:
192,192,226004,1,0,0:0:0:0:
320,192,226394,1,0,0:0:0:0:
320,192,226589,1,0,0:0:0:0:
64,192,226589,128,0,226978:0:0:0:0:
192,192,226978,1,0,0:0:0:0:
192,192,227173,1,0,0:0:0:0:
448,192,227173,1,0,0:0:0:0:
320,192,227368,1,0,0:0:0:0:
64,192,227563,1,0,0:0:0:0:
192,192,227563,128,0,227952:0:0:0:0:
320,192,227952,128,0,228342:0:0:0:0:
448,192,227952,1,0,0:0:0:0:
192,192,228147,1,0,0:0:0:0:
64,192,228342,1,0,0:0:0:0:
448,192,228342,1,0,0:0:0:0:
320,192,228537,1,0,0:0:0:0:
192,192,228731,1,0,0:0:0:0:
448,192,228731,1,0,0:0:0:0:
64,192,228926,1,0,0:0:0:0:
192,192,229121,128,0,229218:0:0:0:0:
448,192,229121,128,0,229218:0:0:0:0:
64,192,229316,128,0,229413:0:0:0:0:
320,192,229316,128,0,229413:0:0:0:0:
192,192,229511,1,0,0:0:0:0:
64,192,229705,128,0,229998:0:0:0:0:
448,192,229705,128,0,229998:0:0:0:0:
320,192,230095,1,0,0:0:0:0:
64,192,230290,1,0,0:0:0:0:
448,192,230290,1,0,0:0:0:0:
320,192,230485,1,0,0:0:0:0:
192,192,230679,1,0,0:0:0:0:
64,192,230679,128,0,230874:0:0:0:0:
448,192,231069,1,0,0:0:0:0:
64,192,231069,1,0,0:0:0:0:
320,192,231166,1,0,0:0:0:0:
192,192,231264,1,0,0:0:0:0:
64,192,231361,1,0,0:0:0:0:
192,192,231459,1,0,0:0:0:0:
320,192,231556,1,0,0:0:0:0:
448,192,231653,1,0,0:0:0:0:
320,192,231751,1,0,0:0:0:0:
192,192,231848,1,0,0:0:0:0:
64,192,231946,1,0,0:0:0:0:
192,192,232043,1,0,0:0:0:0:
320,192,232140,1,0,0:0:0:0:
448,192,232238,1,0,0:0:0:0:
320,192,232335,128,0,232433:0:0:0:0:
192,192,232433,128,0,232530:0:0:0:0:
64,192,232530,128,0,232627:0:0:0:0:
192,192,232627,128,0,232725:0:0:0:0:
320,192,232725,128,0,232822:0:0:0:0:
448,192,232822,128,0,232920:0:0:0:0:
320,192,233017,1,0,0:0:0:0:
192,192,233115,1,0,0:0:0:0:
64,192,233212,1,0,0:0:0:0:
448,192,233212,1,0,0:0:0:0:
64,192,233407,1,0,0:0:0:0:
192,192,233407,1,0,0:0:0:0:
320,192,233504,1,0,0:0:0:0:
448,192,233504,1,0,0:0:0:0:
64,192,233602,1,0,0:0:0:0:
192,192,233602,1,0,0:0:0:0:
64,192,233991,128,0,234186:0:0:0:0:
448,192,233991,128,0,234186:0:0:0:0:
192,192,234186,128,0,234576:0:0:0:0:
320,192,234576,128,0,234770:0:0:0:0:
448,192,234770,128,0,235160:0:0:0:0:
320,192,235160,128,0,235550:0:0:0:0:
192,192,235550,1,0,0:0:0:0:
320,192,235647,1,0,0:0:0:0:
64,192,235744,1,0,0:0:0:0:
448,192,235744,1,0,0:0:0:0:
192,192,235939,1,0,0:0:0:0:
64,192,236134,1,0,0:0:0:0:
448,192,236134,1,0,0:0:0:0:
192,192,236329,1,0,0:0:0:0:
64,192,236524,1,0,0:0:0:0:
448,192,236524,1,0,0:0:0:0:
448,192,237108,128,0,237692:0:0:0:0:
64,192,237108,1,0,0:0:0:0:
64,192,237692,1,0,0:0:0:0:
320,192,237692,128,0,238277:0:0:0:0:
64,192,238277,1,0,0:0:0:0:
192,192,238277,128,0,238666:0:0:0:0:
64,192,238861,128,0,238959:0:0:0:0:
192,192,238959,128,0,239056:0:0:0:0:
320,192,239056,128,0,239153:0:0:0:0:
448,192,239153,128,0,239251:0:0:0:0:
320,192,239251,128,0,239348:0:0:0:0:
192,192,239348,128,0,239446:0:0:0:0:
64,192,239446,128,0,240809:0:0:0:0:
192,192,241394,1,0,0:0:0:0:
320,192,241394,1,0,0:0:0:0:
64,192,241491,1,0,0:0:0:0:
448,192,241491,1,0,0:0:0:0:
192,192,241589,1,0,0:0:0:0:
320,192,241589,1,0,0:0:0:0:
