osu file format v14

[General]
AudioFilename: audio.mp3
AudioLeadIn: 0
PreviewTime: 58255
Countdown: 0
SampleSet: Soft
StackLeniency: 0.7
Mode: 0
LetterboxInBreaks: 0
WidescreenStoryboard: 1

[Editor]
DistanceSpacing: 1
BeatDivisor: 4
GridSize: 8
TimelineZoom: 1

[Metadata]
Title:Toumei na Tsubasa (TV Size)
TitleUnicode:透明な翼 (TV Size)
Artist:Ohara Yuiko
ArtistUnicode:大原ゆい子
Creator:rosario wknd
Version:Normal
Source:リトルウィッチアカデミア
Tags:little witch academia lwa japanese anime ending ed jpop pop j-pop atsuko kagari akko アツコ カガリ アッコ diana cavendish ダイアナ キャベンディッシュ
BeatmapID:2643436
BeatmapSetID:1272039

[Difficulty]
HPDrainRate:4
CircleSize:4.4
OverallDifficulty:4
ApproachRate:5.5
SliderMultiplier:1.2
SliderTickRate:1

[Events]
//Background and Video events
Video,-380,"wings.avi"
0,0,"bg222.jpg",0,0
//Break Periods
//Storyboard Layer 0 (Background)
//Storyboard Layer 1 (Fail)
//Storyboard Layer 2 (Pass)
//Storyboard Layer 3 (Foreground)
//Storyboard Layer 4 (Overlay)
//Storyboard Sound Samples

[TimingPoints]
77,428.571428571429,4,2,1,30,1,0
77,-111.111111111111,4,2,1,30,0,0
13791,-111.111111111111,4,2,1,30,0,0
27505,-100,4,2,1,45,0,0
41219,-95.2380952380952,4,2,1,55,0,0
48077,-95.2380952380952,4,2,1,60,0,0
58362,-86.9565217391304,4,2,1,70,0,1
78934,-86.9565217391304,4,2,1,75,0,1
83648,-86.9565217391304,4,2,1,50,0,1
85791,-86.9565217391304,4,2,1,55,0,0
87291,-86.9565217391304,4,2,1,60,0,0

[Colours]
Combo1 : 192,192,192
Combo2 : 79,44,199
Combo3 : 174,0,87
Combo4 : 0,240,240

[HitObjects]
31,128,77,6,0,L|19:186,2,53.9999983520508,2|2|2,0:0|0:0|0:0,0:0:0:0:
49,83,719,2,0,P|79:57|158:76,1,107.999996704102,2|2,0:0|0:0,0:0:0:0:
183,91,1362,1,2,0:0:0:0:
183,91,1577,2,0,B|256:83|256:83|268:91|268:91|349:82,1,161.999995056153,2|0,0:0|0:0,0:0:0:0:
430,43,2648,2,0,B|451:31|470:6|470:6|435:123,1,161.999995056153,2|0,0:0|0:0,0:0:0:0:
456,154,3505,6,0,P|475:176|471:213,1,53.9999983520508,2|2,0:0|0:0,0:0:0:0:
449,240,3934,1,2,0:0:0:0:
449,240,4148,2,0,L|472:355,1,107.999996704102,2|2,0:0|0:0,0:0:0:0:
433,377,4791,1,2,0:0:0:0:
340,346,5219,2,0,B|316:359|299:381|299:381|275:360|228:357,1,107.999996704102,2|0,0:0|0:0,0:0:0:0:
190,283,6077,2,0,B|159:204|159:204|178:156|226:169,1,161.999995056153,2|0,0:0|0:0,0:0:0:0:
250,130,6934,6,0,L|233:62,2,53.9999983520508,2|2|2,0:0|0:0|0:0,0:0:0:0:
294,148,7577,2,0,P|352:155|389:107,1,107.999996704102,2|2,0:0|0:0,0:0:0:0:
402,77,8219,1,2,0:0:0:0:
402,77,8434,2,0,B|358:71|352:24|352:24|325:-11|279:0,1,161.999995056153,2|0,0:0|0:0,0:0:0:0:
181,6,9505,2,0,P|158:4|201:51,1,161.999995056153,2|0,0:0|0:0,0:0:0:0:
238,83,10362,6,0,L|215:154,1,53.9999983520508,2|2,0:0|0:0,0:0:0:0:
249,173,10791,1,2,0:0:0:0:
249,173,11005,2,0,B|294:167|307:214|307:214|267:238|250:289,1,161.999995056153,2|0,0:0|0:0,0:0:0:0:
206,359,12077,2,0,B|161:358|125:341|125:341|83:359|83:359|40:335|-10:333,1,215.999993408203,2|0,0:0|0:0,0:0:0:0:
186,276,13791,6,0,L|253:293,1,53.9999983520508,2|2,0:0|0:0,0:0:0:0:
276,319,14219,2,0,B|326:311|326:311|335:314|335:314|391:305,1,107.999996704102,2|2,0:0|0:0,0:0:0:0:
468,260,15077,1,2,0:0:0:0:
468,260,15291,2,0,P|473:202|415:173,1,107.999996704102,2|0,0:0|0:0,0:0:0:0:
390,163,15934,1,2,0:0:0:0:
390,163,16148,2,0,P|351:127|360:76,1,107.999996704102,2|0,0:0|0:0,0:0:0:0:
398,46,16791,1,2,0:0:0:0:
307,12,17219,6,0,L|238:29,1,53.9999983520508,2|2,0:0|0:0,0:0:0:0:
221,61,17648,1,2,0:0:0:0:
221,61,17862,2,0,L|109:49,1,107.999996704102,2|2,0:0|0:0,0:0:0:0:
70,72,18505,1,2,0:0:0:0:
70,72,18719,2,0,B|47:123|24:164|24:164|108:234|108:234|94:201|92:173,1,269.999991760254,2|0,0:0|0:0,0:0:0:0:
299,323,20648,6,0,L|237:311,1,53.9999983520508,2|2,0:0|0:0,0:0:0:0:
202,291,21077,2,0,L|136:302,1,53.9999983520508,2|0,0:0|0:0,0:0:0:0:
108,327,21505,2,0,B|84:333|56:347|56:347|35:323|6:301,1,107.999996704102,2|2,0:0|0:0,0:0:0:0:
23,262,22148,2,0,B|15:218|15:218|20:204|20:204|9:150,2,107.999996704102,2|2|2,0:0|0:0|0:0,0:0:0:0:
108,215,23434,2,0,L|125:150,1,53.9999983520508,2|2,0:0|0:0,0:0:0:0:
156,129,23862,1,2,0:0:0:0:
156,129,24077,6,0,L|140:63,2,53.9999983520508,2|2|2,0:0|0:0|0:0,0:0:0:0:
191,161,24719,2,0,P|243:172|296:121,1,107.999996704102,2|0,0:0|0:0,0:0:0:0:
357,76,25577,1,2,0:0:0:0:
357,76,25791,2,0,B|366:117|366:117|383:206,1,107.999996704102,2|0,0:0|0:0,0:0:0:0:
409,219,26434,1,2,0:0:0:0:
409,219,26648,2,0,L|374:340,1,107.999996704102,2|0,0:0|0:0,0:0:0:0:
275,352,27505,6,0,P|241:342|205:356,1,60,2|2,3:2|0:0,0:0:0:0:
162,371,27934,2,0,P|132:376|104:366,1,60,2|0,3:0|0:0,0:0:0:0:
66,320,28362,2,0,B|57:280|39:255|39:255|65:237|87:210,1,120,2|2,3:0|3:0,0:0:0:0:
124,186,29005,2,0,P|142:138|95:82,1,120,2|0,0:0|0:0,0:0:0:0:
49,63,29648,1,2,3:0:0:0:
49,63,29862,2,0,B|101:54|101:54|110:56|110:56|185:41,1,120,2|0,0:0|0:0,0:0:0:0:
217,77,30505,1,2,3:0:0:0:
327,30,30934,6,0,L|298:152,1,120,2|2,3:0|3:0,0:0:0:0:
257,190,31577,2,0,B|225:210|216:230|216:230|236:260|239:302,1,120,2|0,0:0|0:0,0:0:0:0:
270,337,32219,2,0,P|305:342|334:331,1,60,2|2,3:0|0:0,0:0:0:0:
381,306,32648,2,0,L|443:327,2,60,0|0|0,3:0|0:0|3:0,0:0:0:0:
364,251,33291,1,0,0:0:0:0:
364,251,33505,2,0,P|360:214|389:191,1,60,0|0,3:0|0:0,0:0:0:0:
420,159,33934,1,0,3:0:0:0:
357,56,34362,6,0,B|325:46|325:46|282:68,1,60,2|2,3:2|0:0,0:0:0:0:
263,104,34791,2,0,B|239:116|239:116|207:106,1,60,2|0,3:0|0:0,0:0:0:0:
164,63,35219,2,0,B|116:74|116:74|108:71|108:71|39:89,1,120,2|2,3:0|3:0,0:0:0:0:
62,145,35862,2,0,P|88:180|46:240,1,120,2|0,0:0|0:0,0:0:0:0:
8,279,36505,1,2,3:0:0:0:
8,279,36719,2,0,B|62:262|92:291|92:291|129:321|186:295,1,180,2|2,0:0|3:0,0:0:0:0:
298,295,37791,6,0,L|317:369,2,60,0|0|2,3:0|0:0|3:0,0:0:0:0:
252,255,38434,1,0,0:0:0:0:
252,255,38648,2,0,P|240:217|265:183,1,60,0|0,3:0|0:0,0:0:0:0:
269,156,39077,1,0,0:0:0:0:
269,156,39291,2,0,B|242:115|192:112|192:112|270:94|292:137|334:172|404:142,1,300,6|0,0:0|3:0,0:0:0:0:
486,138,40791,2,0,L|472:211,1,60,2|2,3:0|3:0,0:0:0:0:
448,242,41219,6,0,P|398:276|339:256,1,125.999996154785,4|10,3:2|0:3,0:0:0:0:
298,228,41862,2,0,P|240:208|189:242,1,125.999996154785,2|0,0:0|0:0,0:0:0:0:
145,265,42505,1,10,0:3:0:0:
145,265,42719,2,0,P|110:257|69:252,1,62.9999980773926,2|0,0:0|3:2,0:0:0:0:
39,227,43148,2,0,B|26:169|26:169|30:159|30:159|14:95,2,125.999996154785,2|2|2,0:0|0:0|0:0,0:0:0:0:
51,275,44219,1,10,0:3:0:0:
128,175,44648,6,0,L|111:97,2,62.9999980773926,2|2|10,3:2|0:0|0:3,0:0:0:0:
171,220,45291,2,0,B|191:191|226:181|226:181|264:192|285:216,1,125.999996154785,2|2,0:0|0:0,0:0:0:0:
315,256,45934,1,10,0:3:0:0:
315,256,46148,2,0,L|393:239,1,62.9999980773926,2|0,0:0|3:2,0:0:0:0:
428,206,46577,2,0,P|430:161|413:135,2,62.9999980773926,2|10|2,0:0|0:3|0:0,0:0:0:0:
468,254,47219,2,0,L|449:331,1,62.9999980773926,2|0,3:3|0:0,0:0:0:0:
412,363,47648,1,10,0:3:0:0:
288,337,48077,6,0,L|209:351,1,62.9999980773926,6|2,3:2|0:0,0:0:0:0:
169,320,48505,1,10,0:3:0:0:
169,320,48719,2,0,B|148:293|148:293|159:237|159:237|195:213,1,125.999996154785,6|2,0:0|0:0,0:0:0:0:
244,189,49362,1,10,0:3:0:0:
244,189,49577,2,0,P|267:111|226:79,1,125.999996154785,6|2,0:0|0:0,0:0:0:0:
186,56,50219,1,10,0:3:0:0:
186,56,50434,2,0,L|58:81,1,125.999996154785,6|2,0:0|0:0,0:0:0:0:
18,126,51077,1,10,0:3:0:0:
86,231,51505,6,0,B|75:281|75:281|78:295|78:295|62:364,2,125.999996154785,14|10|10,0:3|0:3|0:3,0:0:0:0:
209,203,52791,2,0,L|278:187,1,62.9999980773926,10|0,0:3|0:0,0:0:0:0:
329,166,53219,2,0,B|340:111|340:111|335:102|335:102|349:36,2,125.999996154785,10|10|10,0:3|0:3|0:3,0:0:0:0:
431,240,54505,1,10,0:3:0:0:
359,343,54934,5,14,0:3:0:0:
359,343,55148,2,0,P|327:339|296:334,1,62.9999980773926,0|4,0:0|3:2,0:0:0:0:
240,305,55577,1,10,0:3:0:0:
240,304,55791,2,0,P|209:312|178:317,2,62.9999980773926,4|8|4,3:2|0:3|3:2,0:0:0:0:
267,248,56434,1,8,0:3:0:0:
267,248,56648,2,0,B|276:215|276:215|250:171,1,62.9999980773926,2|14,0:0|0:3,0:0:0:0:
208,154,57077,2,0,B|194:122|194:122|215:85,1,62.9999980773926,14|2,0:3|0:0,0:0:0:0:
256,62,57505,2,0,L|316:80,1,62.9999980773926,2|2,0:0|0:0,0:0:0:0:
376,60,57934,1,12,0:3:0:0:
464,149,58362,6,0,B|436:152|424:187|424:187|466:218|474:264,1,138.000002632141,6|10,3:2|0:3,0:0:0:0:
492,315,59005,1,0,0:0:0:0:
492,315,59219,2,0,P|461:349|427:354,1,69.0000013160706,2|0,3:2|0:0,0:0:0:0:
374,331,59648,2,0,B|340:335|291:316|291:316|253:333|253:333|215:320|173:323,1,207.000003948212,14|0,0:3|0:0,0:0:0:0:
115,285,60505,1,10,0:3:0:0:
115,285,60719,2,0,P|109:245|134:213,1,69.0000013160706,2|0,0:0|3:2,0:0:0:0:
186,194,61148,1,2,0:0:0:0:
222,60,61577,1,2,0:0:0:0:
222,60,61791,6,0,L|85:87,1,138.000002632141,2|10,3:2|0:3,0:0:0:0:
36,134,62434,2,0,P|11:177|62:263,1,138.000002632141,2|0,0:0|0:0,0:0:0:0:
68,317,63077,2,0,B|117:279|167:306|167:306|206:359|273:324,1,207.000003948212,14|0,0:3|0:0,0:0:0:0:
284,268,63934,2,0,L|367:285,1,69.0000013160706,10|0,0:3|0:0,0:0:0:0:
404,326,64362,2,0,L|476:315,1,69.0000013160706,2|0,3:2|0:0,0:0:0:0:
504,254,64791,1,10,0:3:0:0:
380,192,65219,6,0,B|349:116|349:116|359:79|418:81,1,138.000002632141,6|10,3:2|0:3,0:0:0:0:
457,68,65862,2,0,B|385:55|385:55|378:60|378:60|299:47,1,138.000002632141,2|0,0:0|0:0,0:0:0:0:
263,14,66505,2,0,P|215:10|190:35,1,69.0000013160706,10|0,0:3|0:0,0:0:0:0:
147,66,66934,2,0,L|54:43,2,69.0000013160706,2|0|10,3:2|0:0|0:3,0:0:0:0:
202,107,67577,2,0,P|191:155|183:197,1,69.0000013160706,2|0,0:0|3:2,0:0:0:0:
146,230,68005,1,2,0:0:0:0:
146,230,68219,1,8,0:3:0:0:
249,321,68648,6,0,P|278:293|326:310,2,69.0000013160706,6|2|10,3:2|0:0|0:3,0:0:0:0:
182,339,69291,2,0,B|145:345|129:374|129:374|54:351,1,138.000002632141,6|2,0:0|0:0,0:0:0:0:
38,287,69934,1,10,0:3:0:0:
38,287,70148,2,0,P|80:233|34:180,1,138.000002632141,6|2,0:0|0:0,0:0:0:0:
19,119,70791,1,10,0:3:0:0:
19,119,71005,2,0,L|109:106,1,69.0000013160706,6|0,0:0|0:2,0:0:0:0:
144,70,71434,1,6,0:0:0:0:
144,70,71648,1,10,0:3:0:0:
206,193,72077,6,0,B|205:233|191:256|191:256|201:278|201:278|184:309|185:354,1,138.000002632141,6|10,3:2|0:3,0:0:0:0:
241,365,72719,1,0,0:0:0:0:
241,365,72934,2,0,P|283:342|324:350,1,69.0000013160706,2|0,3:2|0:0,0:0:0:0:
363,309,73362,2,0,B|423:329|442:370|442:370|443:316|506:262,1,207.000003948212,14|0,0:3|0:0,0:0:0:0:
455,217,74219,1,10,0:3:0:0:
455,217,74434,2,0,P|434:151|432:145,1,69.0000013160706,2|0,0:0|3:2,0:0:0:0:
483,103,74862,1,2,0:0:0:0:
371,21,75291,1,2,0:0:0:0:
371,21,75505,6,0,P|312:4|254:51,1,138.000002632141,2|10,3:2|0:3,0:0:0:0:
267,115,76148,2,0,P|215:157|151:141,1,138.000002632141,2|0,0:0|0:0,0:0:0:0:
97,95,76791,1,14,0:3:0:0:
97,95,77005,2,0,B|64:114|64:114|49:179|49:179|80:219,1,138.000002632141,2|0,0:0|0:0,0:0:0:0:
117,254,77648,2,0,P|180:247|212:245,1,69.0000013160706,10|0,0:3|0:0,0:0:0:0:
249,219,78077,2,0,P|294:229|327:237,1,69.0000013160706,2|0,3:2|0:0,0:0:0:0:
365,282,78505,1,10,0:3:0:0:
273,352,78934,6,0,B|209:359|209:359|202:366|202:366|134:376,1,138.000002632141,14|8,0:3|0:3,0:0:0:0:
78,340,79577,2,0,P|44:293|102:223,1,138.000002632141,2|0,0:0|0:0,0:0:0:0:
135,190,80219,2,0,L|105:50,1,138.000002632141,14|8,0:3|0:3,0:0:0:0:
160,12,80862,2,0,B|210:0|224:24|241:56|301:28,1,138.000002632141,2|0,0:0|0:0,0:0:0:0:
356,11,81505,2,0,P|390:4|429:17,1,69.0000013160706,10|0,0:3|0:0,0:0:0:0:
468,64,81934,1,10,0:3:0:0:
461,201,82362,6,0,P|414:171|351:226,1,138.000002632141,14|8,0:3|0:3,0:0:0:0:
322,274,83005,2,0,P|272:316|214:287,1,138.000002632141,10|8,0:3|0:3,0:0:0:0:
178,227,83648,2,0,B|189:293|189:293|186:302|186:302|199:374,1,138.000002632141,6|0,0:0|0:0,0:0:0:0:
127,359,84291,2,0,B|59:415|3:391|-1:297|71:308,1,207.000003948212,2|2,0:0|0:0,0:0:0:0:
178,227,85362,1,2,0:0:0:0:
277,322,85791,5,6,0:0:0:0:
277,322,86005,2,0,P|335:312|355:308,1,69.0000013160706,2|2,0:0|0:0,0:0:0:0:
387,255,86434,2,0,B|414:229|416:190|416:190|437:229|478:247,1,138.000002632141,6|2,0:0|0:0,0:0:0:0:
503,290,87077,1,2,0:0:0:0:
503,290,87291,1,6,0:0:0:0:
