osu file format v14

[General]
AudioFilename: audio.mp3
AudioLeadIn: 0
PreviewTime: 167196
Countdown: 0
SampleSet: Soft
StackLeniency: 0.8
Mode: 0
LetterboxInBreaks: 0
WidescreenStoryboard: 1

[Editor]
DistanceSpacing: 1
BeatDivisor: 4
GridSize: 8
TimelineZoom: 2

[Metadata]
Title:Toki no Mirage
TitleUnicode:時のミラージュ
Artist:Ohara Yuiko
ArtistUnicode:大原ゆい子
Creator:_Karaage
Version:Normal
Source:リトルウィッチアカデミア 時の魔法と七不思議
Tags:LWA Little Witch Academia Academy Chamber of Time The Magic and the Seven Wonders Toki no Mahou to Nanafushigi Cradle Eternity video game jpop j-pop japanese pop anime karaage
BeatmapID:3670872
BeatmapSetID:1790761

[Difficulty]
HPDrainRate:4
CircleSize:3.2
OverallDifficulty:4
ApproachRate:5
SliderMultiplier:0.999999999999999
SliderTickRate:1

[Events]
//Background and Video events
0,0,"Little.Witch.Academia.full.2450702.jpg",0,0
//Break Periods
2,142491,152585
//Storyboard Layer 0 (Background)
//Storyboard Layer 1 (Fail)
//Storyboard Layer 2 (Pass)
//Storyboard Layer 3 (Foreground)
//Storyboard Layer 4 (Overlay)
//Storyboard Sound Samples

[TimingPoints]
-437,344.827586206896,4,2,0,65,1,0
-437,-100,4,2,0,65,0,0
942,357.142857142857,4,2,4,65,1,0
942,-125,4,2,4,65,0,0
3799,352.941176470588,4,2,4,65,1,0
3799,-125,4,2,4,65,0,0
5210,348.837209302326,4,2,0,65,1,0
5210,-100,4,2,0,65,0,0
5733,288.461538461538,4,2,4,65,1,0
5733,-100,4,2,4,65,0,0
6454,350.877192982457,4,2,4,65,1,0
6454,-100,4,2,4,65,0,0
6629,344.827586206897,4,2,4,65,1,0
6629,-100,4,2,4,65,0,0
7318,346.820809248555,4,2,4,65,1,0
7318,-100,4,2,4,65,0,0
8011,337.078651685395,4,2,4,65,1,0
8011,-100,4,2,4,65,0,0
8516,408.163265306122,4,2,4,65,1,0
8516,-100,4,2,4,65,0,0
8721,348.837209302326,4,2,4,65,1,0
8721,-100,4,2,4,65,0,0
9418,350.877192982457,4,2,4,65,1,0
9418,-100,4,2,4,65,0,0
11874,342.857142857144,4,2,4,65,1,0
11874,-100,4,2,4,65,0,0
12216,357.142857142857,4,2,4,50,1,0
12216,-100,4,2,4,50,0,0
15073,352.941176470589,4,2,2,50,1,0
15073,-125,4,2,2,50,0,0
37661,-111.111111111111,4,2,4,50,0,0
40308,-111.111111111111,4,2,4,35,0,0
40484,-111.111111111111,4,2,4,50,0,0
48955,-111.111111111111,4,2,2,50,0,0
50367,272.727272727273,4,2,2,50,1,0
50367,-100,4,2,2,50,0,0
50912,428.571428571429,4,2,2,50,1,0
50912,-100,4,2,2,50,0,0
51126,566.037735849056,4,2,0,50,1,0
51126,-100,4,2,0,50,0,0
51417,-100,4,2,4,50,0,0
51427,352.941176470589,4,2,4,75,1,1
51427,-90.9090909090909,4,2,4,75,0,1
74015,-90.9090909090909,4,2,4,75,0,0
90956,-90.9090909090909,4,2,4,50,0,0
93779,-100,4,2,4,60,0,0
96603,-111.111111111111,4,2,4,50,0,0
113544,-100,4,2,4,60,0,0
119181,355.029585798817,4,2,4,75,1,0
119181,-90.9090909090909,4,2,4,75,0,0
122021,352.941176470589,4,2,4,75,1,0
122021,-100,4,2,4,75,0,0
141785,-100,4,2,4,5,0,0
142491,352.941176470589,4,2,3,5,1,0
142491,-100,4,2,3,5,0,0
153785,-125,4,2,4,60,0,0
165079,-125,4,2,0,50,0,0
167196,-125,4,2,6,66,0,0
167549,-125,4,2,4,66,0,0
167559,352.941176470589,4,2,4,75,1,1
167559,-90.9090909090909,4,2,4,75,0,1
190147,-90.9090909090909,4,2,4,50,0,0
190490,352.941176470589,4,2,4,50,1,0
190490,-90.9090909090909,4,2,4,70,0,0
201784,-100,4,2,4,70,0,0
203195,-100,4,2,4,60,0,0
222960,-100,4,2,0,60,0,0

[Colours]
Combo1 : 100,183,244
Combo2 : 125,105,239
Combo3 : 243,131,209
Combo4 : 250,233,114
Combo5 : 251,139,85

[HitObjects]
496,30,942,6,0,B|425:11|353:55|424:90|319:110|276:92,1,240,4|0,1:2|0:0,0:0:0:0:
184,107,2370,2,0,P|165:42|195:-4,2,120,2|2|2,0:0|0:0|0:0,0:0:0:0:
205,155,3620,5,8,1:3:0:0:
205,155,3799,2,0,P|309:160|425:333,1,320,4|2,1:2|0:0,0:0:0:0:
247,345,5733,5,0,1:0:0:0:
247,345,5877,2,0,B|200:322|200:322|144:327,1,99.9999999999999,8|0,1:3|1:0,0:0:0:0:
81,265,6454,5,4,1:3:0:0:
81,265,6629,2,0,B|88:207|88:207|58:183|58:183|68:113,1,150,4|0,1:2|1:2,0:0:0:0:
75,81,7318,1,8,0:0:0:0:
158,25,7664,6,0,L|216:38,1,50,0|0,0:0|1:0,0:0:0:0:
251,71,8011,1,0,1:2:0:0:
251,71,8179,2,0,L|366:58,1,99.9999999999999,0|0,1:2|1:0,0:0:0:0:
400,74,8721,1,8,0:0:0:0:
400,74,8895,1,8,0:0:0:0:
457,162,9244,5,0,1:0:0:0:
457,162,9418,2,0,P|422:202|398:245,1,99.9999999999999,6|0,1:2|1:2,0:0:0:0:
362,276,9944,2,0,P|318:284|253:320,2,99.9999999999999,2|2|6,1:2|1:2|1:2,0:0:0:0:
464,335,10996,5,0,1:2:0:0:
464,335,11172,2,0,L|473:271,1,50,10|2,1:2|1:2,0:0:0:0:
504,235,11523,2,0,L|495:171,1,50,10|2,1:2|1:2,0:0:0:0:
459,150,11874,2,0,P|423:127|399:132,1,50,10|2,1:2|1:2,0:0:0:0:
374,148,12216,1,6,1:2:0:0:
62,358,14358,6,0,P|42:295|54:203,1,150,4|0,0:0|0:0,0:0:0:0:
84,189,15073,6,0,P|126:190|170:201,1,79.9999999999999,10|2,0:0|0:0,0:0:0:0:
197,232,15602,2,0,P|239:231|283:220,1,79.9999999999999,2|2,0:0|0:0,0:0:0:0:
349,159,16308,1,2,0:0:0:0:
349,159,16484,2,0,B|372:127|372:127|358:81,1,79.9999999999999,10|2,0:0|0:0,0:0:0:0:
319,62,17014,2,0,L|235:56,1,79.9999999999999,2|2,0:0|0:0,0:0:0:0:
152,98,17720,1,2,0:0:0:0:
152,98,17896,6,0,P|100:148|101:157,1,79.9999999999999,10|2,0:0|0:0,0:0:0:0:
125,187,18425,2,0,P|162:203|196:232,1,79.9999999999999,2|2,0:0|0:0,0:0:0:0:
281,263,19131,2,0,L|400:245,1,120,2|0,0:0|0:0,0:0:0:0:
469,178,20014,1,2,0:0:0:0:
423,93,20367,1,2,0:0:0:0:
423,93,20543,6,0,P|374:78|290:68,1,120,2|2,0:0|0:0,0:0:0:0:
264,92,21249,1,2,0:0:0:0:
168,199,21778,1,2,0:0:0:0:
168,199,21955,2,0,P|194:245|214:328,1,120,2|2,0:0|0:0,0:0:0:0:
254,332,22661,1,2,0:0:0:0:
390,286,23190,1,2,0:0:0:0:
390,286,23367,6,0,P|410:259|408:209,1,79.9999999999999,2|0,0:0|0:0,0:0:0:0:
379,177,23896,1,2,0:0:0:0:
379,177,24073,2,0,B|336:148|250:183|308:202|245:230|183:209,1,200,2|10,0:0|0:0,0:0:0:0:
61,73,25661,1,2,0:0:0:0:
246,24,26367,6,0,P|285:24|332:36,1,79.9999999999999,2|2,0:0|0:0,0:0:0:0:
341,78,26896,2,0,P|380:78|427:66,1,79.9999999999999,2|2,0:0|0:0,0:0:0:0:
488,136,27602,1,0,0:0:0:0:
488,136,27778,2,0,B|462:171|462:171|470:207,1,79.9999999999999,2|2,0:0|0:0,0:0:0:0:
490,250,28308,2,0,B|516:285|516:285|508:321,1,79.9999999999999,2|2,0:0|0:0,0:0:0:0:
417,353,29014,1,0,0:0:0:0:
417,353,29190,6,0,P|388:342|324:331,1,79.9999999999999,2|2,0:0|0:0,0:0:0:0:
296,353,29720,2,0,P|250:327|236:260,1,120,2|0,0:0|0:0,0:0:0:0:
315,213,30602,2,0,P|363:223|403:241,2,79.9999999999999,2|2|10,0:0|0:0|0:0,0:0:0:0:
244,147,31661,1,2,0:0:0:0:
175,214,32014,6,0,P|146:221|105:182,1,79.9999999999999,2|2,0:0|0:0,0:0:0:0:
86,149,32543,2,0,P|86:112|120:72,1,79.9999999999999,2|0,0:0|0:0,0:0:0:0:
154,55,33073,1,2,0:0:0:0:
154,55,33249,2,0,B|232:64|184:93|273:110,1,120,2|0,0:0|0:0,0:0:0:0:
350,79,34131,1,10,0:0:0:0:
439,114,34484,1,2,0:0:0:0:
472,203,34837,6,0,P|441:236|430:273,1,79.9999999999999,2|0,0:0|0:0,0:0:0:0:
429,316,35367,1,2,0:0:0:0:
290,341,35896,1,2,0:0:0:0:
290,341,36073,2,0,B|243:329|221:312|221:312|201:324|170:330,1,120,2|0,0:0|0:0,0:0:0:0:
89,288,36955,1,10,0:0:0:0:
115,195,37308,1,2,0:0:0:0:
42,115,37661,6,0,P|69:76|121:64,1,90,4|2,1:2|0:0,0:0:0:0:
153,84,38190,1,2,1:2:0:0:
153,84,38367,2,0,P|225:103|246:111,1,90,8|0,0:0|0:0,0:0:0:0:
333,75,39073,2,0,L|396:64,2,45,2|0|8,1:2|1:2|0:0,0:0:0:0:
265,313,40308,5,2,0:0:0:0:
265,313,40484,2,0,B|226:301|226:301|203:304|203:304|170:292,1,90,2|0,1:2|0:0,0:0:0:0:
133,305,41014,1,2,1:2:0:0:
133,305,41190,2,0,B|106:266|106:266|124:217,1,90,10|0,0:0|0:0,0:0:0:0:
192,157,41896,2,0,L|242:179,1,45,2|8,1:2|0:0,0:0:0:0:
270,207,42249,2,0,P|316:205|356:162,1,90,2|8,0:0|0:0,0:0:0:0:
343,133,42778,1,8,0:0:0:0:
343,133,42955,1,2,1:2:0:0:
261,76,43308,6,0,P|221:68|166:51,1,90,6|0,1:2|0:0,0:0:0:0:
133,35,43837,1,2,1:2:0:0:
133,35,44014,2,0,P|96:39|63:88,1,90,8|0,0:0|0:0,0:0:0:0:
104,169,44720,1,2,1:2:0:0:
104,169,44896,2,0,B|125:210|125:210|108:256,1,90,8|2,0:0|1:2,0:0:0:0:
127,297,45425,2,0,L|218:319,1,90,8|2,0:0|1:2,0:0:0:0:
304,360,46131,6,0,P|349:358|376:321,1,90,6|0,1:2|0:0,0:0:0:0:
354,279,46661,1,2,1:2:0:0:
354,279,46837,2,0,P|346:236|350:222,1,45,8|0,0:0|0:0,0:0:0:0:
377,197,47190,1,2,0:0:0:0:
377,197,47367,2,0,B|382:160|382:160|374:150|374:150|379:110,1,90,6|8,1:2|0:0,0:0:0:0:
310,38,48073,2,0,L|252:46,1,45,0|8,1:2|0:0,0:0:0:0:
226,75,48425,1,8,0:0:0:0:
131,44,48778,1,8,0:0:0:0:
62,325,51427,6,0,P|90:310|184:297,1,110,6|10,1:2|0:0,0:0:0:0:
207,258,51956,2,0,L|193:203,2,55,2|2|2,1:2|0:0|1:2,0:0:0:0:
260,287,52485,1,8,0:0:0:0:
337,210,52838,5,2,1:2:0:0:
337,210,53015,2,0,L|349:151,1,55,2|8,1:2|0:0,0:0:0:0:
381,112,53368,1,2,1:2:0:0:
381,112,53544,2,0,P|351:83|268:82,1,110,2|8,0:0|0:0,0:0:0:0:
188,22,54250,6,0,B|121:29|153:56|78:59,1,110,2|8,1:2|0:0,0:0:0:0:
31,53,54779,2,0,P|5:91|22:166,1,110,2|0,1:2|1:2,0:0:0:0:
63,184,55309,1,8,0:0:0:0:
63,184,55485,2,0,P|133:210|182:244,1,110,2|0,0:0|1:2,0:0:0:0:
208,259,56015,5,10,0:0:0:0:
304,205,56368,1,2,0:0:0:0:
397,262,56721,1,8,0:0:0:0:
358,364,57074,5,6,1:2:0:0:
358,364,57250,2,0,P|316:364|285:355,1,55,2|8,0:0|0:0,0:0:0:0:
250,340,57603,2,0,P|185:311|135:331,1,110,2|0,1:2|1:2,0:0:0:0:
100,344,58132,1,8,0:0:0:0:
34,262,58485,5,2,1:2:0:0:
34,262,58662,2,0,P|47:238|50:207,1,55,2|8,1:2|0:0,0:0:0:0:
35,157,59015,2,0,P|68:124|146:124,1,110,2|2,1:2|1:2,0:0:0:0:
181,133,59544,1,8,0:0:0:0:
269,70,59897,6,0,P|307:79|332:82,1,55,4|2,1:2|0:0,0:0:0:0:
377,64,60250,1,10,0:0:0:0:
377,64,60427,2,0,P|435:64|469:109,1,110,2|0,1:2|1:2,0:0:0:0:
459,155,60956,1,8,0:0:0:0:
423,258,61309,6,0,P|369:254|303:260,1,110,4|8,1:2|0:0,0:0:0:0:
275,298,61838,2,0,P|221:302|155:296,1,110,2|0,0:0|1:2,0:0:0:0:
120,264,62368,1,0,1:2:0:0:
170,166,62721,6,0,L|181:100,1,55,6|2,1:2|0:0,0:0:0:0:
217,72,63074,1,10,0:0:0:0:
217,72,63250,2,0,P|200:25|136:15,1,110,2|0,1:2|1:2,0:0:0:0:
93,29,63779,2,0,P|68:60|61:83,1,55,8|2,0:0|0:0,0:0:0:0:
61,129,64132,5,2,1:2:0:0:
109,234,64485,1,8,0:0:0:0:
109,234,64662,2,0,P|188:263|210:297,1,110,2|0,0:0|1:2,0:0:0:0:
209,335,65191,1,8,0:0:0:0:
317,351,65544,6,0,P|356:348|394:282,1,110,4|8,1:2|0:0,0:0:0:0:
366,252,66074,1,2,1:2:0:0:
366,252,66250,2,0,P|353:199|359:130,1,110,2|8,0:0|0:0,0:0:0:0:
433,66,66956,5,4,1:2:0:0:
335,14,67309,1,10,0:0:0:0:
230,49,67662,2,0,P|197:59|132:105,1,110,6|8,1:2|0:0,0:0:0:0:
118,156,68191,1,8,0:0:0:0:
118,156,68368,6,0,B|132:192|132:192|112:227|112:227|128:267,1,110,4|8,1:2|0:0,0:0:0:0:
156,300,68897,1,2,1:2:0:0:
156,300,69074,2,0,B|196:317|196:317|276:299,1,110,2|8,0:0|0:0,0:0:0:0:
374,320,69779,5,0,1:2:0:0:
374,320,69956,2,0,P|396:286|396:249,1,55,0|8,1:2|0:0,0:0:0:0:
371,224,70309,1,0,1:2:0:0:
371,224,70485,2,0,P|373:160|403:106,1,110,2|8,0:0|0:0,0:0:0:0:
316,39,71191,6,0,P|261:25|196:57,1,110,4|8,1:2|0:0,0:0:0:0:
165,72,71721,2,0,B|136:112|136:112|151:156|136:186,1,110,2|0,1:2|1:2,0:0:0:0:
103,213,72250,2,0,P|80:244|77:269,1,55,8|2,0:0|0:0,0:0:0:0:
95,311,72603,6,0,P|147:332|201:367,1,110,4|8,1:2|0:0,0:0:0:0:
294,315,73309,2,0,P|346:294|400:259,1,110,6|8,1:2|0:0,0:0:0:0:
420,220,73838,1,8,0:0:0:0:
420,220,74015,6,0,B|430:148|392:176|401:106,1,110,6|8,1:2|0:0,0:0:0:0:
428,67,74544,2,0,P|385:27|316:38,1,110,2|0,1:2|1:2,0:0:0:0:
292,61,75074,1,8,0:0:0:0:
205,129,75427,6,0,P|165:119|141:101,2,55,2|0|8,1:2|1:2|0:0,0:0:0:0:
242,169,75956,2,0,P|292:184|341:226,1,110,2|2,1:2|1:2,0:0:0:0:
354,272,76485,1,8,0:0:0:0:
265,337,76838,6,0,P|214:330|143:344,1,110,6|8,1:2|0:0,0:0:0:0:
112,372,77368,2,0,P|66:359|56:296,1,110,2|0,1:2|1:2,0:0:0:0:
92,265,77897,1,8,0:0:0:0:
176,194,78250,6,0,P|216:198|236:205,2,55,2|0|8,1:2|1:2|0:0,0:0:0:0:
123,176,78779,2,0,P|91:142|99:75,1,110,2|2,1:2|1:2,0:0:0:0:
141,51,79309,2,0,P|171:48|206:60,1,55,10|8,0:0|0:0,0:0:0:0:
244,79,79662,6,0,B|296:77|296:77|305:81|305:81|361:78,1,110,6|8,1:2|0:0,0:0:0:0:
406,93,80191,2,0,B|425:127|425:127|400:198,1,110,2|0,1:2|1:2,0:0:0:0:
410,248,80721,1,8,0:0:0:0:
318,309,81074,6,0,P|307:343|309:368,2,55,2|0|8,1:2|1:2|0:0,0:0:0:0:
294,258,81603,2,0,P|300:208|266:138,1,110,2|0,1:2|1:2,0:0:0:0:
226,137,82132,1,8,0:0:0:0:
141,66,82485,6,0,B|86:56|86:56|20:83,1,110,4|8,1:2|0:0,0:0:0:0:
16,185,83191,2,0,B|23:215|23:215|20:217|20:217|27:246,1,55,0|2,1:2|1:2,0:0:0:0:
65,274,83544,1,10,0:0:0:0:
65,274,83721,6,0,B|93:297|93:297|187:281,1,110,6|0,1:2|1:2,0:0:0:0:
218,301,84250,2,0,L|279:310,1,55,8|0,0:0|1:2,0:0:0:0:
318,338,84603,2,0,L|379:329,1,55,8|0,0:0|1:2,0:0:0:0:
419,301,84956,1,8,0:0:0:0:
463,200,85309,6,0,L|473:142,2,55,8|8|8,0:0|0:0|0:0,0:0:0:0:
162,82,88132,2,0,L|152:24,2,55,8|8|8,0:0|0:0|0:0,0:0:0:0:
45,354,90074,5,0,1:0:0:0:
45,354,90250,2,0,P|154:326|279:335,1,220,12|2,0:0|0:0,0:0:0:0:
474,53,93779,6,0,B|489:125|433:135|427:136|423:135|371:157|382:215,2,200,4|4|4,1:2|1:2|1:2,0:0:0:0:
275,22,95897,2,0,P|199:38|173:65,1,99.9999999999999,4|2,1:2|0:0,0:0:0:0:
162,98,96427,1,2,0:0:0:0:
162,98,96603,6,0,P|176:129|179:197,2,90,4|0|8,1:2|1:2|0:0,0:0:0:0:
71,139,97662,1,2,0:0:0:0:
71,139,97838,2,0,P|57:165|61:181,1,45,8|0,0:0|1:2,0:0:0:0:
65,228,98191,2,0,P|103:239|150:283,1,90,8|0,0:0|1:2,0:0:0:0:
190,279,98721,1,8,0:0:0:0:
281,241,99074,2,0,P|319:234|344:238,1,45,2|0,0:0|1:2,0:0:0:0:
365,262,99427,6,0,B|407:277|407:277|463:268,1,90,4|0,1:2|1:2,0:0:0:0:
458,170,100132,2,0,B|416:155|416:155|360:164,1,90,10|2,0:0|0:0,0:0:0:0:
322,150,100662,2,0,B|277:138|277:138|271:144|271:144|226:133,1,90,6|8,1:2|0:0,0:0:0:0:
187,142,101191,2,0,B|167:167|167:167|183:228,2,90,2|10|2,0:0|0:0|0:0,0:0:0:0:
236,55,102250,6,0,P|288:58|333:49,1,90,6|0,1:2|1:2,0:0:0:0:
366,24,102779,2,0,P|439:34|456:59,1,90,8|0,0:0|1:2,0:0:0:0:
459,91,103309,1,14,0:0:0:0:
396,168,103662,1,0,1:2:0:0:
396,168,103838,2,0,B|377:192|377:192|385:216,1,45,0|2,1:2|0:0,0:0:0:0:
413,243,104191,2,0,B|428:297|428:297|406:313|401:330,1,90,8|0,0:0|1:2,0:0:0:0:
365,352,104721,1,10,0:0:0:0:
279,302,105074,6,0,B|237:291|237:291|183:307,2,90,4|0|8,1:2|1:2|0:0,0:0:0:0:
349,233,106132,1,2,0:0:0:0:
349,233,106309,2,0,B|361:192|361:192|357:182|357:182|367:142,1,90,4|8,1:2|0:0,0:0:0:0:
337,51,107015,1,0,1:2:0:0:
337,51,107191,2,0,P|301:38|281:43,1,45,8|0,0:0|1:2,0:0:0:0:
253,66,107544,1,8,0:0:0:0:
192,144,107897,6,0,P|160:174|169:224,1,90,4|2,1:2|1:2,0:0:0:0:
206,242,108427,2,0,P|262:257|336:305,1,135,2|2,0:0|1:2,0:0:0:0:
366,326,109132,1,2,0:0:0:0:
366,326,109309,2,0,P|432:318|456:342,2,90,2|2|2,1:2|1:2|1:2,0:0:0:0:
269,350,110368,1,10,0:0:0:0:
179,308,110721,6,0,P|161:285|201:239,1,90,4|0,1:2|1:2,0:0:0:0:
239,236,111250,1,2,0:0:0:0:
239,236,111427,2,0,P|298:238|331:234,1,90,0|0,1:2|1:2,0:0:0:0:
416,187,112132,2,0,P|437:149|446:89,1,90,0|2,1:2|1:2,0:0:0:0:
375,34,112838,2,0,P|347:27|317:34,1,45,2|0,1:2|0:0,0:0:0:0:
287,52,113191,1,10,1:2:0:0:
182,86,113544,6,0,B|131:95|131:95|132:99|132:99|80:111,1,99.9999999999999,6|0,1:2|1:2,0:0:0:0:
42,79,114074,2,0,B|8:122|8:122|27:176,1,99.9999999999999,10|0,0:0|1:2,0:0:0:0:
55,209,114603,1,8,0:0:0:0:
153,258,114956,5,2,1:2:0:0:
153,258,115132,2,0,P|190:264|207:275,1,50,0|0,1:2|0:0,0:0:0:0:
239,308,115485,2,0,P|296:313|347:307,1,99.9999999999999,10|0,0:0|1:2,0:0:0:0:
385,278,116015,1,12,0:0:0:0:
466,204,116368,6,0,B|478:147|478:147|463:130|452:105,1,99.9999999999999,4|8,1:2|0:0,0:0:0:0:
368,43,117074,2,0,P|321:24|307:27,1,50,2|0,1:2|1:2,0:0:0:0:
269,36,117427,1,10,0:0:0:0:
269,36,117603,6,0,B|197:46|238:68|167:69,1,99.9999999999999,6|0,1:2|1:2,0:0:0:0:
125,48,118132,1,8,0:0:0:0:
30,104,118485,2,0,L|24:154,1,50,0|8,1:2|1:3,0:0:0:0:
64,190,118838,2,0,L|70:240,1,50,8|8,0:3|0:3,0:0:0:0:
109,277,119181,6,0,B|156:303|156:303|234:296,1,110,4|8,1:2|0:0,0:0:0:0:
261,275,119713,2,0,L|331:284,1,55,2|0,3:2|1:2,0:0:0:0:
363,309,120068,2,0,L|433:300,1,55,2|8,1:2|0:0,0:0:0:0:
444,253,120423,1,2,0:0:0:0:
351,194,120778,2,0,B|300:179|300:179|292:180|292:180|243:165,1,110,2|2,1:2|0:0,0:0:0:0:
196,139,121311,2,0,B|167:131|167:131|138:136,1,55,2|2,1:2|1:2,0:0:0:0:
87,140,121666,1,8,0:0:0:0:
84,241,122021,6,0,P|128:289|149:323,1,99.9999999999999,4|8,1:2|0:0,0:0:0:0:
189,343,122550,2,0,P|216:301|233:295,1,50,2|0,3:2|1:2,0:0:0:0:
264,295,122903,2,0,P|281:277|289:253,1,50,2|8,1:2|0:0,0:0:0:0:
291,203,123256,1,2,3:2:0:0:
208,146,123609,2,0,P|177:120|169:50,1,99.9999999999999,2|2,1:2|0:0,0:0:0:0:
199,27,124138,2,0,L|252:26,1,50,2|2,1:2|1:2,0:0:0:0:
293,4,124491,1,10,0:0:0:0:
385,43,124844,6,0,B|404:69|404:69|370:143,1,99.9999999999999,4|8,1:2|0:0,0:0:0:0:
362,178,125373,2,0,B|346:203|346:203|353:232,1,50,2|0,1:2|0:0,0:0:0:0:
395,246,125726,2,0,B|399:265|399:265|383:290,1,50,2|8,1:2|0:0,0:0:0:0:
358,334,126079,1,2,3:2:0:0:
259,351,126432,2,0,P|216:309|229:253,1,99.9999999999999,2|2,1:2|0:0,0:0:0:0:
256,240,126962,2,0,L|273:180,1,50,2|2,1:2|1:2,0:0:0:0:
238,152,127315,1,10,0:0:0:0:
306,79,127668,6,0,P|359:84|410:104,1,99.9999999999999,6|8,1:2|0:0,0:0:0:0:
418,152,128197,1,2,0:0:0:0:
418,152,128373,2,0,P|401:189|398:210,1,50,0|2,1:2|1:2,0:0:0:0:
403,247,128726,1,8,0:0:0:0:
347,331,129079,5,2,1:2:0:0:
347,331,129256,2,0,L|282:330,1,50,2|10,1:2|0:0,0:0:0:0:
247,338,129609,2,0,B|211:306|211:306|229:238,1,99.9999999999999,2|8,1:2|3:0,0:0:0:0:
192,217,130138,1,0,1:2:0:0:
275,161,130491,6,0,P|322:130|328:83,1,99.9999999999999,6|0,1:2|1:2,0:0:0:0:
296,51,131021,2,0,P|224:32|194:27,1,99.9999999999999,10|0,0:0|1:2,0:0:0:0:
152,45,131550,1,10,0:0:0:0:
74,108,131903,5,0,1:2:0:0:
74,108,132079,2,0,L|86:158,1,50,0|0,1:2|0:0,0:0:0:0:
88,206,132432,2,0,B|79:259|79:259|74:261|74:261|64:308,1,99.9999999999999,10|2,0:0|1:2,0:0:0:0:
101,336,132962,1,10,0:0:0:0:
194,299,133315,6,0,B|261:295|232:323|307:316,1,99.9999999999999,4|0,1:2|1:2,0:0:0:0:
338,333,133844,2,0,P|385:332|417:275,1,99.9999999999999,10|0,0:0|1:2,0:0:0:0:
399,245,134373,1,10,0:0:0:0:
337,166,134726,5,0,1:2:0:0:
337,166,134903,2,0,P|284:162|271:159,1,50,0|0,1:2|0:0,0:0:0:0:
251,127,135256,2,0,L|149:105,1,99.9999999999999,8|0,0:0|1:2,0:0:0:0:
118,69,135785,1,8,0:0:0:0:
207,24,136138,6,0,B|257:17|257:17|261:20|261:20|307:16,1,99.9999999999999,4|8,1:2|0:0,0:0:0:0:
355,40,136668,1,2,0:0:0:0:
355,40,136844,2,0,L|417:55,1,50,0|2,1:2|1:2,0:0:0:0:
453,43,137197,1,8,0:0:0:0:
470,141,137550,6,0,P|471:172|454:196,1,50,4|0,1:2|1:2,0:0:0:0:
420,216,137903,1,8,0:0:0:0:
420,216,138079,2,0,B|367:234|367:234|341:227|312:230,1,99.9999999999999,2|2,1:2|1:2,0:0:0:0:
288,265,138609,1,8,0:0:0:0:
203,319,138962,6,0,P|154:315|123:260,1,99.9999999999999,4|8,1:2|0:0,0:0:0:0:
142,230,139491,1,2,0:0:0:0:
142,230,139668,2,0,L|52:215,2,74.9999999999999,4|8|4,3:0|3:0|3:0,0:0:0:0:
182,200,140373,1,4,1:2:0:0:
256,192,140550,12,0,141785,0:0:0:0:
438,104,153785,6,0,P|452:52|460:39,2,60,4|0|0,1:2|1:2|1:2,0:0:0:0:
453,149,154491,1,8,0:0:0:0:
254,303,156608,2,0,P|268:355|276:368,2,60,0|0|0,1:2|1:2|1:2,0:0:0:0:
269,258,157314,1,8,0:0:0:0:
165,96,158020,2,0,L|71:70,2,79.9999999999999,6|2|10,1:2|1:2|0:0,0:0:0:0:
256,65,159079,2,0,L|298:57,1,40,2|0,3:2|3:0,0:0:0:0:
336,81,159432,6,0,P|368:137|371:168,1,79.9999999999999,6|2,1:2|1:2,0:0:0:0:
428,228,160138,2,0,P|396:284|393:315,1,79.9999999999999,8|0,0:0|3:0,0:0:0:0:
315,353,160843,1,2,1:2:0:0:
315,353,161020,2,0,B|272:344|272:344|268:348|268:348|232:338,1,79.9999999999999,8|2,0:0|1:2,0:0:0:0:
197,314,161549,2,0,B|154:323|154:323|150:319|150:319|114:329,1,79.9999999999999,10|2,0:0|0:0,0:0:0:0:
53,257,162255,6,0,P|44:203|20:178,2,79.9999999999999,6|0|8,1:2|1:2|0:0,0:0:0:0:
141,217,163314,2,0,L|193:202,1,40,0|2,1:2|1:2,0:0:0:0:
226,215,163667,1,6,1:2:0:0:
384,323,164373,2,0,P|427:301|441:189,1,160,6|2,1:2|0:0,0:0:0:0:
107,53,167196,5,4,1:3:0:0:
211,86,167559,6,0,B|260:97|260:97|268:109|268:109|323:124,1,110,4|10,1:2|0:0,0:0:0:0:
366,115,168088,2,0,L|367:49,2,55,2|2|2,1:2|0:0|1:2,0:0:0:0:
412,145,168617,1,10,0:0:0:0:
492,230,168970,5,2,1:2:0:0:
492,230,169147,2,0,L|477:287,1,55,2|10,1:2|0:0,0:0:0:0:
436,319,169500,1,2,1:2:0:0:
436,319,169676,2,0,P|383:303|319:330,1,110,2|8,0:0|0:0,0:0:0:0:
223,304,170382,6,0,B|172:311|172:311|160:322|160:322|107:330,1,110,2|8,1:2|0:0,0:0:0:0:
66,347,170911,2,0,P|34:324|40:250,1,110,2|0,1:2|1:2,0:0:0:0:
72,219,171441,1,8,0:0:0:0:
72,219,171617,2,0,B|81:144|44:175|48:99,1,110,2|0,0:0|1:2,0:0:0:0:
80,69,172147,5,10,0:0:0:0:
175,123,172500,1,2,0:0:0:0:
276,81,172853,1,10,0:0:0:0:
369,136,173206,5,6,1:2:0:0:
369,136,173382,2,0,P|380:165|385:190,1,55,2|8,0:0|0:0,0:0:0:0:
366,240,173735,2,0,P|314:255|251:289,1,110,2|0,1:2|1:2,0:0:0:0:
209,273,174264,1,8,0:0:0:0:
118,334,174617,5,4,1:2:0:0:
118,334,174794,2,0,B|88:316|88:316|88:283,1,55,2|8,0:0|0:0,0:0:0:0:
122,252,175147,2,0,B|136:207|136:207|131:184|131:184|140:138,1,110,0|2,1:2|1:2,0:0:0:0:
108,99,175676,1,10,0:0:0:0:
200,40,176029,6,0,L|263:28,1,55,4|2,1:2|1:2,0:0:0:0:
299,60,176382,1,10,0:0:0:0:
299,60,176559,2,0,B|351:72|351:72|356:78|356:78|408:92,1,110,2|0,0:0|1:2,0:0:0:0:
462,90,177088,1,8,0:0:0:0:
462,90,177264,6,0,P|508:135|493:195,1,110,6|0,1:2|1:2,0:0:0:0:
478,225,177794,1,8,0:0:0:0:
387,287,178147,1,0,1:2:0:0:
387,287,178323,2,0,L|317:276,1,55,0|0,1:2|1:2,0:0:0:0:
283,298,178676,1,0,1:2:0:0:
283,298,178853,6,0,B|227:314|227:314|168:295,1,110,6|8,1:2|0:0,0:0:0:0:
163,244,179382,1,2,1:2:0:0:
253,181,179735,1,0,1:2:0:0:
253,181,179911,2,0,P|273:152|276:126,1,55,8|0,0:0|1:2,0:0:0:0:
246,86,180264,6,0,P|191:78|121:85,1,110,2|8,1:2|0:0,0:0:0:0:
85,101,180794,2,0,P|46:139|44:206,1,110,2|0,1:2|1:2,0:0:0:0:
69,238,181323,1,8,0:0:0:0:
165,290,181676,6,0,B|244:284|192:315|281:307,1,110,6|8,1:2|0:0,0:0:0:0:
323,324,182206,1,2,1:2:0:0:
323,324,182382,2,0,P|354:309|371:283,1,55,2|0,0:0|1:2,0:0:0:0:
350,240,182735,1,8,0:0:0:0:
399,141,183088,6,0,P|406:91|432:24,2,110,6|14|4,1:2|1:2|1:2,0:0:0:0:
291,163,184147,1,4,1:2:0:0:
221,77,184500,6,0,P|163:37|113:47,1,110,6|8,1:2|0:0,0:0:0:0:
84,74,185029,1,2,1:2:0:0:
84,74,185206,1,2,0:2:0:0:
20,164,185559,2,0,P|9:203|16:223,1,55.0000016784668,8|8,0:0|0:0,0:0:0:0:
32,267,185911,6,0,B|88:282|88:282|93:289|93:289|137:300,1,110,4|8,1:2|0:0,0:0:0:0:
188,315,186441,1,0,1:2:0:0:
294,277,186794,1,0,1:2:0:0:
294,277,186970,2,0,P|275:236|278:217,1,55,8|0,0:0|0:0,0:0:0:0:
318,193,187323,6,0,P|334:148|332:79,1,110,6|8,1:2|0:0,0:0:0:0:
310,35,187853,1,2,1:2:0:0:
209,73,188206,1,0,1:2:0:0:
209,73,188382,2,0,P|181:76|155:85,1,55,8|0,0:0|1:2,0:0:0:0:
124,130,188735,6,0,B|89:237|160:186|138:297,1,165,4|0,1:2|1:2,0:0:0:0:
167,334,189441,2,0,P|228:355|319:241,1,220,4|2,1:2|0:0,0:0:0:0:
274,143,190490,6,0,P|239:124|221:122,1,55,4|2,1:2|0:0,0:0:0:0:
181,154,190842,1,8,0:0:0:0:
181,154,191019,2,0,P|134:158|81:100,1,110,2|2,1:2|1:2,0:0:0:0:
105,67,191548,1,8,0:0:0:0:
204,19,191901,6,0,B|234:19|234:19|262:37,1,55,2|2,1:2|1:2,0:0:0:0:
290,74,192254,1,10,0:0:0:0:
290,74,192431,2,0,B|342:93|342:93|343:103|343:103|397:124,1,110,2|2,1:2|1:2,0:0:0:0:
437,103,192960,1,8,0:0:0:0:
486,201,193313,6,0,P|483:262|426:288,1,110,4|8,1:2|0:0,0:0:0:0:
390,292,193842,1,2,1:2:0:0:
296,233,194195,1,0,1:2:0:0:
296,233,194372,2,0,P|246:238|219:251,1,55,8|2,0:0|0:0,0:0:0:0:
208,283,194725,6,0,L|141:265,1,55,2|2,1:2|1:2,0:0:0:0:
106,289,195078,1,8,0:0:0:0:
106,289,195254,2,0,P|65:256|72:188,1,110,2|2,0:0|1:2,0:0:0:0:
108,169,195784,1,8,0:0:0:0:
217,161,196137,6,0,B|294:161|258:188|334:185,1,110,4|8,1:2|0:0,0:0:0:0:
367,216,196666,1,2,1:2:0:0:
367,216,196842,2,0,P|409:216|438:203,1,55,2|2,0:0|1:2,0:0:0:0:
468,183,197195,1,8,0:0:0:0:
437,77,197548,6,0,L|363:68,1,55,2|2,1:2|1:2,0:0:0:0:
329,85,197901,2,0,L|255:94,1,55,8|2,0:0|1:2,0:0:0:0:
229,60,198254,2,0,P|228:22|248:8,2,55,2|2|8,0:0|1:2|0:0,0:0:0:0:
128,106,198960,6,0,P|84:153|90:204,1,110,6|8,1:2|0:0,0:0:0:0:
133,223,199490,2,0,P|196:255|236:293,1,110,2|0,0:0|1:2,0:0:0:0:
250,335,200019,1,8,0:0:0:0:
250,335,200195,2,0,B|303:355|303:355|366:344,1,110,4|0,1:2|1:2,0:0:0:0:
387,300,200725,2,0,L|397:233,1,55,8|0,0:0|1:2,0:0:0:0:
410,192,201078,2,0,L|400:125,1,55,8|0,0:0|1:2,0:0:0:0:
364,96,201431,1,8,0:0:0:0:
267,43,201784,6,0,P|212:36|170:53,1,99.9999999999999,4|0,1:2|1:2,0:0:0:0:
142,98,202313,2,0,P|155:140|161:209,1,99.9999999999999,12|8,1:2|1:3,0:0:0:0:
126,238,202842,1,0,1:2:0:0:
180,333,203195,1,4,1:2:0:0:
256,192,203372,12,2,206019,0:0:0:0:
