osu file format v14

[General]
AudioFilename: audio.mp3
AudioLeadIn: 0
PreviewTime: 167196
Countdown: 0
SampleSet: Soft
StackLeniency: 0.8
Mode: 0
LetterboxInBreaks: 0
WidescreenStoryboard: 1

[Editor]
DistanceSpacing: 1.6
BeatDivisor: 4
GridSize: 8
TimelineZoom: 2

[Metadata]
Title:Toki no Mirage
TitleUnicode:時のミラージュ
Artist:Ohara Yuiko
ArtistUnicode:大原ゆい子
Creator:_Karaage
Version:Hard
Source:リトルウィッチアカデミア 時の魔法と七不思議
Tags:LWA Little Witch Academia Academy Chamber of Time The Magic and the Seven Wonders Toki no Mahou to Nanafushigi Cradle Eternity video game jpop j-pop japanese pop anime karaage
BeatmapID:3672314
BeatmapSetID:1790761

[Difficulty]
HPDrainRate:5
CircleSize:3.6
OverallDifficulty:6
ApproachRate:8
SliderMultiplier:1.4
SliderTickRate:1

[Events]
//Background and Video events
0,0,"Little.Witch.Academia.full.2450702.jpg",0,0
//Break Periods
2,142691,152329
//Storyboard Layer 0 (Background)
//Storyboard Layer 1 (Fail)
//Storyboard Layer 2 (Pass)
//Storyboard Layer 3 (Foreground)
//Storyboard Layer 4 (Overlay)
//Storyboard Sound Samples

[TimingPoints]
-437,344.827586206896,4,2,0,65,1,0
-437,-100,4,2,0,65,0,0
942,357.142857142857,4,2,4,65,1,0
942,-142.857142857143,4,2,4,65,0,0
3799,352.941176470588,4,2,4,65,1,0
3799,-142.857142857143,4,2,4,65,0,0
5210,348.837209302326,4,2,0,65,1,0
5210,-142.857142857143,4,2,0,65,0,0
5733,288.461538461538,4,2,4,65,1,0
5733,-125,4,2,4,65,0,0
6454,350.877192982457,4,2,4,65,1,0
6454,-100,4,2,4,65,0,0
6629,344.827586206897,4,2,4,65,1,0
6629,-100,4,2,4,65,0,0
7318,346.820809248555,4,2,4,65,1,0
7318,-100,4,2,4,65,0,0
8011,337.078651685395,4,2,4,65,1,0
8011,-100,4,2,4,65,0,0
8516,408.163265306122,4,2,4,65,1,0
8516,-100,4,2,4,65,0,0
8721,348.837209302326,4,2,4,65,1,0
8721,-100,4,2,4,65,0,0
9418,350.877192982457,4,2,4,65,1,0
9418,-100,4,2,4,65,0,0
11874,342.857142857144,4,2,4,65,1,0
11874,-100,4,2,4,65,0,0
12216,357.142857142857,4,2,4,50,1,0
12216,-142.857142857143,4,2,4,50,0,0
14983,-142.857142857143,4,2,4,5,0,0
15073,352.941176470589,4,2,2,50,1,0
15073,-166.666666666667,4,2,2,50,0,0
37661,-125,4,2,4,50,0,0
40308,-125,4,2,4,35,0,0
40484,-125,4,2,4,50,0,0
48955,-125,4,2,2,55,0,0
50367,272.727272727273,4,2,2,55,1,0
50367,-100,4,2,2,55,0,0
50912,428.571428571429,4,2,2,65,1,0
50912,-100,4,2,2,65,0,0
51126,566.037735849056,4,2,0,50,1,0
51126,-100,4,2,0,50,0,0
51417,-100,4,2,4,50,0,0
51427,352.941176470589,4,2,4,75,1,1
51427,-100,4,2,4,75,0,1
51691,-100,4,2,4,5,0,1
51779,-100,4,2,4,75,0,1
59279,-100,4,2,4,5,0,1
59368,-100,4,2,4,75,0,1
74015,-100,4,2,4,75,0,0
90956,-100,4,2,4,50,0,0
93427,-166.666666666667,4,2,4,75,0,0
93691,-166.666666666667,4,2,4,5,0,0
93779,-111.111111111111,4,2,4,60,0,0
96603,-111.111111111111,4,2,4,50,0,0
107897,-125,4,2,4,50,0,0
113544,-111.111111111111,4,2,4,60,0,0
119181,355.029585798817,4,2,4,75,1,0
119181,-100,4,2,4,75,0,0
122021,352.941176470589,4,2,4,75,1,0
122021,-100,4,2,4,75,0,0
141785,-100,4,2,4,5,0,0
142315,-100,4,2,4,75,0,0
142403,-100,4,2,4,40,0,0
142491,352.941176470589,4,2,3,50,1,0
142491,-100,4,2,3,50,0,0
153079,-111.111111111111,4,2,3,50,0,0
153785,-142.857142857143,4,2,4,60,0,0
165079,-142.857142857143,4,2,0,50,0,0
167196,-166.666666666667,3,2,6,66,0,0
167461,-166.666666666667,3,2,6,5,0,0
167549,-166.666666666667,3,2,4,5,0,0
167559,352.941176470589,4,2,4,75,1,1
167559,-100,4,2,4,75,0,1
167823,-100,4,2,4,5,0,1
167911,-100,4,2,4,75,0,1
175411,-100,4,2,4,5,0,1
175500,-100,4,2,4,75,0,1
190147,-100,4,2,4,50,0,0
190490,352.941176470589,4,2,4,50,1,0
190490,-100,4,2,4,70,0,0
203195,-100,4,2,4,60,0,0
206019,-100,4,2,4,60,0,0
222960,-100,4,2,0,60,0,0

[Colours]
Combo1 : 100,183,244
Combo2 : 125,105,239
Combo3 : 243,131,209
Combo4 : 250,233,114
Combo5 : 251,139,85

[HitObjects]
19,26,942,6,0,B|61:56|125:59|125:59|167:115|167:115|234:112|289:141,1,294,4|0,1:2|0:0,0:0:0:0:
363,197,2191,1,2,0:0:0:0:
363,197,2281,1,2,0:0:0:0:
363,197,2370,2,0,P|412:153|408:64,2,147,2|2|2,0:0|0:0|0:0,0:0:0:0:
308,280,3620,1,8,1:3:0:0:
308,280,3709,1,8,1:3:0:0:
308,280,3799,6,0,B|258:250|258:250|79:294|79:294|22:255,1,294,4|0,1:2|0:0,0:0:0:0:
42,106,5210,2,0,B|92:97|92:97|139:116,1,97.9999999999999,2|0,0:0|0:0,0:0:0:0:
223,61,5733,5,0,1:0:0:0:
223,61,5805,1,0,1:0:0:0:
223,61,5877,2,0,B|277:52|277:52|279:59|279:59|330:51,2,112.194133333333,8|0|4,1:3|1:0|1:3,0:0:0:0:
149,129,6629,6,0,P|191:175|213:263,1,140,4|0,1:2|0:0,0:0:0:0:
213,248,7146,1,0,1:2:0:0:
281,319,7318,2,0,B|332:302|332:302|372:316|372:316|434:299,1,140,8|0,0:0|0:0,0:0:0:0:
414,304,7838,1,0,1:0:0:0:
487,225,8011,5,0,1:2:0:0:
487,225,8179,2,0,P|445:202|342:188,1,140,0|0,1:2|1:0,0:0:0:0:
265,101,8721,1,8,0:0:0:0:
172,149,8895,2,0,B|71:138|127:184|19:168,1,140,8|0,0:0|1:0,0:0:0:0:
17,273,9418,6,0,P|66:275|145:340,1,140,6|0,1:2|1:2,0:0:0:0:
231,374,9944,2,0,L|307:355,1,70,2|0,1:2|1:2,0:0:0:0:
323,254,10295,2,0,L|255:237,1,70,2|0,1:2|1:2,0:0:0:0:
131,212,10646,6,0,P|106:169|150:85,1,140,6|0,1:2|1:2,0:0:0:0:
229,25,11172,2,0,P|270:46|312:42,1,70,10|2,1:2|1:2,0:0:0:0:
351,142,11523,2,0,P|316:145|286:163,1,70,10|2,1:2|1:2,0:0:0:0:
245,270,11874,1,10,1:2:0:0:
296,369,12045,1,2,1:2:0:0:
397,333,12216,5,6,1:2:0:0:
397,333,12394,2,0,L|458:351,2,49,2|2|2,0:0|1:2|0:0,0:0:0:0:
326,264,12930,2,0,L|265:282,2,49,2|2|2,1:2|0:0|1:2,0:0:0:0:
400,200,13466,2,0,L|461:218,2,49,2|2|2,0:0|1:2|0:0,0:0:0:0:
346,118,14001,1,2,1:2:0:0:
271,71,14180,1,2,0:0:0:0:
271,71,14269,1,0,0:0:0:0:
271,71,14358,2,0,P|213:83|105:142,1,171.5,4|0,0:0|0:0,0:0:0:0:
103,148,15073,6,0,P|104:185|90:238,1,83.9999999999998,10|2,0:0|0:0,0:0:0:0:
171,270,15602,2,0,P|170:307|184:360,1,83.9999999999998,2|2,0:0|0:0,0:0:0:0:
350,294,16308,1,2,0:0:0:0:
350,294,16484,6,0,P|392:290|444:295,1,83.9999999999998,10|2,0:0|0:0,0:0:0:0:
432,204,17014,2,0,P|390:208|338:203,1,83.9999999999998,2|2,0:0|0:0,0:0:0:0:
243,68,17720,1,2,0:0:0:0:
243,68,17896,6,0,B|206:55|206:55|149:70,1,83.9999999999998,10|2,0:0|0:0,0:0:0:0:
95,123,18425,2,0,B|71:162|71:162|73:214,1,83.9999999999998,2|2,0:0|0:0,0:0:0:0:
280,319,19131,2,0,B|335:313|335:313|355:324|355:324|412:318,1,126,2|0,0:0|0:0,0:0:0:0:
482,155,20014,6,0,P|441:147|386:129,1,83.9999999999998,2|2,0:0|0:0,0:0:0:0:
343,67,20543,2,0,P|304:35|257:39,1,83.9999999999998,2|0,0:0|0:0,0:0:0:0:
208,96,21073,1,2,0:0:0:0:
208,96,21249,2,0,P|224:151|228:190,1,83.9999999999998,2|0,0:0|0:0,0:0:0:0:
145,202,21778,1,2,0:0:0:0:
145,202,21955,6,0,P|129:147|125:108,1,83.9999999999998,2|0,0:0|0:0,0:0:0:0:
148,35,22484,1,2,0:0:0:0:
148,35,22661,1,2,0:0:0:0:
400,113,23190,1,2,0:0:0:0:
400,113,23367,6,0,P|420:148|421:207,1,83.9999999999998,2|0,0:0|0:0,0:0:0:0:
377,267,23896,1,2,0:0:0:0:
377,267,24073,2,0,B|262:279|327:214|201:231,1,168,2|0,0:0|0:0,0:0:0:0:
145,277,24955,5,10,0:0:0:0:
145,277,25661,1,2,0:0:0:0:
490,350,26367,6,0,P|499:280|486:258,1,83.9999999999998,2|2,0:0|0:0,0:0:0:0:
412,236,26896,2,0,L|357:245,1,41.9999999999999,2|8,0:0|0:0,0:0:0:0:
292,284,27249,1,2,0:0:0:0:
131,210,27602,1,0,0:0:0:0:
131,210,27778,6,0,P|109:169|113:130,1,83.9999999999998,2|2,0:0|0:0,0:0:0:0:
177,72,28308,2,0,L|223:84,1,41.9999999999999,2|8,0:0|0:0,0:0:0:0:
298,47,28661,1,2,0:0:0:0:
448,139,29014,5,0,0:0:0:0:
448,139,29190,2,0,B|437:181|437:181|430:185|430:185|420:227,1,83.9999999999998,2|2,0:0|0:0,0:0:0:0:
360,280,29720,2,0,B|280:299|280:299|226:288,1,126,2|0,0:0|0:0,0:0:0:0:
148,140,30602,6,0,P|94:139|64:150,3,83.9999999999998,2|2|10|2,0:0|0:0|0:0|0:0,0:0:0:0:
235,200,32014,2,0,L|330:183,1,83.9999999999998,2|2,0:0|0:0,0:0:0:0:
393,230,32543,2,0,P|426:225|449:177,1,83.9999999999998,2|0,0:0|0:0,0:0:0:0:
386,120,33073,1,2,0:0:0:0:
386,120,33249,2,0,P|373:87|448:65,1,126,2|0,0:0|0:0,0:0:0:0:
263,57,34131,2,0,P|236:50|178:14,1,83.9999999999998,10|2,0:0|0:0,0:0:0:0:
52,136,34837,6,0,B|71:179|71:179|56:195|51:225,1,83.9999999999998,2|0,0:0|0:0,0:0:0:0:
108,281,35367,2,0,B|131:276|149:263|149:263|167:281|189:287,1,83.9999999999998,2|2,0:0|0:0,0:0:0:0:
255,332,35896,1,2,0:0:0:0:
336,279,36073,6,0,P|338:244|394:115,1,168,2|0,0:0|0:0,0:0:0:0:
340,47,36955,2,0,P|300:64|251:58,1,83.9999999999998,10|2,0:0|0:0,0:0:0:0:
179,20,37484,1,2,0:0:0:0:
179,20,37573,1,2,0:0:0:0:
179,20,37661,6,0,P|127:23|96:79,1,112,4|2,1:2|0:0,0:0:0:0:
159,155,38190,1,2,1:2:0:0:
159,155,38367,2,0,P|186:197|193:265,1,112,8|0,0:0|0:0,0:0:0:0:
269,325,38896,1,2,0:0:0:0:
360,281,39073,2,0,L|423:301,1,56,2|0,1:2|1:2,0:0:0:0:
496,354,39425,1,8,0:0:0:0:
426,62,40308,5,2,0:0:0:0:
426,62,40396,1,2,0:0:0:0:
426,62,40484,2,0,B|368:77|368:77|368:82|368:82|308:98,1,112,2|0,1:2|0:0,0:0:0:0:
237,38,41014,1,2,1:2:0:0:
237,38,41190,2,0,P|187:43|148:93,1,112,10|0,0:0|0:0,0:0:0:0:
149,88,41720,1,2,0:0:0:0:
205,178,41896,5,2,1:2:0:0:
205,178,42073,2,0,P|226:221|233:294,1,112,8|0,0:0|1:2,0:0:0:0:
304,356,42602,1,8,0:0:0:0:
360,272,42778,2,0,P|339:229|332:156,1,112,8|2,0:0|0:0,0:0:0:0:
364,126,43220,1,2,0:0:0:0:
364,126,43308,6,0,P|353:86|282:45,1,112,6|0,1:2|0:0,0:0:0:0:
203,76,43837,1,2,1:2:0:0:
203,76,44014,2,0,B|119:53|158:92|73:70,1,112,8|0,0:0|0:0,0:0:0:0:
93,74,44543,1,2,3:2:0:0:
44,163,44720,5,2,1:2:0:0:
44,163,44896,2,0,B|58:207|58:207|43:231|43:231|55:276,1,112,8|2,0:0|1:2,0:0:0:0:
150,291,45425,2,0,P|181:280|213:284,1,56,8|0,0:0|0:0,0:0:0:0:
282,344,45778,1,2,1:2:0:0:
457,243,46131,6,0,B|433:214|433:214|354:195,1,112,6|0,1:2|0:0,0:0:0:0:
268,240,46661,1,2,1:2:0:0:
181,188,46837,2,0,B|155:138|155:138|178:81,1,112,8|2,0:0|0:0,0:0:0:0:
262,32,47367,6,0,P|321:41|386:60,2,112,6|8|0,1:2|0:0|1:2,0:0:0:0:
165,2,48249,1,8,0:0:0:0:
91,70,48425,2,0,P|67:95|38:116,1,56,8|0,0:0|0:0,0:0:0:0:
15,203,48778,1,8,0:0:0:0:
445,336,50965,6,0,L|474:345,3,17.5,2|2|2|2,0:0|0:0|0:0|0:0,0:0:0:0:
321,195,51427,6,0,P|244:186|191:198,1,105,6|0,1:2|0:0,0:0:0:0:
195,207,51779,1,10,0:0:0:0:
103,271,51956,1,2,1:2:0:0:
45,175,52132,2,0,P|62:136|50:101,1,70,2|2,0:0|1:2,0:0:0:0:
153,54,52485,2,0,P|136:93|148:128,1,70,8|2,0:0|0:0,0:0:0:0:
281,149,52838,6,0,P|331:157|362:173,1,70,2|2,1:2|1:2,0:0:0:0:
417,253,53191,1,8,0:0:0:0:
367,354,53368,1,2,1:2:0:0:
239,296,53544,6,0,L|144:288,1,70,2|0,0:0|1:2,0:0:0:0:
94,206,53897,2,0,L|189:198,1,70,8|2,0:0|0:0,0:0:0:0:
209,212,54162,1,2,0:0:0:0:
209,212,54250,6,0,P|248:186|232:84,1,140,2|8,1:2|0:0,0:0:0:0:
161,28,54779,2,0,B|72:5|103:51|16:20,1,140,2|0,1:2|1:2,0:0:0:0:
1,133,55309,1,8,0:0:0:0:
63,225,55485,2,0,P|72:268|67:307,2,70,2|0|0,0:0|1:2|1:2,0:0:0:0:
182,139,56015,6,0,P|223:155|262:158,1,70,10|0,0:0|1:2,0:0:0:0:
331,81,56368,2,0,P|372:65|411:62,1,70,2|0,0:0|1:2,0:0:0:0:
499,108,56721,1,8,0:0:0:0:
472,328,57074,5,6,1:2:0:0:
365,360,57250,2,0,B|325:370|325:370|291:358,1,70,2|8,0:0|0:0,0:0:0:0:
258,255,57603,2,0,B|193:231|193:231|104:244,1,140,2|0,1:2|1:2,0:0:0:0:
29,303,58132,2,0,P|3:279|4:233,1,70,8|2,0:0|0:0,0:0:0:0:
110,146,58485,5,2,1:2:0:0:
220,125,58662,2,0,P|235:81|216:31,1,70,2|8,1:2|0:0,0:0:0:0:
329,0,59015,2,0,P|337:57|387:94,1,105,2|0,1:2|0:0,0:0:0:0:
398,91,59368,1,2,1:2:0:0:
502,129,59544,1,8,0:0:0:0:
469,236,59721,2,0,P|457:272|453:316,1,70,2|4,0:0|1:2,0:0:0:0:
304,357,60074,5,2,0:0:0:0:
285,255,60250,1,10,0:0:0:0:
285,255,60427,2,0,B|277:161|321:210|319:120,1,140,2|0,1:2|1:2,0:0:0:0:
321,11,60956,1,8,0:0:0:0:
182,104,61132,1,2,0:0:0:0:
182,104,61309,6,0,P|126:125|67:74,1,140,4|8,1:2|0:0,0:0:0:0:
156,8,61838,2,0,P|191:13|229:23,1,70,2|0,0:0|1:2,0:0:0:0:
336,21,62191,2,0,L|376:11,2,35,0|0|0,1:2|1:2|1:2,0:0:0:0:
308,153,62544,1,0,1:2:0:0:
308,153,62632,1,0,1:2:0:0:
308,153,62721,6,0,P|289:195|290:239,1,70,6|2,1:2|0:0,0:0:0:0:
351,310,63074,1,10,0:0:0:0:
246,333,63250,2,0,P|183:323|89:332,1,140,2|0,1:2|1:2,0:0:0:0:
26,250,63779,2,0,P|66:254|102:241,1,70,8|2,0:0|0:0,0:0:0:0:
203,164,64132,6,0,L|215:88,1,70,2|0,1:2|1:2,0:0:0:0:
288,11,64485,1,8,0:0:0:0:
379,76,64662,2,0,L|394:217,1,140,2|0,0:0|1:2,0:0:0:0:
468,298,65191,2,0,B|477:339|477:339|459:369,1,70,8|0,0:0|0:0,0:0:0:0:
306,310,65544,6,0,P|260:293|157:283,1,140,4|8,1:2|0:0,0:0:0:0:
62,318,66074,1,2,1:2:0:0:
10,219,66250,2,0,P|18:175|42:136,1,70,2|0,0:0|1:2,0:0:0:0:
76,50,66603,1,8,0:0:0:0:
311,143,66956,6,0,L|392:161,1,70,4|0,1:2|0:0,0:0:0:0:
370,31,67309,2,0,L|301:46,1,70,10|0,0:0|0:0,0:0:0:0:
215,128,67662,1,6,1:2:0:0:
153,35,67838,1,0,1:2:0:0:
61,85,68015,2,0,P|39:113|35:160,1,70,8|8,0:0|0:0,0:0:0:0:
54,180,68279,1,8,0:0:0:0:
54,180,68368,6,0,B|58:284|13:220|24:332,1,140,4|8,1:2|0:0,0:0:0:0:
140,352,68897,2,0,P|166:307|264:292,1,140,2|0,1:2|1:2,0:0:0:0:
340,350,69427,1,8,0:0:0:0:
452,262,69603,1,0,1:2:0:0:
452,262,69691,1,8,0:0:0:0:
452,262,69779,6,0,P|466:196|465:174,1,70,0|0,1:2|1:2,0:0:0:0:
439,84,70132,1,8,0:0:0:0:
343,133,70309,2,0,B|298:144|298:144|209:115,1,140,0|0,1:2|1:2,0:0:0:0:
129,35,70838,2,0,B|89:32|89:32|57:55,1,70,8|0,0:0|0:0,0:0:0:0:
37,210,71191,6,0,P|59:252|70:342,1,140,4|8,1:2|0:0,0:0:0:0:
174,299,71721,2,0,P|152:257|141:167,1,140,2|0,1:2|1:2,0:0:0:0:
203,72,72250,1,8,0:0:0:0:
276,156,72427,1,2,0:0:0:0:
371,42,72603,6,0,L|519:69,1,140,4|8,1:2|0:0,0:0:0:0:
387,311,73309,2,0,L|239:338,1,140,6|8,1:2|0:0,0:0:0:0:
146,307,73838,1,8,0:0:0:0:
146,307,73927,1,8,0:0:0:0:
146,307,74015,6,0,P|192:276|183:176,1,140,6|8,1:2|0:0,0:0:0:0:
108,129,74544,2,0,P|107:61|160:18,1,140,2|0,1:2|1:2,0:0:0:0:
270,42,75074,2,0,P|327:55|414:93,1,140,8|2,0:0|1:2,0:0:0:0:
483,171,75603,1,0,1:2:0:0:
483,171,75779,1,8,0:0:0:0:
400,247,75956,2,0,P|343:260|256:298,1,140,2|2,1:2|1:2,0:0:0:0:
175,354,76485,1,8,0:0:0:0:
124,253,76662,1,2,0:0:0:0:
245,193,76838,6,0,B|262:91|205:145|226:42,1,140,6|8,1:2|0:0,0:0:0:0:
115,23,77368,2,0,B|132:125|75:71|96:174,1,140,2|0,1:2|1:2,0:0:0:0:
20,242,77897,2,0,P|11:283|98:321,1,140,8|2,0:0|1:2,0:0:0:0:
184,275,78427,1,0,1:2:0:0:
184,275,78603,1,8,0:0:0:0:
287,317,78779,2,0,P|328:347|337:387,2,70,2|2|2,1:2|0:0|1:2,0:0:0:0:
258,207,79309,1,10,0:0:0:0:
357,151,79485,1,8,0:0:0:0:
357,151,79574,1,8,0:0:0:0:
357,151,79662,6,0,B|296:164|296:164|272:153|272:153|198:172,1,140,6|8,1:2|0:0,0:0:0:0:
139,90,80191,2,0,B|92:144|92:144|116:217,1,140,2|0,1:2|1:2,0:0:0:0:
203,277,80721,2,0,B|252:289|252:289|276:278|276:278|337:291,1,140,8|2,0:0|1:2,0:0:0:0:
445,253,81250,1,0,1:2:0:0:
445,253,81427,1,8,0:0:0:0:
411,146,81603,2,0,B|364:160|364:160|266:123,1,140,2|0,1:2|1:2,0:0:0:0:
219,32,82132,1,8,0:0:0:0:
56,183,82485,6,0,B|67:248|67:248|62:251|62:251|73:321,1,140,4|8,1:2|0:0,0:0:0:0:
159,245,83015,1,2,0:0:0:0:
159,245,83103,1,0,0:0:0:0:
159,245,83191,2,0,B|196:230|196:230|241:239,1,70,0|2,1:2|1:2,0:0:0:0:
310,309,83544,1,10,0:0:0:0:
413,224,83721,6,0,P|400:172|400:60,1,140,6|0,1:2|1:2,0:0:0:0:
313,21,84250,1,8,0:0:0:0:
218,67,84427,1,0,1:2:0:0:
123,21,84603,2,0,P|79:32|47:64,1,70,8|0,0:0|1:2,0:0:0:0:
33,148,84956,1,8,0:0:0:0:
172,300,85309,5,8,0:0:0:0:
172,300,85485,1,8,0:0:0:0:
274,275,85662,1,8,0:0:0:0:
462,102,88132,5,8,0:0:0:0:
462,102,88309,1,8,0:0:0:0:
360,77,88485,1,8,0:0:0:0:
79,127,90074,5,0,1:0:0:0:
79,127,90162,1,0,1:0:0:0:
79,127,90250,2,0,B|55:85|94:27|193:48|207:164|104:237,1,280,12|2,0:0|0:0,0:0:0:0:
476,359,93427,6,0,P|454:318|459:288,1,62.9999999999999,2|0,0:0|2:0,0:0:0:0:
430,274,93779,6,0,B|387:280|359:326|359:326|325:283|253:287,1,189,4|0,1:2|0:0,0:0:0:0:
169,334,94485,2,0,P|116:318|107:187,1,189,4|0,1:2|0:0,0:0:0:0:
164,109,95191,2,0,B|210:87|210:87|296:103|296:103|348:81,1,189,4|0,1:2|0:0,0:0:0:0:
441,33,95897,2,0,B|466:12|466:12|463:119,1,126,4|2,1:2|0:0,0:0:0:0:
417,181,96427,1,2,0:0:0:0:
330,232,96603,6,0,P|309:293|305:367,2,126,4|0|8,1:2|1:2|0:0,0:0:0:0:
171,106,97662,1,2,0:0:0:0:
87,49,97838,2,0,P|42:59|13:89,2,63.0000000000001,8|0|8,0:0|1:2|0:0,0:0:0:0:
179,6,98368,6,0,P|221:13|254:30,1,63.0000000000001,2|0,0:0|1:2,0:0:0:0:
312,91,98721,2,0,P|361:120|445:120,1,126,8|2,0:0|0:0,0:0:0:0:
494,200,99250,1,0,1:2:0:0:
435,282,99427,6,0,P|364:278|297:300,1,126,4|0,1:2|1:2,0:0:0:0:
139,187,100132,2,0,P|199:202|262:197,1,126,10|2,0:0|0:0,0:0:0:0:
344,138,100662,2,0,B|356:67|356:67|318:53|308:12,1,126,6|8,1:2|0:0,0:0:0:0:
216,13,101191,6,0,P|161:15|76:45,1,126,2|10,0:0|0:0,0:0:0:0:
18,104,101721,1,0,1:2:0:0:
67,191,101897,2,0,P|87:228|91:255,1,63.0000000000001,2|10,0:0|0:0,0:0:0:0:
175,325,102250,6,0,B|224:315|224:315|254:325|254:325|310:314,1,126,6|0,1:2|1:2,0:0:0:0:
389,358,102779,2,0,B|429:315|429:315|407:235,1,126,8|0,0:0|1:2,0:0:0:0:
323,199,103309,2,0,L|337:55,1,126,14|0,0:0|1:2,0:0:0:0:
335,73,103838,1,0,1:2:0:0:
239,40,104015,6,0,B|208:29|208:29|168:38,1,63.0000000000001,2|8,0:0|0:0,0:0:0:0:
105,105,104368,2,0,B|94:136|94:136|103:176,1,63.0000000000001,2|0,0:0|1:2,0:0:0:0:
171,237,104721,1,10,0:0:0:0:
359,307,105074,6,0,B|392:308|415:336|415:336|446:305|494:313,2,126,4|0|8,1:2|1:2|0:0,0:0:0:0:
171,237,106132,1,2,0:0:0:0:
79,279,106309,2,0,P|24:249|36:174,2,126,4|8|0,1:2|0:0|1:2,0:0:0:0:
165,330,107191,2,0,P|201:330|241:339,1,63.0000000000001,8|0,0:0|1:2,0:0:0:0:
323,302,107544,1,8,0:0:0:0:
449,175,107897,6,0,P|453:133|482:64,2,112,4|2|0,1:2|1:2|1:2,0:0:0:0:
318,51,108956,2,0,P|287:42|247:47,1,56,2|2,1:2|0:0,0:0:0:0:
192,97,109309,2,0,P|148:85|115:27,2,112,2|2|2,1:2|1:2|1:2,0:0:0:0:
293,245,110368,1,10,0:0:0:0:
138,335,110721,6,0,P|111:277|80:239,1,112,4|0,1:2|1:2,0:0:0:0:
111,155,111250,1,2,0:0:0:0:
193,118,111427,2,0,P|248:125|315:117,1,112,0|0,1:2|1:2,0:0:0:0:
482,104,112132,6,0,B|497:63|497:63|479:37|479:37|493:-7,2,112,0|2|2,1:2|1:2|1:2,0:0:0:0:
431,181,113015,1,0,0:0:0:0:
431,181,113103,1,8,0:0:0:0:
431,181,113191,2,0,P|394:183|364:203,1,56,10|0,1:2|0:0,0:0:0:0:
290,253,113544,6,0,P|217:244|155:252,1,126,6|0,1:2|1:2,0:0:0:0:
160,141,114074,2,0,P|222:146|284:137,1,126,10|0,0:0|1:2,0:0:0:0:
354,56,114603,2,0,P|387:47|424:67,1,63.0000000000001,8|2,0:0|0:0,0:0:0:0:
476,150,114956,5,2,1:2:0:0:
476,150,115132,2,0,P|447:180|442:218,1,63.0000000000001,0|0,1:2|0:0,0:0:0:0:
353,260,115485,2,0,B|354:350|317:291|324:393,1,126,10|0,0:0|1:2,0:0:0:0:
240,309,116015,1,12,0:0:0:0:
89,156,116368,6,0,L|66:7,2,126,4|8|2,1:2|0:0|1:2,0:0:0:0:
187,198,117250,1,0,1:2:0:0:
187,198,117427,1,10,0:0:0:0:
273,129,117603,6,0,B|333:138|333:138|345:148|345:148|408:158,1,126,6|0,1:2|1:2,0:0:0:0:
493,197,118132,2,0,B|504:233|504:233|483:259,1,63.0000000000001,8|0,0:0|0:0,0:0:0:0:
397,320,118485,5,0,1:2:0:0:
397,320,118574,1,8,1:3:0:0:
397,320,118662,2,0,L|356:328,1,31.5,8|8,1:3|1:3,0:0:0:0:
325,342,118838,2,0,L|284:334,3,31.5,8|8|8|8,0:3|0:3|0:3|0:3,0:0:0:0:
248,353,119181,6,0,P|196:303|220:235,1,140,4|8,1:2|0:0,0:0:0:0:
303,189,119713,1,2,3:2:0:0:
303,189,119802,1,0,3:0:0:0:
303,189,119891,1,0,1:2:0:0:
397,233,120068,2,0,L|476:245,1,70,2|8,1:2|0:0,0:0:0:0:
472,138,120423,2,0,L|393:150,1,70,2|0,0:0|1:2,0:0:0:0:
325,76,120778,2,0,L|246:64,1,70,2|8,1:2|0:0,0:0:0:0:
161,18,121133,5,2,0:0:0:0:
161,18,121222,1,0,0:0:0:0:
161,18,121311,2,0,P|139:60|137:91,1,70,2|2,1:2|1:2,0:0:0:0:
225,138,121666,1,8,0:0:0:0:
121,240,121843,1,2,0:0:0:0:
121,240,121932,1,0,1:0:0:0:
121,240,122021,6,0,B|116:304|116:304|109:312|109:312|102:386,1,140,4|8,1:2|0:0,0:0:0:0:
31,315,122550,1,2,3:2:0:0:
31,315,122638,1,0,3:2:0:0:
31,315,122726,1,0,1:2:0:0:
5,212,122903,2,0,P|37:182|70:176,1,70,2|8,1:2|0:0,0:0:0:0:
110,82,123256,2,0,P|142:112|175:118,1,70,2|0,3:2|1:2,0:0:0:0:
239,194,123609,2,0,P|271:164|304:158,1,70,2|8,1:2|0:0,0:0:0:0:
392,222,123962,5,2,0:0:0:0:
392,222,124050,1,0,0:0:0:0:
392,222,124138,2,0,L|404:147,1,70,2|2,1:2|1:2,0:0:0:0:
462,66,124491,1,10,0:0:0:0:
315,52,124668,1,0,1:2:0:0:
315,52,124756,1,0,1:2:0:0:
315,52,124844,6,0,B|208:39|264:88|169:77,1,140,4|8,1:2|0:0,0:0:0:0:
82,42,125373,2,0,B|65:75|65:75|73:106,1,70,2|0,1:2|0:0,0:0:0:0:
142,186,125726,2,0,B|175:203|175:203|206:195,1,70,2|8,1:2|0:0,0:0:0:0:
304,154,126079,2,0,B|340:148|340:148|375:167,1,70,2|0,3:2|1:2,0:0:0:0:
459,248,126432,5,2,1:2:0:0:
459,248,126609,1,8,0:0:0:0:
369,302,126785,2,0,P|376:339|389:380,2,70,2|2|2,0:0|1:2|1:2,0:0:0:0:
269,282,127315,1,10,0:0:0:0:
269,282,127491,1,2,0:0:0:0:
289,153,127668,6,0,B|319:134|319:134|436:145,1,140,6|8,1:2|0:0,0:0:0:0:
500,62,128197,2,0,P|487:30|457:13,1,70,2|0,0:0|1:2,0:0:0:0:
345,2,128550,1,2,1:2:0:0:
345,2,128726,1,8,0:2:0:0:
245,54,128903,2,0,L|170:72,1,70,2|2,0:0|1:2,0:0:0:0:
75,36,129256,1,2,1:2:0:0:
75,36,129432,1,10,0:0:0:0:
23,122,129609,2,0,B|14:156|14:156|17:159|17:159|9:194,1,70,2|0,1:2|1:2,0:0:0:0:
55,283,129962,2,0,L|45:320,2,35,8|8|0,3:0|3:0|1:2,0:0:0:0:
139,219,130315,1,8,3:0:0:0:
225,314,130491,6,0,B|284:331|284:331|292:340|292:340|362:361,1,140,6|0,1:2|1:2,0:0:0:0:
392,259,131021,2,0,B|333:242|333:242|325:233|325:233|255:212,1,140,10|0,0:0|1:2,0:0:0:0:
184,141,131550,2,0,P|175:106|200:75,1,70,10|0,0:0|3:0,0:0:0:0:
275,14,131903,5,0,1:2:0:0:
352,84,132079,2,0,P|400:104|436:103,1,70,0|0,1:2|0:0,0:0:0:0:
479,190,132432,2,0,P|423:206|368:277,1,140,10|2,0:0|1:2,0:0:0:0:
300,345,132962,1,10,0:0:0:0:
300,345,133138,1,2,0:0:0:0:
199,239,133315,6,0,B|121:252|121:252|86:235|46:241,1,140,4|0,1:2|1:2,0:0:0:0:
125,155,133844,2,0,B|203:142|203:142|238:159|278:153,1,140,10|0,0:0|1:2,0:0:0:0:
333,231,134373,2,0,P|386:241|415:229,1,70,10|0,0:0|0:0,0:0:0:0:
476,171,134726,5,0,1:2:0:0:
411,87,134903,2,0,L|333:69,1,70,0|0,1:2|0:0,0:0:0:0:
247,23,135256,1,8,0:0:0:0:
153,68,135432,2,0,L|166:142,1,70,0|0,0:0|1:2,0:0:0:0:
243,207,135785,1,8,0:0:0:0:
346,177,135962,1,0,1:0:0:0:
346,177,136050,1,0,1:0:0:0:
346,177,136138,6,0,B|333:236|333:236|340:257|340:257|323:326,1,140,4|8,1:2|0:0,0:0:0:0:
228,354,136668,2,0,B|188:357|188:357|148:339,1,70,2|0,0:0|1:2,0:0:0:0:
119,247,137021,2,0,B|159:244|159:244|199:262,1,70,2|8,1:2|0:0,0:0:0:0:
233,162,137373,1,2,0:0:0:0:
330,244,137550,6,0,B|368:261|368:261|476:231,1,140,4|8,1:2|0:0,0:0:0:0:
509,140,138079,2,0,B|471:123|471:123|363:153,1,140,2|2,1:2|1:2,0:0:0:0:
294,82,138609,1,8,0:0:0:0:
78,135,138962,6,0,L|88:205,1,70,4|0,1:2|0:0,0:0:0:0:
181,252,139315,2,0,L|171:322,1,70,8|2,0:0|0:0,0:0:0:0:
265,368,139668,1,4,3:0:0:0:
265,368,139756,1,8,3:0:0:0:
265,368,139844,2,0,L|308:359,2,35,8|8|4,3:0|3:0|3:0,0:0:0:0:
347,293,140197,1,4,3:0:0:0:
439,324,140373,1,4,1:2:0:0:
256,192,140462,12,0,141785,0:0:0:0:
489,222,142315,6,0,L|503:182,2,35,0|2|2,0:0|0:0|0:0,0:0:0:0:
131,21,153079,6,0,L|24:39,2,94.5000000000001,8|8|8,3:2|3:2|3:2,0:0:0:0:
217,68,153785,6,0,P|274:48|303:52,2,73.4999999999999,4|0|0,1:2|1:2|1:2,0:0:0:0:
172,155,154491,2,0,P|196:198|204:259,1,97.9999999999999,8|0,0:0|0:0,0:0:0:0:
480,273,156608,6,0,L|490:353,2,73.4999999999999,0|0|0,1:2|1:2|1:2,0:0:0:0:
406,208,157314,2,0,B|416:170|416:170|407:147|407:147|417:99,1,97.9999999999999,8|0,0:0|0:0,0:0:0:0:
231,39,158020,6,0,P|151:32|115:35,2,97.9999999999999,6|2|10,1:2|1:2|0:0,0:0:0:0:
397,5,159079,1,2,3:2:0:0:
397,5,159255,1,0,3:0:0:0:
458,61,159432,6,0,P|486:128|493:167,1,97.9999999999999,6|2,1:2|1:2,0:0:0:0:
451,314,160138,2,0,P|438:266|417:222,1,97.9999999999999,8|0,0:0|3:0,0:0:0:0:
259,171,160843,5,2,1:2:0:0:
174,210,161020,2,0,P|136:203|70:202,1,97.9999999999999,8|2,0:0|1:2,0:0:0:0:
67,108,161549,2,0,P|105:115|171:116,1,97.9999999999999,10|2,0:0|0:0,0:0:0:0:
328,27,162255,6,0,P|375:21|422:67,1,97.9999999999999,6|0,1:2|1:2,0:0:0:0:
386,141,162785,1,0,0:0:0:0:
386,141,162961,2,0,L|381:252,1,97.9999999999999,8|0,0:0|1:2,0:0:0:0:
318,308,163491,1,2,1:2:0:0:
231,272,163667,6,0,B|163:258|163:258|151:262|151:262|70:238,1,147,6|0,1:2|0:0,0:0:0:0:
82,150,164373,2,0,B|158:136|158:136|190:143|190:143|293:118,1,196,6|2,1:2|0:0,0:0:0:0:
34,339,167196,6,0,P|81:325|110:323,1,62.9999999999999,4|0,1:3|0:0,0:0:0:0:
124,342,167559,6,0,P|171:342|208:272,1,105,4|0,1:2|0:0,0:0:0:0:
211,273,167911,1,10,0:0:0:0:
133,191,168088,1,2,1:2:0:0:
216,117,168264,2,0,P|267:121|295:132,1,70,2|2,0:0|1:2,0:0:0:0:
344,32,168617,2,0,P|293:28|265:17,1,70,10|2,0:0|0:0,0:0:0:0:
150,15,168970,6,0,P|112:25|96:57,1,70,2|2,1:2|1:2,0:0:0:0:
127,157,169323,1,10,0:0:0:0:
46,235,169500,1,2,1:2:0:0:
131,343,169676,6,0,L|220:355,1,70,2|2,0:0|1:2,0:0:0:0:
313,357,170029,2,0,L|402:345,1,70,8|0,0:0|0:0,0:0:0:0:
480,265,170382,6,0,B|411:251|411:251|406:254|406:254|320:234,1,140,2|8,1:2|0:0,0:0:0:0:
239,280,170911,2,0,B|192:286|192:286|82:246,1,140,2|0,1:2|1:2,0:0:0:0:
25,170,171441,1,8,0:0:0:0:
96,84,171617,2,0,B|108:52|108:52|90:13,2,70,2|0|0,0:0|1:2|1:2,0:0:0:0:
199,169,172147,6,0,P|236:165|275:175,1,70,10|0,0:0|1:2,0:0:0:0:
358,237,172500,2,0,P|395:241|434:231,1,70,2|0,0:0|1:2,0:0:0:0:
505,154,172853,1,10,0:0:0:0:
297,22,173206,5,6,1:2:0:0:
202,81,173382,2,0,L|121:99,1,70,2|8,0:0|0:0,0:0:0:0:
43,28,173735,2,0,B|-1:60|-1:60|28:149,1,140,2|0,1:2|1:2,0:0:0:0:
113,210,174264,2,0,P|143:241|143:276,1,70,8|2,0:0|0:0,0:0:0:0:
280,281,174617,5,4,1:2:0:0:
354,365,174794,2,0,P|392:357|432:363,1,70,2|8,0:0|0:0,0:0:0:0:
501,280,175147,2,0,B|508:205|472:247|478:170,1,105,0|0,1:2|0:0,0:0:0:0:
490,160,175500,1,2,1:2:0:0:
505,49,175676,1,10,0:0:0:0:
395,75,175853,2,0,P|351:76|316:99,1,70,2|4,0:0|1:2,0:0:0:0:
207,159,176206,5,2,1:2:0:0:
147,64,176382,1,10,0:0:0:0:
52,125,176559,2,0,B|35:195|35:195|68:227|57:273,1,140,2|0,0:0|1:2,0:0:0:0:
126,346,177088,1,8,0:0:0:0:
263,334,177264,6,0,P|330:342|406:362,1,140,6|0,1:2|1:2,0:0:0:0:
396,247,177794,2,0,P|329:239|253:219,1,140,8|0,0:0|1:2,0:0:0:0:
210,119,178323,2,0,L|219:85,2,35,0|0|0,1:2|1:2|1:2,0:0:0:0:
97,171,178676,1,0,1:2:0:0:
97,171,178764,1,0,1:2:0:0:
97,171,178853,6,0,P|116:217|121:259,1,70,6|2,1:2|0:0,0:0:0:0:
214,296,179206,1,8,0:0:0:0:
295,229,179382,2,0,B|351:241|351:241|367:261|367:261|429:273,1,140,2|0,1:2|1:2,0:0:0:0:
501,182,179911,1,8,0:0:0:0:
448,58,180088,1,0,1:2:0:0:
448,58,180176,1,4,1:3:0:0:
448,58,180264,6,0,B|342:66|410:95|307:102,1,140,2|8,1:2|0:0,0:0:0:0:
225,37,180794,2,0,P|184:29|100:94,1,140,2|0,1:2|1:2,0:0:0:0:
114,191,181323,2,0,P|135:236|141:266,1,70,8|0,0:0|0:0,0:0:0:0:
276,334,181676,6,0,P|291:288|381:234,1,140,6|8,1:2|0:0,0:0:0:0:
443,156,182206,1,2,1:2:0:0:
364,76,182382,2,0,P|312:80|288:75,1,70,2|0,0:0|1:2,0:0:0:0:
183,59,182735,1,8,0:0:0:0:
38,248,183088,6,0,L|111:264,1,70,6|0,1:2|0:0,0:0:0:0:
183,362,183441,2,0,L|256:346,1,70,14|0,1:2|0:0,0:0:0:0:
324,243,183794,2,0,L|397:259,1,70,4|0,1:2|0:0,0:0:0:0:
477,351,184147,1,4,1:2:0:0:
391,132,184500,6,0,B|324:136|324:136|318:145|318:145|239:153,1,140,6|8,1:2|0:0,0:0:0:0:
170,223,185029,2,0,B|132:191|132:191|153:91,1,140,2|0,1:2|1:2,0:0:0:0:
216,10,185559,1,8,0:0:0:0:
350,56,185735,1,8,0:0:0:0:
350,56,185823,1,8,0:0:0:0:
350,56,185911,6,0,B|448:44|404:90|497:87,1,140,4|8,1:2|0:0,0:0:0:0:
480,200,186441,2,0,P|432:180|364:239,1,140,0|0,1:2|1:2,0:0:0:0:
301,309,186970,2,0,P|257:313|224:302,1,70,8|0,0:0|0:0,0:0:0:0:
109,223,187323,6,0,P|97:176|50:75,1,140,6|8,1:2|0:0,0:0:0:0:
166,52,187853,2,0,P|178:99|225:200,1,140,2|0,1:2|1:2,0:0:0:0:
324,207,188382,1,8,0:0:0:0:
393,118,188559,1,0,1:2:0:0:
490,220,188735,6,0,B|479:280|479:280|471:290|471:290|457:366,1,140,4|0,1:2|0:0,0:0:0:0:
347,362,189264,1,0,1:2:0:0:
347,362,189353,1,0,1:2:0:0:
347,362,189441,2,0,B|335:247|335:247|298:212|298:212|273:78,1,280,4|2,1:2|0:0,0:0:0:0:
115,255,190490,6,0,P|142:297|241:288,1,140,4|8,1:2|0:0,0:0:0:0:
309,235,191019,1,2,1:2:0:0:
309,235,191195,1,2,0:0:0:0:
233,161,191372,2,0,P|186:150|149:151,1,70,2|8,1:2|0:0,0:0:0:0:
122,53,191725,2,0,P|169:64|206:63,1,70,0|2,3:0|1:2,0:0:0:0:
299,92,192078,5,2,1:2:0:0:
383,19,192254,1,10,0:0:0:0:
461,99,192431,2,0,B|484:133|484:133|446:235,1,140,2|2,1:2|1:2,0:0:0:0:
345,268,192960,2,0,B|308:258|308:258|272:270,1,70,8|2,0:0|0:0,0:0:0:0:
175,346,193313,6,0,P|114:337|80:264,1,140,4|8,1:2|0:0,0:0:0:0:
88,160,193842,2,0,P|146:164|242:132,1,140,2|0,1:2|1:2,0:0:0:0:
300,58,194372,2,0,P|337:67|374:98,1,70,8|2,0:0|0:0,0:0:0:0:
406,183,194725,6,0,L|394:265,1,70,2|2,1:2|1:2,0:0:0:0:
439,348,195078,1,8,0:0:0:0:
497,260,195254,2,0,L|483:111,1,140,2|2,0:0|1:2,0:0:0:0:
473,15,195784,1,8,0:0:0:0:
275,63,196137,6,0,B|236:67|203:49|203:49|182:93|134:97,1,140,4|8,1:2|0:0,0:0:0:0:
58,131,196666,1,2,1:2:0:0:
109,222,196842,2,0,P|112:264|93:309,2,70,2|2|8,0:0|1:2|0:0,0:0:0:0:
208,183,197372,1,2,0:0:0:0:
294,242,197548,6,0,L|371:262,1,70,2|2,1:2|1:2,0:0:0:0:
434,335,197901,1,8,0:0:0:0:
489,245,198078,2,0,P|500:203|493:157,1,70,2|2,1:2|0:0,0:0:0:0:
452,82,198431,1,2,1:2:0:0:
353,117,198607,2,0,L|255:131,1,70,8|2,0:0|0:0,0:0:0:0:
176,83,198960,6,0,P|143:141|171:203,1,140,6|8,1:2|0:0,0:0:0:0:
267,247,199490,2,0,P|319:261|345:276,1,70,2|0,0:0|1:2,0:0:0:0:
412,337,199842,1,0,1:2:0:0:
412,337,200019,1,8,0:0:0:0:
462,217,200195,6,0,P|440:150|435:66,1,140,4|0,1:2|1:2,0:0:0:0:
348,18,200725,1,8,0:0:0:0:
256,68,200901,1,0,1:2:0:0:
162,18,201078,2,0,P|113:26|89:38,1,70,8|0,0:0|1:2,0:0:0:0:
21,110,201431,1,8,0:0:0:0:
121,294,201784,6,0,B|191:302|191:302|200:310|200:310|271:319,1,140,4|0,1:2|1:2,0:0:0:0:
313,228,202313,2,0,B|383:220|383:220|392:212|392:212|463:203,1,140,12|8,1:2|1:3,0:0:0:0:
484,105,202842,1,0,1:2:0:0:
484,105,203019,1,4,1:3:0:0:
404,37,203195,1,4,1:2:0:0:
256,192,203284,12,2,206019,0:0:0:0:
