osu file format v14

[General]
AudioFilename: audio.mp3
AudioLeadIn: 0
PreviewTime: 167196
Countdown: 0
SampleSet: Soft
StackLeniency: 0.4
Mode: 0
LetterboxInBreaks: 0
WidescreenStoryboard: 0

[Editor]
DistanceSpacing: 0.3
BeatDivisor: 4
GridSize: 8
TimelineZoom: 2

[Metadata]
Title:Toki no Mirage
TitleUnicode:時のミラージュ
Artist:Ohara Yuiko
ArtistUnicode:大原ゆい子
Creator:_Karaage
Version:Fantasy
Source:リトルウィッチアカデミア 時の魔法と七不思議
Tags:LWA Little Witch Academia Academy Chamber of Time The Magic and the Seven Wonders Toki no Mahou to Nanafushigi Cradle Eternity video game jpop j-pop japanese pop anime karaage
BeatmapID:3669482
BeatmapSetID:1790761

[Difficulty]
HPDrainRate:6
CircleSize:4.2
OverallDifficulty:8
ApproachRate:9
SliderMultiplier:1.7
SliderTickRate:1

[Events]
//Background and Video events
0,0,"Little.Witch.Academia.full.2450702.jpg",0,0
//Break Periods
2,91155,92817
//Storyboard Layer 0 (Background)
//Storyboard Layer 1 (Fail)
//Storyboard Layer 2 (Pass)
//Storyboard Layer 3 (Foreground)
//Storyboard Layer 4 (Overlay)
//Storyboard Sound Samples

[TimingPoints]
-437,344.827586206896,4,2,0,65,1,0
-437,-100,4,2,0,65,0,0
942,357.142857142857,4,2,4,65,1,0
942,-125,4,2,4,65,0,0
3799,352.941176470588,4,2,4,65,1,0
3799,-125,4,2,4,65,0,0
5210,348.837209302326,4,2,0,65,1,0
5210,-142.857142857143,4,2,0,65,0,0
5733,288.461538461538,4,2,4,65,1,0
5733,-100,4,2,4,65,0,0
6093,-100,4,2,4,5,0,0
6165,-100,4,2,4,65,0,0
6382,-100,4,2,4,5,0,0
6454,350.877192982457,4,2,4,65,1,0
6454,-100,4,2,4,65,0,0
6629,344.827586206897,4,2,4,65,1,0
6629,-100,4,2,4,65,0,0
7318,346.820809248555,4,2,4,65,1,0
7318,-100,4,2,4,65,0,0
8011,337.078651685395,4,2,4,65,1,0
8011,-100,4,2,4,65,0,0
8516,408.163265306122,4,2,4,65,1,0
8516,-100,4,2,4,65,0,0
8721,348.837209302326,4,2,4,65,1,0
8721,-100,4,2,4,65,0,0
9418,350.877192982457,4,2,4,65,1,0
9418,-76.9230769230769,4,2,4,65,0,0
11874,342.857142857144,4,2,4,65,1,0
11874,-100,4,2,4,65,0,0
12216,357.142857142857,4,2,4,50,1,0
12216,-142.857142857143,4,2,4,50,0,0
14983,-142.857142857143,4,2,4,5,0,0
15073,352.941176470589,4,2,2,50,1,0
15073,-166.666666666667,4,2,2,50,0,0
25661,-200,4,2,2,50,0,0
26278,-200,4,2,2,5,0,0
26367,-200,4,2,2,50,0,0
37220,-200,4,2,2,5,0,0
37308,-200,4,2,2,50,0,0
37573,-125,4,2,2,50,0,0
37661,-125,4,2,4,50,0,0
40308,-125,4,2,4,35,0,0
40484,-125,4,2,4,50,0,0
43220,-125,4,2,4,50,0,0
43308,-125,4,2,4,50,0,0
45161,-125,4,2,4,5,0,0
45249,-125,4,2,4,50,0,0
46043,-125,4,2,4,5,0,0
46131,-100,4,2,4,50,0,0
47102,-100,4,2,4,5,0,0
47190,-100,4,2,4,50,0,0
47631,-100,4,2,4,5,0,0
47720,-100,4,2,4,50,0,0
48955,-333.333333333333,4,2,2,55,0,0
50367,272.727272727273,4,2,2,55,1,0
50367,-100,4,2,2,55,0,0
50912,428.571428571429,4,2,2,65,1,0
50912,-100,4,2,2,65,0,0
51126,566.037735849056,4,2,0,50,1,0
51126,-100,4,2,0,50,0,0
51417,-100,4,2,4,50,0,0
51427,352.941176470589,4,2,4,75,1,1
51427,-83.3333333333333,4,2,4,75,0,1
51691,-83.3333333333333,4,2,4,5,0,1
51779,-83.3333333333333,4,2,4,75,0,1
56985,-83.3333333333333,4,2,4,5,0,1
57074,-83.3333333333333,4,2,4,75,0,1
59279,-83.3333333333333,4,2,4,5,0,1
59368,-83.3333333333333,4,2,4,75,0,1
65434,-83.3333333333333,4,2,4,5,0,1
65544,-83.3333333333333,4,2,4,75,0,1
66846,-83.3333333333333,4,2,4,5,0,1
66956,-83.3333333333333,4,2,4,75,0,1
69140,-83.3333333333333,4,2,4,5,0,1
69250,-83.3333333333333,4,2,4,75,0,1
71081,-83.3333333333333,4,2,4,5,0,1
71191,-83.3333333333333,4,2,4,75,0,1
74015,-83.3333333333333,4,2,4,75,0,0
76199,-83.3333333333333,4,2,4,5,0,0
76309,-83.3333333333333,4,2,4,75,0,0
79022,-83.3333333333333,4,2,4,5,0,0
79132,-83.3333333333333,4,2,4,75,0,0
81846,-83.3333333333333,4,2,4,5,0,0
81956,-83.3333333333333,4,2,4,75,0,0
85199,-83.3333333333333,4,2,4,5,0,0
85309,-83.3333333333333,4,2,4,75,0,0
87779,-166.666666666667,4,2,4,75,0,0
88022,-166.666666666667,4,2,4,5,0,0
88132,-166.666666666667,4,2,4,75,0,0
90250,-90.9090909090909,4,2,4,75,0,0
90956,-90.9090909090909,4,2,4,50,0,0
93427,-90.9090909090909,4,2,4,75,0,0
93779,-90.9090909090909,4,2,4,60,0,0
94375,-90.9090909090909,4,2,4,5,0,0
94485,-90.9090909090909,4,2,4,60,0,0
95081,-90.9090909090909,4,2,4,5,0,0
95191,-90.9090909090909,4,2,4,60,0,0
95787,-90.9090909090909,4,2,4,5,0,0
95897,-90.9090909090909,4,2,4,60,0,0
96140,-90.9090909090909,4,2,4,5,0,0
96250,-90.9090909090909,4,2,4,60,0,0
96603,-125,4,2,4,50,0,0
97552,-125,4,2,4,5,0,0
97662,-125,4,2,4,50,0,0
99338,-125,4,2,4,5,0,0
99427,-125,4,2,4,50,0,0
102250,-111.111111111111,4,2,4,50,0,0
104985,-111.111111111111,4,2,4,5,0,0
105074,-111.111111111111,4,2,4,50,0,0
106552,-111.111111111111,4,2,4,5,0,0
106662,-111.111111111111,4,2,4,50,0,0
107787,-111.111111111111,4,2,4,5,0,0
107897,-125,4,2,4,50,0,0
108140,-125,4,2,4,5,0,0
108250,-125,4,2,4,50,0,0
110632,-125,4,2,4,5,0,0
110721,-111.111111111111,4,2,4,50,0,0
112375,-111.111111111111,4,2,4,5,0,0
112485,-111.111111111111,4,2,4,50,0,0
113434,-111.111111111111,4,2,4,5,0,0
113544,-99.9999999999999,4,2,4,60,0,0
116279,-99.9999999999999,4,2,4,5,0,0
116368,-90.9090909090909,4,2,4,60,0,0
117846,-90.9090909090909,4,2,4,5,0,0
117956,-90.9090909090909,4,2,4,60,0,0
119181,355.029585798817,4,2,4,75,1,0
119181,-83.3333333333333,4,2,4,75,0,0
122021,352.941176470589,4,2,4,75,1,0
122021,-83.3333333333333,4,2,4,75,0,0
125638,-83.3333333333333,4,2,4,5,0,0
125726,-83.3333333333333,4,2,4,75,0,0
128991,-83.3333333333333,4,2,4,5,0,0
129079,-83.3333333333333,4,2,4,75,0,0
135168,-83.3333333333333,4,2,4,5,0,0
135256,-83.3333333333333,4,2,4,75,0,0
135521,-83.3333333333333,4,2,4,5,0,0
135609,-83.3333333333333,4,2,4,75,0,0
136403,-83.3333333333333,4,2,4,5,0,0
136491,-83.3333333333333,4,2,4,75,0,0
138873,-83.3333333333333,4,2,4,75,0,0
138962,-90.9090909090909,4,2,4,75,0,0
140373,-100,4,2,4,75,0,0
141785,-100,4,2,4,5,0,0
142403,-100,4,2,4,40,0,0
142491,352.941176470589,4,2,3,50,1,0
142491,-166.666666666667,4,2,3,50,0,0
153785,-125,4,2,4,60,0,0
153961,-125,4,2,4,5,0,0
154049,-125,4,2,4,60,0,0
154226,-125,4,2,4,5,0,0
154314,-125,4,2,4,60,0,0
156520,-125,4,2,4,5,0,0
156608,-125,4,2,4,60,0,0
156785,-125,4,2,4,5,0,0
156873,-125,4,2,4,60,0,0
157049,-125,4,2,4,5,0,0
157138,-125,4,2,4,60,0,0
158373,-83.3333333333333,4,2,4,60,0,0
158726,-71.4285714285714,4,2,4,60,0,0
159432,-125,4,2,4,60,0,0
163667,-100,4,2,4,60,0,0
164285,-100,4,2,4,5,0,0
164373,-100,4,2,4,60,0,0
165079,-100,3,2,0,50,0,0
165961,-100,3,2,0,50,0,0
167108,-100,3,2,0,5,0,0
167196,-166.666666666667,3,2,6,66,0,0
167461,-166.666666666667,3,2,6,5,0,0
167549,-166.666666666667,3,2,4,5,0,0
167559,352.941176470589,4,2,4,75,1,1
167559,-83.3333333333333,4,2,4,75,0,1
167823,-83.3333333333333,4,2,4,5,0,1
167911,-83.3333333333333,4,2,4,75,0,1
170294,-83.3333333333333,4,2,4,5,0,1
170382,-83.3333333333333,4,2,4,75,0,1
173117,-83.3333333333333,4,2,4,5,0,1
173206,-83.3333333333333,4,2,4,75,0,1
175411,-83.3333333333333,4,2,4,5,0,1
175500,-83.3333333333333,4,2,4,75,0,1
181588,-83.3333333333333,4,2,4,5,0,1
181676,-83.3333333333333,4,2,4,75,0,1
183000,-83.3333333333333,4,2,4,5,0,1
183088,-83.3333333333333,4,2,4,75,0,1
190147,-83.3333333333333,4,2,4,50,0,0
190490,352.941176470589,4,2,4,50,1,0
190490,-83.3333333333333,4,2,4,70,0,0
190754,-83.3333333333333,4,2,4,5,0,0
190842,-83.3333333333333,4,2,4,70,0,0
192695,-83.3333333333333,4,2,4,5,0,0
192784,-83.3333333333333,4,2,4,70,0,0
193578,-83.3333333333333,4,2,4,5,0,0
193666,-83.3333333333333,4,2,4,70,0,0
195519,-83.3333333333333,4,2,4,5,0,0
195607,-83.3333333333333,4,2,4,70,0,0
196048,-83.3333333333333,4,2,4,5,0,0
196137,-83.3333333333333,4,2,4,70,0,0
201695,-83.3333333333333,4,2,4,5,0,0
201784,-83.3333333333333,4,2,4,70,0,0
202578,-83.3333333333333,4,2,4,5,0,0
202666,-83.3333333333333,4,2,4,70,0,0
203107,-83.3333333333333,4,2,4,5,0,0
203195,-83.3333333333333,4,2,4,60,0,0
206019,-83.3333333333333,4,2,4,60,0,0
222960,-100,4,2,0,50,0,0
223490,-100,4,2,0,50,0,0
223820,-100,4,2,0,50,0,0
224078,-100,4,2,0,50,0,0

[Colours]
Combo1 : 100,183,244
Combo2 : 125,105,239
Combo3 : 243,131,209
Combo4 : 250,233,114
Combo5 : 251,139,85

[HitObjects]
440,34,597,5,2,0:0:0:0:
442,46,683,1,2,0:0:0:0:
444,58,769,2,0,L|450:107,1,42.5,2|2,0:0|0:0,0:0:0:0:
438,257,942,6,0,B|339:295|283:248|343:199|233:161|191:200|199:270|230:326|309:299|361:207,1,408,4|0,1:2|0:0,0:0:0:0:
330,94,2191,1,2,0:0:0:0:
330,94,2281,1,2,0:0:0:0:
330,94,2370,6,0,P|367:54|396:151,2,204,2|2|2,0:0|0:0|0:0,0:0:0:0:
278,241,3620,1,8,1:3:0:0:
278,241,3709,1,8,1:3:0:0:
278,241,3799,6,0,B|215:257|201:305|212:351|212:351|264:359|335:358|342:291|335:284|326:277|342:220|401:202|494:223,1,476,4|2,1:2|0:0,0:0:0:0:
423,313,5210,2,0,P|411:224|424:136,1,178.499994552612,2|0,0:0|1:0,0:0:0:0:
477,76,5805,1,0,1:0:0:0:
477,76,5877,6,0,B|416:59|416:59|351:72,1,127.5,8|0,1:3|0:0,0:0:0:0:
273,109,6165,6,0,B|212:126|212:126|147:113,1,127.5,0|0,1:0|0:0,0:0:0:0:
90,33,6454,5,4,1:3:0:0:
90,33,6541,1,0,3:2:0:0:
90,33,6629,6,0,B|68:75|105:138|117:79|157:147|131:207,1,170,4|0,1:2|0:0,0:0:0:0:
137,184,7146,1,0,1:2:0:0:
12,333,7318,6,0,P|46:269|144:288,1,170,8|0,0:0|0:0,0:0:0:0:
194,338,7838,1,0,1:0:0:0:
366,240,8011,5,0,1:2:0:0:
285,384,8179,2,0,P|274:300|245:188,1,170,0|0,1:2|1:0,0:0:0:0:
379,240,8721,5,8,0:0:0:0:
509,16,8895,2,0,P|440:13|430:116,1,170,8|0,0:0|1:0,0:0:0:0:
109,36,9418,6,0,B|197:25|197:25|237:40|237:40|330:19,1,221,6|0,1:2|1:2,0:0:0:0:
234,176,9944,2,0,P|172:139|193:66,1,110.5,2|0,1:2|1:2,0:0:0:0:
39,260,10295,2,0,P|102:224|154:279,1,110.5,2|0,1:2|1:2,0:0:0:0:
330,320,10646,6,0,P|201:316|94:339,1,221,6|0,1:2|1:2,0:0:0:0:
305,205,11172,1,10,1:2:0:0:
192,124,11347,1,2,1:2:0:0:
211,236,11523,1,10,1:2:0:0:
341,115,11698,1,2,1:2:0:0:
62,25,11874,1,10,1:2:0:0:
86,203,12045,1,2,1:2:0:0:
248,11,12216,6,0,L|316:23,1,59.4999999999999,6|2,1:2|0:0,0:0:0:0:
306,21,12573,1,2,1:2:0:0:
360,79,12751,1,2,0:0:0:0:
442,185,12930,6,0,P|478:177|490:149,2,59.4999999999999,2|2|2,1:2|0:0|1:2,0:0:0:0:
364,165,13466,1,2,0:0:0:0:
364,165,13644,2,0,L|286:185,1,59.4999999999999,2|2,1:2|0:0,0:0:0:0:
247,231,14001,1,2,1:2:0:0:
178,175,14180,1,2,0:0:0:0:
169,173,14269,1,0,0:0:0:0:
160,170,14358,6,0,B|148:124|173:81|196:86|202:86|206:86|247:86|266:23|239:-18,1,208.25,4|0,0:0|0:0,0:0:0:0:
175,12,15073,6,0,P|133:22|71:51,1,102,10|2,0:0|0:0,0:0:0:0:
79,45,15602,1,2,0:0:0:0:
0,171,15955,2,0,P|42:181|104:210,1,102,2|2,0:0|0:0,0:0:0:0:
153,288,16484,6,0,P|191:280|209:218,1,102,10|2,0:0|0:0,0:0:0:0:
211,225,17014,1,2,0:0:0:0:
160,89,17367,2,0,P|168:127|230:145,1,102,2|2,0:0|0:0,0:0:0:0:
339,75,17896,5,10,0:0:0:0:
347,81,18249,1,2,0:0:0:0:
405,134,18425,2,0,P|431:167|456:229,1,102,2|2,0:0|0:0,0:0:0:0:
329,342,19131,1,2,0:0:0:0:
329,342,19308,2,0,P|355:309|380:247,1,102,8|0,0:0|0:0,0:0:0:0:
266,42,20014,6,0,B|241:32|222:12|222:12|217:37|183:66,1,102,2|2,0:0|0:0,0:0:0:0:
141,107,20543,1,2,0:0:0:0:
197,163,20720,6,0,P|236:165|301:188,1,102,8|2,0:0|0:0,0:0:0:0:
301,285,21249,2,0,P|340:283|434:204,1,153,2|2,0:0|0:0,0:0:0:0:
402,142,21955,1,2,0:0:0:0:
399,134,22043,1,0,0:0:0:0:
397,126,22131,6,0,P|385:63|387:11,1,102,8|2,0:0|0:0,0:0:0:0:
290,30,22661,2,0,P|302:93|275:195,1,153,2|2,0:0|0:0,0:0:0:0:
283,178,23367,1,2,0:0:0:0:
205,144,23543,6,0,B|122:136|180:168|85:159,1,102,8|2,0:0|0:0,0:0:0:0:
14,233,24073,2,0,B|59:205|142:245|86:272|132:316|213:286,1,204,2|0,0:0|0:0,0:0:0:0:
281,225,24955,5,10,0:0:0:0:
299,234,25661,6,0,P|327:201|336:86,1,148.75,2|0,0:0|0:0,0:0:0:0:
290,47,26367,6,0,P|272:30|281:61,1,85,2|2,0:0|0:0,0:0:0:0:
255,136,26896,2,0,P|225:122|200:122,1,42.5,2|8,0:0|0:0,0:0:0:0:
142,142,27249,1,2,0:0:0:0:
128,152,27602,1,0,0:0:0:0:
105,262,27778,6,0,P|136:300|150:348,1,85,2|2,0:0|0:0,0:0:0:0:
223,310,28308,2,0,P|220:275|229:258,1,42.5,2|8,0:0|0:0,0:0:0:0:
282,215,28661,1,2,0:0:0:0:
297,207,29014,2,0,L|328:211,1,21.25
373,268,29190,6,0,B|392:260|392:260|459:279,1,85,2|2,0:0|0:0,0:0:0:0:
453,277,29720,1,2,0:0:0:0:
507,211,29896,2,0,B|471:197|471:197|456:202|456:202|413:190,1,85,8|0,0:0|0:0,0:0:0:0:
281,142,30602,6,0,P|294:96|338:86,2,85,2|2|10,0:0|0:0|0:0,0:0:0:0:
359,221,31661,1,2,0:0:0:0:
286,298,32014,6,0,P|243:290|200:301,1,85,2|2,0:0|0:0,0:0:0:0:
134,356,32543,1,2,0:0:0:0:
54,307,32720,2,0,P|64:278|94:228,1,85,10|2,0:0|0:0,0:0:0:0:
89,112,33249,6,0,P|80:138|151:186,1,127.5,2|0,0:0|0:0,0:0:0:0:
233,235,34131,1,10,0:0:0:0:
252,227,34484,1,2,0:0:0:0:
366,239,34837,6,0,P|411:247|464:271,1,85,2|0,0:0|0:0,0:0:0:0:
447,261,35367,1,2,0:0:0:0:
498,205,35543,1,8,0:0:0:0:
416,117,35720,5,2,0:0:0:0:
416,117,35896,1,2,0:0:0:0:
343,141,36073,2,0,B|313:133|280:155|280:155|272:113|235:103,1,127.5,2|0,0:0|0:0,0:0:0:0:
72,44,36955,6,0,P|76:27|77:49,1,63.75,10|0,0:0|0:0,0:0:0:0:
49,114,37308,2,0,P|69:145|76:162,1,42.5,2|2,0:0|0:0,0:0:0:0:
118,211,37573,1,2,0:0:0:0:
134,211,37661,6,0,B|223:216|170:250|270:255,1,136,4|2,1:2|0:0,0:0:0:0:
315,305,38190,1,2,1:2:0:0:
407,148,38367,2,0,P|348:157|342:232,1,136,8|0,0:0|0:0,0:0:0:0:
336,223,38896,1,2,0:0:0:0:
480,366,39073,5,2,1:2:0:0:
507,295,39249,1,0,1:2:0:0:
433,303,39425,1,8,0:0:0:0:
44,360,40308,5,2,0:0:0:0:
43,343,40396,1,2,0:0:0:0:
43,326,40484,2,0,P|52:256|83:192,1,136,2|0,1:2|0:0,0:0:0:0:
54,128,41014,1,2,1:2:0:0:
206,81,41190,2,0,B|207:73|219:62|219:62|165:41|129:70|128:110,1,136,10|0,0:0|0:0,0:0:0:0:
129,99,41720,1,2,0:0:0:0:
278,117,41896,5,2,1:2:0:0:
342,165,42073,1,8,0:0:0:0:
421,80,42249,2,0,P|370:80|324:89,1,68,2|0,0:0|1:2,0:0:0:0:
219,172,42602,5,8,0:0:0:0:
134,104,42778,1,8,0:0:0:0:
62,258,42955,2,0,P|110:241|174:242,1,102,2|2,1:2|0:0,0:0:0:0:
217,288,43308,6,0,P|259:300|356:307,1,136,6|0,1:2|0:0,0:0:0:0:
388,240,43837,1,2,1:2:0:0:
507,360,44014,2,0,P|466:375|446:300,1,136,8|0,0:0|0:0,0:0:0:0:
441,304,44543,1,2,3:2:0:0:
377,233,44720,5,2,1:2:0:0:
326,329,44896,2,0,B|276:338|276:338|261:353|261:353|212:361,1,102,8|0,0:0|0:0,0:0:0:0:
216,349,45249,1,2,1:2:0:0:
123,276,45425,2,0,P|72:288|69:310,1,68,8|0,0:0|0:0,0:0:0:0:
45,125,45778,2,0,P|68:166|136:176,1,102,2|0,1:2|0:0,0:0:0:0:
195,198,46131,6,0,B|208:148|174:102|155:147|127:92|149:33,1,170,6|0,1:2|0:0,0:0:0:0:
276,216,46661,1,2,1:2:0:0:
460,134,46837,2,0,P|395:130|319:106,1,127.5,8|0,0:0|0:0,0:0:0:0:
318,99,47190,1,2,0:0:0:0:
417,226,47367,6,0,P|477:250|496:336,1,127.5,6|0,1:2|0:0,0:0:0:0:
492,324,47720,2,0,P|446:340|409:369,1,85,8|0,0:0|0:0,0:0:0:0:
345,338,48073,1,0,1:2:0:0:
189,373,48249,5,8,0:0:0:0:
51,333,48425,2,0,L|137:306,1,85,8|0,0:0|0:0,0:0:0:0:
268,267,48778,1,8,0:0:0:0:
169,187,48955,5,8,0:0:0:0:
169,187,49308,1,8,0:0:0:0:
169,187,49661,1,8,0:0:0:0:
169,187,50014,1,8,0:0:0:0:
220,132,50367,5,8,0:0:0:0:
289,158,50639,1,8,0:0:0:0:
389,33,50965,6,0,L|412:23,2,21.25,2|2|2,0:0|0:0|0:0,0:0:0:0:
371,46,51126,2,0,P|332:36|292:34,1,63.75,2|0,0:0|0:0,0:0:0:0:
234,56,51427,6,0,B|172:60|172:60|151:74|151:74|56:80,1,153,6|0,1:2|0:0,0:0:0:0:
69,57,51779,1,10,0:0:0:0:
170,209,51956,1,2,1:2:0:0:
75,279,52132,1,2,0:0:0:0:
74,164,52309,1,2,1:2:0:0:
242,273,52485,1,8,0:0:0:0:
324,205,52662,1,2,0:0:0:0:
341,301,52838,5,2,1:2:0:0:
240,183,53015,1,2,1:2:0:0:
362,88,53191,1,8,0:0:0:0:
442,262,53368,1,2,1:2:0:0:
255,361,53544,2,0,P|190:341|146:341,1,102,2|0,0:0|1:2,0:0:0:0:
68,148,53897,2,0,P|133:128|177:128,1,102,8|2,0:0|0:0,0:0:0:0:
214,67,54162,1,2,0:0:0:0:
233,72,54250,6,0,B|249:113|228:150|200:155|196:153|191:150|152:157|133:196|136:233,1,204,2|8,1:2|0:0,0:0:0:0:
348,308,54779,2,0,P|331:235|455:205,1,203.999993774414,2|0,1:2|1:2,0:0:0:0:
457,300,55309,1,8,0:0:0:0:
273,361,55485,2,0,B|245:344|209:348|209:348|174:311|140:320,1,102,2|0,0:0|1:2,0:0:0:0:
116,191,55838,1,0,1:2:0:0:
188,11,56015,6,0,P|265:33|302:56,1,102,10|0,0:0|1:2,0:0:0:0:
508,74,56368,2,0,P|447:80|418:117,1,102,2|0,0:0|1:2,0:0:0:0:
235,174,56721,2,0,P|281:155|279:247,1,153,8|0,0:0|0:0,0:0:0:0:
231,252,57074,1,6,1:2:0:0:
71,169,57250,6,0,P|123:160|174:135,1,102,2|8,0:0|0:0,0:0:0:0:
282,309,57603,2,0,P|198:273|59:275,1,204,2|0,1:2|1:2,0:0:0:0:
193,361,58132,1,8,0:0:0:0:
363,274,58309,5,2,0:0:0:0:
348,384,58485,1,2,1:2:0:0:
281,295,58662,2,0,B|263:247|263:247|280:194,1,102,2|8,1:2|0:0,0:0:0:0:
182,45,59015,2,0,B|222:112|222:112|189:187,1,153,2|0,1:2|0:0,0:0:0:0:
182,198,59368,1,2,1:2:0:0:
108,130,59544,1,8,0:0:0:0:
271,21,59721,2,0,B|312:31|312:31|326:49|326:49|379:58,1,102,2|4,0:0|1:2,0:0:0:0:
486,197,60074,5,2,0:0:0:0:
512,124,60250,1,10,0:0:0:0:
336,131,60427,2,0,P|379:180|415:332,1,204,2|0,1:2|1:2,0:0:0:0:
320,246,60956,1,8,0:0:0:0:
226,286,61132,5,2,0:0:0:0:
255,130,61309,2,0,B|256:109|270:90|270:90|193:62|142:140|177:192,1,204,4|8,1:2|0:0,0:0:0:0:
35,37,61838,2,0,B|76:49|76:49|114:27|167:32,1,102,2|0,0:0|1:2,0:0:0:0:
283,10,62191,5,0,1:2:0:0:
302,15,62279,1,0,1:2:0:0:
321,21,62368,1,0,1:2:0:0:
394,84,62544,1,0,1:2:0:0:
413,78,62632,1,0,1:2:0:0:
432,73,62721,6,0,P|457:37|404:5,1,102,6|2,1:2|0:0,0:0:0:0:
484,149,63074,1,10,0:0:0:0:
369,239,63250,2,0,B|313:255|253:226|297:193|235:164|184:185,1,204,2|0,1:2|1:2,0:0:0:0:
341,166,63779,1,8,0:0:0:0:
211,259,63956,5,2,0:0:0:0:
87,97,64132,2,0,P|137:95|208:68,1,102,2|0,1:2|1:2,0:0:0:0:
0,49,64485,1,8,0:0:0:0:
8,271,64662,2,0,P|86:212|197:183,1,204,2|0,0:0|1:2,0:0:0:0:
352,40,65191,2,0,B|321:26|285:22|270:66|270:66|316:59|346:81,1,153,8|0,0:0|0:0,0:0:0:0:
396,104,65544,6,0,B|408:135|401:171|363:191|363:191|331:184|288:195|279:249,1,204,4|8,1:2|0:0,0:0:0:0:
244,321,66074,1,2,1:2:0:0:
152,136,66250,2,0,P|195:147|212:210,1,102,2|0,0:0|1:2,0:0:0:0:
15,72,66603,2,0,P|88:62|176:29,1,153,8|0,0:0|0:0,0:0:0:0:
235,17,66956,6,0,B|301:21|268:51|341:56,1,102,4|0,1:2|0:0,0:0:0:0:
431,259,67309,2,0,B|401:199|443:213|411:147,1,102,10|0,0:0|0:0,0:0:0:0:
217,275,67662,1,6,1:2:0:0:
350,318,67838,1,0,1:2:0:0:
259,132,68015,2,0,B|193:136|226:166|153:171,1,102,8|8,0:0|0:0,0:0:0:0:
78,122,68279,1,8,0:0:0:0:
97,114,68368,6,0,P|169:136|291:236,1,204,4|8,1:2|0:0,0:0:0:0:
481,16,68897,2,0,P|428:2|383:106,1,153,2|0,1:2|0:0,0:0:0:0:
428,125,69250,1,0,1:2:0:0:
484,376,69427,2,0,P|496:311|489:255,1,102,8|0,0:0|1:2,0:0:0:0:
484,263,69691,1,8,0:0:0:0:
472,253,69779,5,0,1:2:0:0:
512,121,69956,1,0,1:2:0:0:
350,187,70132,1,8,0:0:0:0:
387,266,70309,1,0,1:2:0:0:
428,125,70485,6,0,P|389:103|308:97,1,102,2|0,0:0|1:2,0:0:0:0:
83,223,70838,2,0,P|171:194|262:202,1,153,8|0,0:0|0:0,0:0:0:0:
256,268,71191,6,0,B|211:268|177:327|177:327|132:280|79:301,1,204,4|8,1:2|0:0,0:0:0:0:
16,99,71721,2,0,B|-10:88|2:47|2:47|70:26|116:74|82:136,1,204,2|0,1:2|1:2,0:0:0:0:
275,86,72250,1,8,0:0:0:0:
192,7,72427,1,2,0:0:0:0:
251,244,72603,6,0,P|327:218|364:216,1,102,4|0,1:2|0:0,0:0:0:0:
97,194,72956,2,0,P|21:168|-16:166,1,102,8|0,0:0|0:0,0:0:0:0:
215,15,73309,6,0,P|183:90|185:231,1,203.999993774414,6|8,1:2|0:0,0:0:0:0:
271,121,73838,1,8,0:0:0:0:
284,114,73927,1,8,0:0:0:0:
300,107,74015,6,0,B|331:101|360:91|360:91|421:115|514:139,1,204,6|8,1:2|0:0,0:0:0:0:
291,312,74544,2,0,B|260:306|231:296|231:296|170:320|77:344,1,204,2|0,1:2|1:2,0:0:0:0:
0,214,75074,2,0,B|23:223|23:223|66:198|129:191,1,102,8|0,0:0|0:0,0:0:0:0:
225,27,75427,6,0,P|163:63|160:98,1,102,2|0,1:2|1:2,0:0:0:0:
234,203,75779,1,8,0:0:0:0:
482,105,75956,2,0,P|396:88|302:91,1,153,2|0,1:2|0:0,0:0:0:0:
316,92,76309,1,2,1:2:0:0:
498,244,76485,2,0,P|455:204|406:187,1,102,8|2,0:0|0:0,0:0:0:0:
137,325,76838,6,0,B|183:333|217:307|217:307|252:315|252:315|286:292|338:297,1,204,6|8,1:2|0:0,0:0:0:0:
506,352,77368,2,0,P|447:368|411:323,1,102,2|0,1:2|0:0,0:0:0:0:
498,244,77721,1,0,1:2:0:0:
383,88,77897,2,0,P|418:149|425:216,1,102,8|0,0:0|3:0,0:0:0:0:
206,103,78250,5,2,1:2:0:0:
342,21,78427,1,0,1:2:0:0:
273,175,78603,1,8,0:0:0:0:
239,25,78779,2,0,B|148:0|174:51|74:16,1,153,2|0,1:2|0:0,0:0:0:0:
74,14,79132,1,2,1:2:0:0:
93,102,79309,1,10,0:0:0:0:
30,213,79485,1,8,0:0:0:0:
33,227,79574,1,8,0:0:0:0:
36,241,79662,6,0,B|81:248|106:240|106:240|131:258|131:258|161:244|161:244|201:256|249:248,1,204,6|8,1:2|0:0,0:0:0:0:
504,96,80191,2,0,B|459:103|433:95|433:95|408:113|408:113|378:99|378:99|339:111|290:103,1,204,2|0,1:2|1:2,0:0:0:0:
480,293,80721,2,0,B|492:261|492:261|480:216|480:216|496:158,1,102,8|0,0:0|0:0,0:0:0:0:
294,31,81074,6,0,P|247:46|229:106,1,102,2|0,1:2|1:2,0:0:0:0:
307,229,81427,1,8,0:0:0:0:
49,230,81603,2,0,P|119:187|212:172,1,153,2|0,1:2|0:0,0:0:0:0:
201,179,81956,1,0,1:2:0:0:
48,62,82132,2,0,P|106:72|153:93,1,102,8|0,0:0|0:0,0:0:0:0:
323,206,82485,6,0,B|335:162|318:124|276:124|274:126|274:131|227:117|217:81|229:38,1,204,4|8,1:2|0:0,0:0:0:0:
244,201,83015,1,2,0:0:0:0:
244,201,83103,1,0,0:0:0:0:
244,201,83191,1,0,1:2:0:0:
314,65,83368,1,2,1:2:0:0:
143,18,83544,1,10,0:0:0:0:
43,275,83721,6,0,B|31:231|53:193|90:193|92:195|92:200|139:186|149:150|137:107,1,204,6|0,1:2|1:2,0:0:0:0:
117,263,84250,5,8,0:0:0:0:
61,115,84427,1,0,1:2:0:0:
174,325,84603,5,8,0:0:0:0:
241,117,84779,1,0,1:2:0:0:
475,293,84956,6,0,P|401:273|304:275,1,153,8|0,0:0|0:0,0:0:0:0:
261,311,85309,5,8,0:0:0:0:
371,166,85485,1,8,0:0:0:0:
447,372,85662,1,8,0:0:0:0:
77,24,87779,6,0,P|54:15|76:31,1,76.4999999999998,2|0,1:2|0:0,0:0:0:0:
152,42,88132,5,8,0:0:0:0:
220,196,88309,1,8,0:0:0:0:
367,25,88485,1,8,0:0:0:0:
452,295,90074,5,0,1:0:0:0:
452,295,90162,1,0,1:0:0:0:
452,295,90250,2,0,B|483:286|514:310|522:337|515:365|480:397|440:409|394:387|376:326|377:322|381:322|381:281|320:247|264:276,1,374,12|2,0:0|0:0,0:0:0:0:
61,16,93427,6,0,L|27:26,6,23.375,2|2|2|2|2|2|2,0:0|2:0|2:0|2:0|2:0|2:0|2:0,0:0:0:0:
137,5,93779,6,0,B|141:46|130:129|77:50|43:133|73:195|73:195|156:205|150:153|154:125,1,327.25,4|0,1:2|0:0,0:0:0:0:
240,176,94485,6,0,B|274:135|310:128|310:128|251:111|169:104|143:205|172:253,1,327.25,4|0,1:2|0:0,0:0:0:0:
228,293,95191,6,0,B|262:283|318:287|352:366|352:366|342:282|388:233|442:233,1,327.25,4|0,1:2|0:0,0:0:0:0:
491,274,95897,6,0,P|453:232|447:144,1,140.25,4|0,1:2|0:0,0:0:0:0:
454,140,96250,1,2,0:0:0:0:
415,71,96427,1,2,0:0:0:0:
283,109,96603,6,0,P|327:128|356:120,1,68,4|0,1:2|0:0,0:0:0:0:
225,33,96956,2,0,P|186:61|178:90,1,68,0|0,1:2|0:0,0:0:0:0:
216,214,97309,2,0,P|243:277|237:331,1,102,8|0,0:0|0:0,0:0:0:0:
237,318,97662,1,2,0:0:0:0:
343,214,97838,2,0,P|319:252|318:290,1,68,8|0,0:0|1:2,0:0:0:0:
446,233,98191,1,8,0:0:0:0:
386,139,98368,6,0,P|376:97|408:65,1,68,2|0,0:0|1:2,0:0:0:0:
512,8,98721,2,0,P|480:37|436:25,1,68,8|0,0:0|0:0,0:0:0:0:
330,1,99074,2,0,P|245:5|210:15,1,102,2|0,0:0|0:0,0:0:0:0:
224,18,99427,6,0,B|191:31|191:31|146:26,1,68,4|0,1:2|0:0,0:0:0:0:
250,146,99779,2,0,B|283:133|283:133|328:138,1,68,0|0,1:2|0:0,0:0:0:0:
442,2,100132,2,0,B|401:33|401:33|432:123,1,136,10|2,0:0|0:0,0:0:0:0:
488,298,100662,2,0,P|505:261|425:226,1,136,6|8,1:2|0:0,0:0:0:0:
326,334,101191,6,0,P|378:328|412:333,1,68,2|0,0:0|1:2,0:0:0:0:
262,209,101544,2,0,P|210:203|176:208,1,68,10|0,0:0|1:2,0:0:0:0:
77,298,101897,1,2,0:0:0:0:
10,187,102074,1,10,0:0:0:0:
96,310,102250,6,0,B|209:305|140:358|260:343,1,153,6|0,1:2|1:2,0:0:0:0:
433,332,102779,2,0,B|407:315|391:266|391:266|365:305|333:310,1,153,8|0,0:0|1:2,0:0:0:0:
512,114,103309,2,0,P|479:169|475:269,1,153,14|0,0:0|1:2,0:0:0:0:
472,256,103838,1,0,1:2:0:0:
333,159,104015,6,0,P|396:142|434:150,1,76.5000000000001,2|8,0:0|0:0,0:0:0:0:
263,86,104368,2,0,P|200:69|162:77,1,76.5000000000001,2|0,0:0|1:2,0:0:0:0:
15,22,104721,2,0,P|43:1|87:59,1,114.75,10|0,0:0|0:0,0:0:0:0:
56,112,105074,6,0,B|53:201|53:201|12:220|7:266,2,153,4|0|8,1:2|1:2|0:0,0:0:0:0:
86,272,106132,1,2,0:0:0:0:
150,228,106309,2,0,B|194:237|194:237|207:253|207:253|270:269,1,114.75,4|0,1:2|0:0,0:0:0:0:
313,315,106662,2,0,B|389:301|389:301|467:341,1,153,8|0,0:0|1:2,0:0:0:0:
353,148,107191,6,0,P|327:193|335:220,1,76.5000000000001,8|0,0:0|1:2,0:0:0:0:
465,248,107544,2,0,P|493:204|481:146,1,114.75,8|0,0:0|0:0,0:0:0:0:
432,86,107897,6,0,B|410:66|410:66|318:68,1,102,4|0,1:2|0:0,0:0:0:0:
327,66,108250,1,2,1:2:0:0:
228,128,108427,2,0,B|210:99|210:99|224:59,2,68,2|0|0,0:0|1:2|0:0,0:0:0:0:
296,173,108956,1,2,1:2:0:0:
259,276,109132,1,2,0:0:0:0:
119,220,109309,6,0,P|164:200|208:198,1,68,2|0,1:2|0:0,0:0:0:0:
184,92,109662,2,0,P|144:63|120:25,1,68,2|0,1:2|0:0,0:0:0:0:
36,88,110015,2,0,P|30:136|10:176,1,68,2|0,1:2|0:0,0:0:0:0:
206,95,110368,2,0,P|268:87|320:88,1,102,10|0,0:0|0:0,0:0:0:0:
372,131,110721,6,0,P|416:116|424:8,1,153,4|0,1:2|1:2,0:0:0:0:
434,21,111250,1,2,0:0:0:0:
471,172,111427,2,0,P|457:264|465:327,1,153,0|0,1:2|1:2,0:0:0:0:
173,376,112132,6,0,P|185:312|177:260,1,114.75,0|0,1:2|0:0,0:0:0:0:
167,259,112485,2,0,P|115:248|62:260,1,76.5000000000001,2|0,1:2|0:0,0:0:0:0:
4,145,112838,2,0,P|56:156|109:144,1,76.5000000000001,2|0,1:2|0:0,0:0:0:0:
132,95,113103,1,8,0:0:0:0:
143,94,113191,2,0,B|173:93|199:72|199:72|219:98|254:106,1,114.75,10|0,1:2|0:0,0:0:0:0:
329,86,113544,6,0,B|333:67|358:63|358:63|302:31|252:68|267:131,1,170,6|0,1:2|1:2,0:0:0:0:
472,257,114074,2,0,B|458:242|456:218|456:218|365:173|315:166,1,170,10|0,0:0|1:2,0:0:0:0:
194,271,114603,1,8,0:0:0:0:
137,189,114779,1,2,0:0:0:0:
242,187,114956,5,2,1:2:0:0:
151,346,115132,2,0,P|106:295|104:264,1,85.0000000000001,0|0,1:2|0:0,0:0:0:0:
280,358,115485,2,0,P|325:321|358:212,1,170,10|0,0:0|1:2,0:0:0:0:
278,49,116015,2,0,B|290:32|266:17|266:17|236:43|240:91|292:104,1,127.5,12|0,0:0|0:0,0:0:0:0:
344,117,116368,6,0,B|361:138|410:151|439:128|439:128|445:93|478:71|521:81,2,187,4|8|2,1:2|0:0|1:2,0:0:0:0:
178,23,117250,1,0,1:2:0:0:
246,189,117427,1,10,0:0:0:0:
371,22,117603,2,0,P|304:39|224:80,1,140.25,6|0,1:2|0:0,0:0:0:0:
233,82,117956,1,0,1:2:0:0:
54,143,118132,2,0,P|81:91|131:105,1,93.5,8|0,0:0|0:0,0:0:0:0:
323,119,118485,5,0,1:2:0:0:
332,129,118574,1,8,1:3:0:0:
335,152,118662,1,8,1:3:0:0:
325,183,118750,1,8,1:3:0:0:
286,200,118838,1,8,0:3:0:0:
239,222,118927,1,8,0:3:0:0:
201,256,119015,1,8,0:3:0:0:
198,307,119103,1,8,0:3:0:0:
228,347,119181,6,0,B|310:338|310:338|341:357|341:357|443:341,1,204,4|8,1:2|0:0,0:0:0:0:
493,244,119713,1,2,3:2:0:0:
496,228,119802,1,0,3:0:0:0:
499,212,119891,1,0,1:2:0:0:
388,92,120068,2,0,B|390:131|390:131|409:152|409:152|409:200,1,102,2|8,1:2|0:0,0:0:0:0:
214,111,120423,2,0,B|246:89|246:89|255:62|255:62|297:38,1,102,2|0,0:0|1:2,0:0:0:0:
329,255,120778,2,0,B|294:237|294:237|266:243|266:243|224:219,1,102,2|8,1:2|0:0,0:0:0:0:
93,182,121133,5,2,0:0:0:0:
78,185,121222,1,0,0:0:0:0:
63,189,121311,1,2,1:2:0:0:
124,320,121488,1,2,1:2:0:0:
164,221,121666,1,8,0:0:0:0:
0,112,121843,1,2,0:0:0:0:
0,112,121932,1,0,1:0:0:0:
0,112,122021,6,0,P|31:201|46:317,1,204,4|8,1:2|0:0,0:0:0:0:
206,360,122550,1,2,3:2:0:0:
202,345,122638,1,0,3:2:0:0:
203,329,122726,1,0,1:2:0:0:
304,211,122903,2,0,P|320:256|288:293,1,102,2|8,1:2|0:0,0:0:0:0:
201,168,123256,2,0,P|153:158|137:112,1,102,2|0,3:2|1:2,0:0:0:0:
298,96,123609,2,0,P|329:59|377:68,1,102,2|8,1:2|0:0,0:0:0:0:
493,204,123962,5,2,0:0:0:0:
490,218,124050,1,0,0:0:0:0:
487,232,124138,1,2,1:2:0:0:
383,165,124315,1,2,1:2:0:0:
467,122,124491,1,10,0:0:0:0:
501,318,124668,1,0,1:2:0:0:
501,318,124756,1,0,1:2:0:0:
501,318,124844,6,0,B|432:300|375:329|440:356|359:389|291:359,1,204,4|8,1:2|0:0,0:0:0:0:
207,182,125373,2,0,P|274:210|244:313,1,153,2|0,1:2|0:0,0:0:0:0:
212,325,125726,2,0,P|163:308|106:304,1,102,2|8,1:2|0:0,0:0:0:0:
17,156,126079,2,0,P|66:139|123:135,1,102,2|0,3:2|1:2,0:0:0:0:
262,69,126432,1,2,1:2:0:0:
201,30,126609,1,8,0:0:0:0:
195,103,126785,1,2,0:0:0:0:
317,4,126962,5,2,1:2:0:0:
373,119,127138,1,2,1:2:0:0:
286,220,127315,1,10,0:0:0:0:
320,314,127491,1,2,0:0:0:0:
57,366,127668,6,0,B|79:351|89:324|89:324|150:292|248:289,1,204,6|8,1:2|0:0,0:0:0:0:
277,131,128197,2,0,P|219:143|204:201,1,102,2|0,0:0|1:2,0:0:0:0:
286,220,128550,1,2,1:2:0:0:
383,26,128726,2,0,P|277:43|194:38,1,153,8|0,0:0|0:0,0:0:0:0:
159,19,129079,5,2,1:2:0:0:
59,140,129256,1,2,1:2:0:0:
19,43,129432,1,10,0:0:0:0:
169,114,129609,2,0,P|276:147|285:152,1,102,2|0,1:2|1:2,0:0:0:0:
378,244,129962,5,8,3:0:0:0:
391,251,130050,1,8,3:0:0:0:
404,258,130138,1,0,1:2:0:0:
484,229,130315,1,8,3:0:0:0:
307,204,130491,6,0,B|230:227|230:227|206:261|206:261|101:291,1,204,6|0,1:2|1:2,0:0:0:0:
30,82,131021,2,0,B|29:61|7:48|7:48|87:23|134:87|99:151,1,204,10|0,0:0|1:2,0:0:0:0:
190,20,131550,2,0,B|226:37|226:37|277:17|310:17,1,102,10|0,0:0|3:0,0:0:0:0:
458,141,131903,5,0,1:2:0:0:
441,9,132079,2,0,P|398:26|397:107,1,102,0|0,1:2|0:0,0:0:0:0:
193,119,132432,2,0,P|272:136|343:262,1,204,10|2,0:0|1:2,0:0:0:0:
510,375,132962,1,10,0:0:0:0:
502,207,133138,1,2,0:0:0:0:
302,306,133315,6,0,B|254:307|233:374|233:374|180:331|134:354,1,204,4|0,1:2|1:2,0:0:0:0:
38,220,133844,2,0,B|4:226|-8:264|-8:264|63:229|135:233,1,204,10|0,0:0|1:2,0:0:0:0:
202,73,134373,2,0,B|167:61|167:61|189:97|182:160,1,102,10|0,0:0|0:0,0:0:0:0:
362,219,134726,1,0,1:2:0:0:
489,81,134903,2,0,P|436:57|326:40,1,153,0|0,1:2|0:0,0:0:0:0:
320,111,135256,6,0,B|387:147|387:147|475:153,1,153,8|0,0:0|0:0,0:0:0:0:
501,218,135609,1,0,1:2:0:0:
443,308,135785,1,8,0:0:0:0:
444,323,135873,1,0,1:0:0:0:
445,338,135962,1,0,1:0:0:0:
332,267,136138,6,0,P|286:197|188:199,1,153,4|0,1:2|0:0,0:0:0:0:
168,234,136491,1,8,0:0:0:0:
44,166,136668,2,0,P|106:149|174:149,1,102,2|0,0:0|1:2,0:0:0:0:
236,0,137021,2,0,P|174:17|106:17,1,102,2|8,1:2|0:0,0:0:0:0:
295,70,137373,1,2,0:0:0:0:
237,163,137550,6,0,B|226:229|265:198|256:278,2,102,4|0|8,1:2|1:2|0:0,0:0:0:0:
328,337,138079,2,0,P|353:256|471:223,1,204,2|2,1:2|1:2,0:0:0:0:
501,59,138609,2,0,P|469:117|374:112,1,153,8|0,0:0|1:2,0:0:0:0:
340,63,138962,6,0,B|278:50|278:50|248:55|248:55|227:37|227:37|151:23,1,187,4|8,1:2|0:0,0:0:0:0:
68,57,139491,1,2,0:0:0:0:
145,183,139668,5,4,3:0:0:0:
154,214,139756,1,8,3:0:0:0:
163,245,139844,1,8,3:0:0:0:
172,276,139932,1,8,3:0:0:0:
181,307,140021,1,4,3:0:0:0:
256,356,140197,1,4,3:0:0:0:
402,303,140373,6,0,B|460:302|507:253|488:174|488:174|423:168|361:216|361:216|281:131|300:65|335:17|388:7|429:12|462:70|419:113|378:117,1,680,4|0,1:2|0:0,0:0:0:0:
27,22,142403,5,2,0:0:0:0:
27,22,142491,2,0,P|65:61|112:216,1,204,2|8,0:0|0:0,0:0:0:0:
103,217,144608,1,8,0:0:0:0:
484,298,145226,5,2,0:0:0:0:
484,298,145314,2,0,B|426:281|350:312|413:336|351:380|284:351,1,204,2|8,0:0|0:0,0:0:0:0:
289,344,147432,1,8,0:0:0:0:
44,52,148049,5,2,0:0:0:0:
44,52,148138,2,0,B|41:25|26:10|26:10|91:4|131:67|98:128,1,204,2|8,0:0|0:0,0:0:0:0:
452,222,149461,5,2,0:0:0:0:
452,222,149549,2,0,B|413:250|380:243|349:214|349:214|344:154|275:166,1,204,2|8,0:0|0:0,0:0:0:0:
26,368,150873,5,2,0:0:0:0:
26,368,150961,2,0,B|70:362|101:302|101:302|144:355|194:346,1,204,2|8,0:0|0:0,0:0:0:0:
194,26,152373,6,0,P|222:59|237:132,1,102,2|0,0:0|0:0,0:0:0:0:
230,125,153079,5,8,3:2:0:0:
315,169,153343,5,8,3:2:0:0:
434,113,153608,5,8,3:2:0:0:
477,230,153785,6,0,P|494:282|492:313,1,68,4|0,1:2|0:0,0:0:0:0:
476,318,154049,2,0,P|422:306|396:289,1,68,0|0,1:2|0:0,0:0:0:0:
359,250,154314,1,0,1:2:0:0:
222,368,154491,2,0,P|268:350|369:357,1,136,8|0,0:0|0:0,0:0:0:0:
462,67,156255,6,0,P|472:43|463:69,1,102
397,107,156608,6,0,B|364:94|364:94|306:93,1,68,0|0,1:2|0:0,0:0:0:0:
314,109,156873,2,0,B|281:122|281:122|223:123,1,68,0|0,1:2|0:0,0:0:0:0:
193,71,157138,1,0,1:2:0:0:
114,174,157314,2,0,B|107:210|107:210|160:264|160:264|151:319,1,136,8|0,0:0|0:0,0:0:0:0:
316,382,158020,6,0,P|300:338|311:303,1,68,6|0,1:2|0:0,0:0:0:0:
156,287,158373,2,0,P|200:236|199:179,1,102,2|0,1:2|0:0,0:0:0:0:
361,173,158726,2,0,P|318:121|332:41,1,119,10|0,0:0|0:0,0:0:0:0:
482,34,159079,1,2,3:2:0:0:
453,104,159255,1,0,3:0:0:0:
316,51,159432,6,0,P|252:41|177:40,2,136,6|2|8,1:2|1:2|0:0,0:0:0:0:
51,13,160491,2,0,P|100:29|109:50,1,68,0|0,3:0|3:0,0:0:0:0:
75,110,160843,5,2,1:2:0:0:
141,205,161020,2,0,B|225:219|183:170|301:194,1,136,8|2,0:0|1:2,0:0:0:0:
437,312,161549,2,0,P|379:310|343:222,1,136,10|2,0:0|0:0,0:0:0:0:
339,249,162079,1,0,1:2:0:0:
438,149,162255,6,0,B|474:85|474:85|460:45|425:46,2,136,6|0|8,1:2|1:2|0:0,0:0:0:0:
303,25,163314,1,0,1:2:0:0:
233,49,163491,1,2,1:2:0:0:
41,74,163667,6,0,B|-7:37|42:-15|78:-21|126:-1|155:70|132:129|73:174,1,297.5,6|0,1:2|0:0,0:0:0:0:
150,201,164373,6,0,B|135:226|109:239|75:234|75:234|133:276|191:210|190:207|190:203|195:156|245:139|313:175,1,340,6|2,1:2|0:0,0:0:0:0:
256,192,165961,12,0,167108,0:0:0:0:
137,105,167196,6,0,P|129:91|141:106,1,76.4999999999999,4|0,1:3|0:0,0:0:0:0:
97,170,167559,6,0,B|82:217|126:236|129:234|134:234|168:255|152:313,1,153,4|0,1:2|0:0,0:0:0:0:
144,322,167911,1,10,0:0:0:0:
263,114,168088,1,2,1:2:0:0:
269,220,168264,1,2,0:0:0:0:
174,172,168441,1,2,1:2:0:0:
338,87,168617,1,10,0:0:0:0:
421,164,168794,1,2,0:0:0:0:
442,64,168970,5,2,1:2:0:0:
333,173,169147,1,2,1:2:0:0:
423,306,169323,1,10,0:0:0:0:
509,124,169500,1,2,1:2:0:0:
307,270,169676,2,0,P|251:293|177:305,1,102,2|2,0:0|1:2,0:0:0:0:
39,110,170029,2,0,P|95:133|214:151,1,153,8|0,0:0|0:0,0:0:0:0:
258,129,170382,6,0,B|297:98|276:36|204:22|204:22|213:63|199:83,1,204,2|8,1:2|0:0,0:0:0:0:
328,242,170911,2,0,P|345:197|481:193,1,204,2|0,1:2|1:2,0:0:0:0:
369,333,171441,1,8,0:0:0:0:
235,333,171617,2,0,B|205:319|205:319|160:338|115:319,1,102,2|0,0:0|1:2,0:0:0:0:
58,226,171970,1,0,1:2:0:0:
146,75,172147,6,0,P|81:38|29:42,1,102,10|0,0:0|1:2,0:0:0:0:
268,156,172500,2,0,P|217:190|164:143,1,102,2|0,0:0|1:2,0:0:0:0:
415,36,172853,2,0,P|344:13|320:88,1,153,10|0,0:0|0:0,0:0:0:0:
384,108,173206,5,6,1:2:0:0:
476,244,173382,2,0,P|498:175|492:122,1,102,2|8,0:0|0:0,0:0:0:0:
354,333,173735,2,0,P|306:282|269:136,1,204,2|0,1:2|1:2,0:0:0:0:
381,229,174264,1,8,0:0:0:0:
239,328,174441,5,2,0:0:0:0:
183,268,174617,1,4,1:2:0:0:
53,364,174794,2,0,B|91:376|91:376|183:346,1,102,2|8,0:0|0:0,0:0:0:0:
267,155,175147,2,0,B|229:143|229:143|108:185,1,153,0|0,1:2|0:0,0:0:0:0:
99,191,175500,1,2,1:2:0:0:
138,89,175676,1,10,0:0:0:0:
305,228,175853,2,0,B|357:253|357:253|391:240|436:280,1,102,2|4,0:0|1:2,0:0:0:0:
491,103,176206,5,2,1:2:0:0:
415,130,176382,1,10,0:0:0:0:
505,332,176559,2,0,P|494:269|509:192,1,102,2|0,0:0|1:2,0:0:0:0:
392,30,176911,2,0,P|403:93|388:170,1,102,0|8,1:2|0:0,0:0:0:0:
296,14,177264,1,6,1:2:0:0:
154,98,177441,6,0,B|104:116|104:116|61:107|65:49,1,102,2|0,0:0|1:2,0:0:0:0:
207,18,177794,1,8,0:0:0:0:
199,172,177970,2,0,P|248:186|291:214,1,102,2|0,0:0|1:2,0:0:0:0:
404,322,178323,5,0,1:2:0:0:
407,307,178411,1,0,1:2:0:0:
410,292,178500,1,0,1:2:0:0:
467,234,178676,1,0,1:2:0:0:
464,219,178764,1,0,1:2:0:0:
462,203,178853,6,0,P|411:190|325:197,1,102,6|2,1:2|0:0,0:0:0:0:
268,287,179206,1,8,0:0:0:0:
70,191,179382,2,0,B|90:179|106:153|106:153|171:138|276:133,1,204,2|0,1:2|1:2,0:0:0:0:
339,27,179911,1,8,0:0:0:0:
180,4,180088,1,0,1:2:0:0:
184,18,180176,1,4,1:3:0:0:
188,32,180264,6,0,P|206:106|191:257,1,204,2|8,1:2|0:0,0:0:0:0:
454,79,180794,2,0,P|372:103|314:235,1,204,2|0,1:2|1:2,0:0:0:0:
472,327,181323,2,0,B|492:338|508:315|508:315|431:298|389:280,1,153,8|0,0:0|0:0,0:0:0:0:
335,315,181676,6,0,B|246:328|246:328|224:348|224:348|96:364,1,204,6|8,1:2|0:0,0:0:0:0:
36,283,182206,1,2,1:2:0:0:
129,126,182382,2,0,B|148:175|148:175|121:220,1,102,2|0,0:0|1:2,0:0:0:0:
27,57,182735,2,0,B|98:26|98:26|184:36,1,153,8|0,0:0|0:0,0:0:0:0:
232,84,183088,6,0,B|275:99|275:99|282:116|282:116|328:136,1,102,6|0,1:2|0:0,0:0:0:0:
101,225,183441,2,0,B|116:182|116:182|133:175|133:175|153:129,1,102,14|0,1:2|0:0,0:0:0:0:
240,356,183794,2,0,B|197:341|197:341|190:324|190:324|144:304,1,102,4|0,1:2|0:0,0:0:0:0:
374,224,184147,2,0,B|359:267|359:267|342:274|342:274|322:320,1,102,4|0,1:2|0:0,0:0:0:0:
498,194,184500,6,0,B|507:141|507:141|431:66|431:66|442:-5,1,204,6|8,1:2|0:0,0:0:0:0:
170,38,185029,2,0,B|233:1|233:1|370:60,1,204,2|0,1:2|1:2,0:0:0:0:
175,121,185559,1,8,0:0:0:0:
267,227,185735,1,8,0:0:0:0:
263,247,185823,1,8,0:0:0:0:
259,266,185911,6,0,P|338:212|298:112,1,204,4|8,1:2|0:0,0:0:0:0:
496,368,186441,2,0,B|441:392|377:358|427:339|355:305|289:345,1,204,0|0,1:2|1:2,0:0:0:0:
164,253,186970,1,8,0:0:0:0:
220,380,187147,1,0,0:0:0:0:
336,243,187323,6,0,P|353:142|396:50,1,204,6|8,1:2|0:0,0:0:0:0:
182,262,187853,2,0,P|164:161|88:96,1,204,2|0,1:2|1:2,0:0:0:0:
61,272,188382,1,8,0:0:0:0:
194,364,188559,1,0,1:2:0:0:
370,196,188735,6,0,B|419:186|412:122|412:122|344:72|262:93|245:219,1,306,4|0,1:2|1:2,0:0:0:0:
289,281,189353,1,0,1:2:0:0:
289,281,189441,2,0,B|249:304|202:265|192:195|254:163|337:162|403:214|327:264|378:330|492:333,1,408,4|2,1:2|0:0,0:0:0:0:
192,360,190490,6,0,P|156:306|61:305,1,153,4|0,1:2|0:0,0:0:0:0:
60,314,190842,2,0,P|126:301|142:254,1,102,8|2,0:0|1:2,0:0:0:0:
94,137,191195,1,2,0:0:0:0:
193,37,191372,2,0,P|244:49|304:81,1,102,2|8,1:2|0:0,0:0:0:0:
462,131,191725,2,0,P|411:143|351:175,1,102,0|2,3:0|1:2,0:0:0:0:
271,313,192078,1,2,1:2:0:0:
188,164,192254,1,10,0:0:0:0:
24,283,192431,6,0,B|45:287|67:302|67:302|135:292|195:271,1,153,2|0,1:2|0:0,0:0:0:0:
188,269,192784,1,2,1:2:0:0:
353,139,192960,1,8,0:0:0:0:
346,251,193137,1,2,0:0:0:0:
195,147,193313,6,0,B|91:101|136:171|27:128,1,153,4|0,1:2|0:0,0:0:0:0:
30,123,193666,1,8,0:0:0:0:
160,13,193842,2,0,P|245:54|386:67,1,204,2|0,1:2|1:2,0:0:0:0:
462,24,194372,1,8,0:0:0:0:
342,219,194548,6,0,P|359:172|399:141,1,102,2|2,0:0|1:2,0:0:0:0:
406,287,194901,1,2,1:2:0:0:
274,343,195078,1,8,0:0:0:0:
146,181,195254,2,0,P|222:169|264:233,1,153,2|0,0:0|0:0,0:0:0:0:
257,243,195607,1,2,1:2:0:0:
56,89,195784,2,0,P|160:87|241:48,1,153,8|0,0:0|0:0,0:0:0:0:
256,10,196137,6,0,B|304:-4|351:23|339:93|339:93|303:76|269:89,1,204,4|8,1:2|0:0,0:0:0:0:
502,35,196666,2,0,P|437:56|420:104,1,102,2|2,1:2|0:0,0:0:0:0:
472,305,197019,1,2,1:2:0:0:
508,227,197195,1,8,0:0:0:0:
367,242,197372,1,2,0:0:0:0:
225,171,197548,5,2,1:2:0:0:
295,143,197725,1,2,1:2:0:0:
292,218,197901,1,8,0:0:0:0:
226,89,198078,1,2,1:2:0:0:
369,152,198254,1,2,0:0:0:0:
218,262,198431,1,2,1:2:0:0:
146,129,198607,1,8,0:0:0:0:
306,33,198784,1,2,0:0:0:0:
468,152,198960,6,0,P|489:248|469:356,1,204,6|8,1:2|0:0,0:0:0:0:
367,131,199490,2,0,P|311:139|274:170,1,102,2|0,0:0|1:2,0:0:0:0:
145,306,199842,1,0,1:2:0:0:
38,164,200019,1,8,0:0:0:0:
229,7,200195,6,0,B|237:67|172:85|169:82|167:81|116:99|124:165,1,204,4|0,1:2|1:2,0:0:0:0:
289,312,200725,5,8,0:0:0:0:
204,155,200901,1,0,1:2:0:0:
385,360,201078,5,8,0:0:0:0:
454,154,201254,1,0,1:2:0:0:
498,325,201431,6,0,P|428:279|322:239,1,153,8|0,0:0|0:0,0:0:0:0:
293,295,201784,6,0,B|246:291|213:353|213:353|166:307|104:326,1,204,4|0,1:2|1:2,0:0:0:0:
73,119,202313,2,0,B|85:100|55:85|55:85|26:111|27:167|74:186,1,153,12|0,1:2|0:0,0:0:0:0:
74,186,202666,1,8,1:3:0:0:
183,106,202842,2,0,P|257:133|339:185,1,153,0|0,1:2|0:0,0:0:0:0:
408,136,203195,5,4,1:2:0:0:
256,192,203284,12,2,206019,0:0:0:0:
