osu file format v14

[General]
AudioFilename: audio.mp3
AudioLeadIn: 0
PreviewTime: 52770
Countdown: 0
SampleSet: Soft
StackLeniency: 0.7
Mode: 0
LetterboxInBreaks: 0
WidescreenStoryboard: 1

[Editor]
Bookmarks: 494,5709,21499,32020,42522,52825,73988,84357,87035
DistanceSpacing: 1.5
BeatDivisor: 4
GridSize: 32
TimelineZoom: 3.499999

[Metadata]
Title:Tabibito no Uta (TV Size)
TitleUnicode:旅人の唄 (TV Size)
Artist:Ohara Yuiko
ArtistUnicode:大原ゆい子
Creator:nik
Version:Normal
Source:無職転生 ~異世界行ったら本気だす~
Tags:roxy migurdia ロキシー・ミグルディア Jobless Reincarnation: I Will Seriously Try If I Go To Another World Mushoku Tensei: Isekai Ittara Honki Dasu anime op opening jpop j-pop japanese pop folk nikolomara
BeatmapID:3763110
BeatmapSetID:1831615

[Difficulty]
HPDrainRate:3
CircleSize:3.2
OverallDifficulty:4
ApproachRate:5
SliderMultiplier:1
SliderTickRate:1

[Events]
//Background and Video events
0,0,"4ef334a45cdb2b57e14b2399628b27ff.jpg",0,0
//Break Periods
//Storyboard Layer 0 (Background)
//Storyboard Layer 1 (Fail)
//Storyboard Layer 2 (Pass)
//Storyboard Layer 3 (Foreground)
//Storyboard Layer 4 (Overlay)
//Storyboard Sound Samples

[TimingPoints]
494,434.782608695652,3,2,1,60,1,0
494,-125,3,2,1,60,0,0
1580,476.190476190476,3,2,1,60,1,0
1818,430.10752688172,3,2,1,70,1,0
1818,-125,3,2,1,70,0,0
2463,437.956204379562,3,2,1,70,1,0
2681,437.956204379562,3,2,1,70,1,0
3118,437.956204379562,3,2,1,80,1,0
3118,-125,3,2,1,80,0,0
4431,-125,3,2,1,80,0,0
5307,402.684563758389,3,2,1,70,1,0
5709,464.2166344294,3,2,1,90,1,0
5709,-100,3,2,1,90,0,0
6173,416.666666666667,3,2,1,90,1,0
6589,431.654676258993,3,2,1,90,1,0
7020,437.956204379562,3,2,1,90,1,0
7895,387.096774193548,3,2,1,90,1,0
8088,465.116279069767,3,2,1,90,1,0
8320,439.56043956044,3,2,1,90,1,0
9638,437.956204379562,3,2,1,90,1,0
10951,441.176470588235,3,2,1,90,1,0
13598,433.212996389892,3,2,1,90,1,0
14897,440.366972477064,3,2,1,90,1,0
16218,428.571428571429,3,2,1,80,1,0
16218,-100,3,2,1,80,0,0
16646,461.538461538462,3,2,1,80,1,0
17569,416.666666666667,3,2,1,80,1,0
18194,458.891013384321,3,2,1,80,1,0
18423,458.891013384321,3,2,1,80,1,0
18881,416.666666666667,3,2,1,80,1,0
19297,465.116279069767,3,2,1,80,1,0
19762,451.127819548872,3,2,1,80,1,0
19987,413.793103448276,3,2,1,80,1,0
20193,431.654676258993,3,2,1,80,1,0
20624,437.956204379562,3,2,1,80,1,0
21499,441.176470588235,3,2,1,65,1,0
21499,-125,3,2,1,65,0,0
22822,436.363636363636,3,2,1,65,1,0
22822,-125,3,2,1,65,0,0
24131,437.956204379562,3,2,1,65,1,0
24131,-125,3,2,1,65,0,0
25335,-125,3,2,1,5,0,0
25444,438.59649122807,3,2,1,65,1,0
25444,-125,3,2,1,65,0,0
26759,441.176470588235,3,2,1,65,1,0
26759,-125,3,2,1,65,0,0
28082,437.556973564266,3,2,1,65,1,0
28082,-125,3,2,1,65,0,0
32020,437.956204379562,3,2,1,75,1,0
32020,-100,3,2,1,75,0,0
34647,434.782608695652,3,2,1,75,1,0
35951,437.956204379562,3,2,1,75,1,0
38578,447.761194029851,3,2,1,75,1,0
39473,410.958904109589,3,2,1,75,1,0
39678,472.44094488189,3,2,1,75,1,0
39914,434.782608695652,3,2,1,75,1,0
42305,-100,3,3,1,75,0,0
42522,439.56043956044,3,3,1,70,1,0
42522,-125,3,3,1,70,0,0
44939,422.535211267606,3,3,1,70,1,0
45150,432.432432432432,3,3,1,70,1,0
45150,-125,3,3,1,70,0,0
46447,441.988950276243,3,3,1,70,1,0
46447,-125,3,3,1,70,0,0
47551,413.793103448276,3,3,1,70,1,0
47757,437.956204379562,3,3,1,70,1,0
47757,-125,3,3,1,70,0,0
49946,428.571428571429,3,3,1,70,1,0
50160,-125,3,3,1,70,0,0
50374,451.127819548872,3,3,1,80,1,0
50374,-125,3,3,1,80,0,0
51276,425.531914893617,3,3,1,80,1,0
51701,441.176470588235,3,3,1,90,1,0
51701,-125,3,3,1,90,0,0
52583,437.956204379562,3,3,1,90,1,0
53020,437.956204379562,3,2,1,100,1,0
53020,-100,3,2,1,100,0,1
55647,418.118466898955,3,2,1,100,1,1
56065,444.444444444444,3,2,1,100,1,1
56953,431.654676258993,3,2,1,100,1,1
58247,446.927374301676,3,2,1,100,1,1
59140,437.956204379562,3,2,1,100,1,1
59577,443.62292051756,3,2,1,100,1,1
60464,434.782608695652,3,2,1,100,1,1
60898,437.158469945355,3,2,1,100,1,1
63520,437.956204379562,3,2,1,100,1,1
66147,440.366972477064,3,2,1,100,1,1
67468,437.956204379562,3,2,1,100,1,1
69657,-100,3,2,1,90,0,1
70095,441.176470588235,3,2,1,90,1,1
71418,413.793103448276,3,2,1,100,1,1
71418,-100,3,2,1,100,0,0
71831,363.636363636364,3,2,1,90,1,0
71831,-100,3,2,1,90,0,0
72012,470.588235294118,3,2,1,80,1,0
72012,-100,3,2,1,80,0,0
72247,437.956204379562,3,2,1,70,1,0
72247,-100,3,2,1,70,0,0
72465,-100,3,2,1,60,0,0
72684,434.782608695652,3,2,1,80,1,0
72684,-100,3,2,1,80,0,0
73118,-100,3,2,1,68,0,0
73336,-100,3,2,1,76,0,0
73553,-100,3,2,1,84,0,0
73770,-100,3,2,1,92,0,0
73988,444.444444444444,3,2,1,100,1,0
73988,-100,3,2,1,100,0,1
74321,-100,3,2,1,5,0,1
74432,433.212996389892,3,2,1,100,1,1
74432,-100,3,2,1,100,0,1
74756,-100,3,2,1,5,0,1
74865,-100,3,2,1,100,0,1
75190,-100,3,2,1,5,0,1
75298,436.363636363636,3,2,1,100,1,1
75298,-100,3,2,1,100,0,1
76607,436.919716002185,3,2,1,100,1,1
79228,437.956204379562,3,2,1,100,1,1
80541,438.59649122807,3,2,1,100,1,1
81856,440.528634361234,3,2,1,100,1,1
83177,442.80442804428,3,2,1,100,1,1
83619,428.571428571429,3,2,1,100,1,1
83833,-101.010101010101,3,2,1,100,0,1
84047,434.782608695652,3,2,1,100,1,1
84481,461.538461538462,3,2,1,100,1,1
84596,-100,3,2,1,100,0,1
84711,-100,3,2,1,100,0,0
85634,368.098159509202,3,2,1,5,1,0
85818,442.80442804428,3,2,1,5,1,0
87035,-100,3,2,1,100,0,0
87146,437.956204379562,3,2,1,100,1,0

[Colours]
Combo1 : 71,99,124
Combo2 : 55,66,200
Combo3 : 87,129,236
Combo4 : 192,226,237
Combo5 : 251,215,196

[HitObjects]
3,345,494,6,0,P|42:344|136:316,1,120,0|2,0:0|0:0,0:0:0:0:
194,200,1818,2,0,P|222:226|308:273,1,120,0|2,0:0|0:0,0:0:0:0:
396,367,3118,2,0,P|424:314|463:269,1,120,0|2,0:0|0:0,0:0:0:0:
491,127,4431,2,0,B|447:116|395:134|440:159|379:183|335:159,1,160,0|2,0:0|0:0,0:0:0:0:
227,135,5709,6,0,P|234:93|264:19,1,100,4|8,0:0|0:0,0:0:0:0:
228,2,6381,1,2,0:0:0:0:
228,2,6589,1,2,1:2:0:0:
139,54,7020,2,0,P|96:47|28:32,1,100,8|2,0:0|3:0,0:0:0:0:
8,132,7895,5,8,0:0:0:0:
8,132,8088,1,2,0:1:0:0:
58,132,8320,2,0,P|85:146|148:198,1,100,8|8,0:0|0:0,0:0:0:0:
153,237,8979,2,0,P|139:259|112:283,2,50,2|8|2,0:0|0:0|0:0,0:0:0:0:
203,236,9638,2,0,P|254:257|309:268,2,100,8|8|8,0:0|0:0|0:0,0:0:0:0:
141,315,10951,6,0,B|79:314|112:343|36:341,1,100,4|8,0:0|0:0,0:0:0:0:
8,317,11612,1,2,0:0:0:0:
8,317,11833,1,2,1:2:0:0:
31,219,12274,2,0,P|29:182|17:114,1,100,8|2,0:0|3:0,0:0:0:0:
79,41,13156,5,8,0:0:0:0:
79,41,13377,1,2,0:1:0:0:
128,50,13598,2,0,P|178:33|232:25,1,100,10|8,0:1|0:0,0:0:0:0:
270,44,14247,2,0,P|282:12|294:-9,2,50,2|8|2,0:0|0:0|0:1,0:0:0:0:
293,88,14897,6,0,B|355:87|322:116|398:114,1,100,10|8,0:1|0:0,0:0:0:0:
434,97,15557,1,2,0:0:0:0:
470,131,15777,2,0,P|461:170|450:198,1,50,8|2,0:0|0:1,0:0:0:0:
476,227,16218,1,14,0:0:0:0:
256,192,16432,12,2,20193,0:1:0:0:
314,325,21499,6,0,P|232:297|152:295,1,160,2|2,0:0|0:0,0:0:0:0:
68,326,22822,2,0,P|57:305|27:166,1,160,2|0,0:0|0:0,0:0:0:0:
26,76,24131,2,0,B|188:39|104:117|263:75,1,240,2|2,0:0|0:0,0:0:0:0:
507,223,26759,6,0,P|473:204|433:189,1,80,2|2,0:0|0:0,0:0:0:0:
339,206,27641,1,2,0:0:0:0:
309,297,28082,2,0,P|245:305|195:234,1,160,2|2,0:0|0:0,0:0:0:0:
121,171,29394,2,0,P|56:193|5:322,1,200,2|2,0:0|0:0,0:0:0:0:
32,343,30707,2,0,P|95:347|192:341,1,160,2|0,0:0|0:0,0:0:0:0:
311,335,32020,6,0,P|305:356|302:394,2,50,2|2|8,0:0|0:0|0:0,0:0:0:0:
326,276,32676,2,0,P|362:265|429:260,1,100,2|2,3:1|0:0,0:0:0:0:
468,300,33333,2,0,P|462:325|459:349,2,50,2|2|8,0:0|0:0|0:0,0:0:0:0:
509,256,33990,1,2,3:1:0:0:
499,136,34428,5,2,0:0:0:0:
470,83,34647,2,0,L|408:89,1,50,2|2,0:0|0:0,0:0:0:0:
368,56,35081,2,0,L|318:51,1,50,8|2,0:0|3:1,0:0:0:0:
268,16,35516,2,0,L|206:22,1,50,2|2,0:0|0:0,0:0:0:0:
163,46,35951,1,8,0:0:0:0:
51,1,36388,2,0,L|40:107,1,100,10|8,0:1|0:0,0:0:0:0:
7,151,37045,1,2,0:1:0:0:
23,208,37264,6,0,P|9:228|-1:251,2,50,2|2|8,0:0|0:0|0:0,0:0:0:0:
82,197,37921,2,0,P|127:199|199:211,1,100,2|2,3:1|0:0,0:0:0:0:
218,254,38578,2,0,P|208:276|193:297,2,50,2|2|8,0:0|0:0|0:0,0:0:0:0:
275,234,39249,1,2,3:1:0:0:
394,242,39678,5,2,0:0:0:0:
393,302,39914,2,0,L|381:358,1,50,2|2,0:0|0:0,0:0:0:0:
326,373,40348,2,0,L|277:362,1,50,8|2,0:0|3:1,0:0:0:0:
223,334,40783,2,0,L|167:346,1,50
118,320,41218,2,0,B|55:319|86:340|2:339,2,100,2|2|2,0:0|0:0|0:0,0:0:0:0:
146,271,42305,1,2,0:0:0:0:
119,218,42522,6,0,P|119:100|196:11,1,240,8|10,0:0|0:0,0:0:0:0:
286,65,44280,1,0,2:0:0:0:
286,65,44500,1,2,0:0:0:0:
369,19,44939,1,2,0:0:0:0:
369,19,45150,2,0,P|442:7|486:72,1,160,8|2,0:0|0:0,0:0:0:0:
503,165,46447,2,0,P|501:207|494:249,2,80,10|8|2,0:0|0:0|0:0,0:0:0:0:
408,146,47757,6,0,B|358:147|303:75|265:78,1,160,8|2,0:0|0:0,0:0:0:0:
195,12,49070,2,0,P|174:13|108:25,2,80,10|0|2,0:0|2:0|0:0,0:0:0:0:
256,85,50374,6,0,P|239:142|227:248,1,160,6|2,0:0|0:0,0:0:0:0:
257,278,51488,1,2,0:0:0:0:
250,325,51701,2,0,B|145:328|196:356|87:358,1,160,8|2,0:0|0:0,0:0:0:0:
57,327,52801,1,2,0:0:0:0:
40,279,53020,6,0,P|44:237|67:124,1,150,6|2,0:0|0:1,0:0:0:0:
105,80,53895,2,0,P|142:74|173:77,1,50,0|0,1:0|0:0,0:0:0:0:
204,115,54333,2,0,P|263:125|323:125,1,100,2|8,1:3|0:0,0:0:0:0:
349,86,54990,1,2,0:0:0:0:
459,145,55428,5,2,0:0:0:0:
459,145,55647,2,0,P|486:117|498:95,1,50,2|0,1:3|0:0,0:0:0:0:
482,48,56065,2,0,B|388:44|453:5|341:3,1,150,10|2,1:3|0:1,0:0:0:0:
285,17,56953,1,2,1:0:0:0:
203,104,57384,2,0,P|157:105|92:118,1,100,8|8,0:0|0:0,0:0:0:0:
60,81,58032,5,2,0:0:0:0:
60,81,58247,2,0,P|7:101|22:229,1,200,6|2,1:2|1:0,0:0:0:0:
69,308,59577,6,0,B|177:293|144:367|258:349,1,200,2|2,1:2|1:0,0:0:0:0:
302,370,60681,1,2,1:2:0:0:
349,353,60898,6,0,B|402:326|414:269|414:269|380:235|380:186,1,200,10|8,1:2|0:0,0:0:0:0:
397,89,62209,2,0,P|352:60|289:48,1,100,8|10,0:0|3:1,0:0:0:0:
207,56,63083,1,8,0:0:0:0:
182,101,63302,5,2,0:0:0:0:
182,101,63520,2,0,P|140:100|66:103,1,100,10|8,1:0|0:0,0:0:0:0:
35,190,64395,1,2,1:3:0:0:
88,227,64614,1,2,0:0:0:0:
88,227,64833,2,0,P|88:282|93:348,1,100,10|8,1:0|0:0,0:0:0:0:
185,380,65709,1,2,1:3:0:0:
235,346,65928,1,0,0:0:0:0:
235,346,66147,6,0,B|292:331|275:366|335:360,2,100,10|8|2,1:0|0:0|1:3,0:0:0:0:
119,313,67468,2,0,P|110:292|91:214,1,100,10|2,0:0|3:0,0:0:0:0:
127,102,68343,1,8,0:0:0:0:
188,123,68562,5,2,0:0:0:0:
188,123,68781,2,0,P|246:103|347:102,1,150,6|0,0:2|0:0,0:0:0:0:
434,33,69876,1,2,0:0:0:0:
483,67,70095,2,0,P|485:112|487:179,1,100,10|8,1:2|0:0,0:0:0:0:
505,223,70756,1,2,0:0:0:0:
468,270,70977,2,0,P|441:275|401:279,1,50,8|2,0:0|0:0,0:0:0:0:
370,315,71418,6,0,B|291:248|373:204|284:138,1,200,6|6,3:2|3:0,0:0:0:0:
179,93,72684,2,0,P|200:178|288:144,1,200,6|10,3:2|3:0,0:0:0:0:
338,41,73988,5,6,0:0:0:0:
456,58,74432,2,0,P|481:86|479:155,1,100,8|8,0:0|0:0,0:0:0:0:
394,226,75298,2,0,P|335:216|288:197,1,100,10|0,0:1|1:0,0:0:0:0:
185,244,76170,1,10,0:0:0:0:
130,352,76607,5,10,0:1:0:0:
130,352,76825,2,0,P|88:355|60:348,1,50,0|10,0:0|0:0,0:0:0:0:
31,318,77262,1,2,0:0:0:0:
22,202,77699,1,2,0:0:0:0:
22,202,77917,2,0,P|37:148|80:107,1,100,10|0,0:0|0:0,0:0:0:0:
119,86,78573,2,0,P|177:95|238:92,1,100,10|0,0:0|0:0,0:0:0:0:
271,122,79228,6,0,P|314:104|378:85,1,100,12|10,0:0|0:1,0:0:0:0:
416,57,79884,1,2,0:0:0:0:
509,140,80322,1,2,0:0:0:0:
509,140,80541,2,0,P|510:193|501:250,1,100,8|10,0:0|0:1,0:0:0:0:
464,285,81198,1,2,0:0:0:0:
302,205,81856,6,0,P|267:187|194:163,1,100,8|10,0:0|0:1,0:0:0:0:
153,145,82516,1,2,0:0:0:0:
37,164,82957,1,8,0:3:0:0:
37,164,83177,2,0,P|39:218|48:280,1,100,10|8,0:1|0:3,0:0:0:0:
79,313,83833,2,0,P|133:310|195:301,1,100,10|8,0:1|0:3,0:0:0:0:
228,339,84481,5,14,0:1:0:0:
256,192,84711,12,2,87035,0:0:0:0:
