osu file format v14

[General]
AudioFilename: audio.mp3
AudioLeadIn: 0
PreviewTime: 52915
Countdown: 0
SampleSet: Normal
StackLeniency: 0.7
Mode: 1
LetterboxInBreaks: 0
WidescreenStoryboard: 1

[Editor]
Bookmarks: 5721,16231,21485,31996,42522,53025,63536,73992,84495
DistanceSpacing: 3.1
BeatDivisor: 4
GridSize: 32
TimelineZoom: 1.7

[Metadata]
Title:Tabibito no Uta (TV Size)
TitleUnicode:旅人の唄 (TV Size)
Artist:Ohara Yuiko
ArtistUnicode:大原ゆい子
Creator:iRedi
Version:Kantan
Source:無職転生 ~異世界行ったら本気だす~
Tags:mushoku tensei ~isekai ittara honki dasu~ jobless reincarnation i will seriously try if i go to another world op opening anime japanese j-pop jpop pop folk irone_osu irone osu roxy migurdia ロキシー・ミグルディア
BeatmapID:3858860
BeatmapSetID:1875139

[Difficulty]
HPDrainRate:8.5
CircleSize:5
OverallDifficulty:3
ApproachRate:5
SliderMultiplier:1.4
SliderTickRate:1

[Events]
//Background and Video events
0,0,"roxy.jpg",0,0
//Break Periods
//Storyboard Layer 0 (Background)
//Storyboard Layer 1 (Fail)
//Storyboard Layer 2 (Pass)
//Storyboard Layer 3 (Foreground)
//Storyboard Layer 4 (Overlay)
//Storyboard Sound Samples

[TimingPoints]
5722,437.956204379562,3,1,0,80,1,0
7473,431.654676258993,3,1,0,80,1,8
7473,-101.459854014739,3,1,0,80,0,0
7904,402.684563758389,3,1,0,80,1,8
7904,-108.759124088576,3,1,0,80,0,0
8105,472.44094488189,3,1,0,80,1,8
8105,-92.7007299270344,3,1,0,80,0,0
8341,437.956204379562,3,1,0,80,1,0
16224,437.956204379562,3,1,0,80,1,8
16231,428.571428571429,3,1,0,70,1,0
16231,-102.189781022047,3,1,0,70,0,0
17516,428.571428571429,3,1,0,70,1,8
17544,437.956204379562,3,1,0,70,1,0
21485,-100,3,1,0,60,0,0
25427,441.176470588235,3,1,0,60,1,8
25428,441.176470588235,3,1,0,60,1,0
25428,-99.2700729923529,3,1,0,60,0,0
29398,428.571428571429,3,1,0,60,1,0
29398,-102.189781022047,3,1,0,60,0,0
30683,437.956204379562,3,1,0,60,1,0
31996,-100,3,1,0,65,0,0
38566,468.75,3,1,0,65,1,0
38566,-93.4306569343066,3,1,0,65,0,0
39442,437.956204379562,3,1,0,65,1,8
39915,432.432432432432,3,1,0,65,1,0
39915,-101.277372263531,3,1,0,65,0,0
40347,437.956204379562,3,1,0,65,1,8
41222,425.531914893617,3,1,0,65,1,0
41222,-102.919708029595,3,1,0,65,0,0
41647,437.956204379562,3,1,0,65,1,8
42522,437.956204379562,3,1,0,70,1,0
47770,437.956204379562,3,1,0,70,1,0
53025,-100,3,1,0,80,0,1
54339,434.782608695652,3,1,0,80,1,1
54339,-100.729927008152,3,1,0,80,0,1
58252,441.176470588235,3,1,0,80,1,1
58252,-99.2700729923529,3,1,0,80,0,1
60899,437.956204379562,3,1,0,80,1,1
60899,-100,3,1,0,80,0,1
63526,434.782608695652,3,1,0,80,1,1
63526,-100.729927008152,3,1,0,80,0,1
64830,441.176470588235,3,1,0,80,1,1
64830,-99.2700729923529,3,1,0,80,0,1
67477,437.956204379562,3,1,0,80,1,1
67477,-100,3,1,0,80,0,1
68790,434.782608695652,3,1,0,80,1,1
68790,-100.729927008152,3,1,0,80,0,1
70094,449.438202247191,3,1,0,80,1,1
70094,-97.4452554748722,3,1,0,80,0,1
70543,437.956204379562,3,1,0,80,1,9
70543,-100,3,1,0,80,0,1
71419,582.52427184466,3,1,0,70,1,1
71419,-75.182481751748,3,1,0,70,0,1
72002,444.444444444444,3,1,0,70,1,9
72002,-98.540145985869,3,1,0,70,0,1
72669,441.176470588235,3,1,0,70,1,1
72669,-99.2700729923529,3,1,0,70,0,1
73992,434.782608695652,3,1,0,80,1,1
73992,-100.729927008152,3,1,0,80,0,1
79209,451.127819548872,3,1,0,80,1,1
79209,-97.0802919707958,3,1,0,80,0,1
80521,442.80442804428,3,1,0,80,1,1
80521,-98.9051094891594,3,1,0,80,0,1
82307,437.956204379562,3,1,0,80,1,9
83182,437.956204379562,3,1,0,80,1,1
84495,-100,3,1,0,70,0,0
85371,-100,3,1,0,60,0,0
85809,-100,3,1,0,50,0,0
86247,-100,3,1,0,40,0,0
86685,-100,3,1,0,30,0,0
87123,-100,3,1,0,40,0,0

[HitObjects]
512,0,5721,5,4,0:0:0:0:
256,192,6597,1,2,0:0:0:0:
256,192,7035,1,2,0:0:0:0:
256,192,7473,1,0,0:0:0:0:
256,192,8341,1,2,0:0:0:0:
256,192,9216,1,2,0:0:0:0:
256,192,9654,1,0,0:0:0:0:
512,0,10968,1,6,0:0:0:0:
256,192,11844,1,2,0:0:0:0:
256,192,12282,1,0,0:0:0:0:
256,192,12720,1,2,0:0:0:0:
256,192,13596,1,2,0:0:0:0:
256,192,14472,1,0,0:0:0:0:
256,192,14910,1,0,0:0:0:0:
512,0,16231,1,6,0:0:0:0:
256,192,16659,12,0,18857,0:0:0:0:
256,192,21485,5,0,0:0:0:0:
256,192,22361,1,0,0:0:0:0:
256,192,22799,1,2,0:0:0:0:
256,192,23675,1,2,0:0:0:0:
256,192,24113,1,0,0:0:0:0:
256,192,25428,1,0,0:0:0:0:
256,192,26751,1,2,0:0:0:0:
256,192,27633,1,2,0:0:0:0:
256,192,28075,1,0,0:0:0:0:
256,192,28957,1,0,0:0:0:0:
256,192,29398,1,2,0:0:0:0:
256,192,30683,1,0,0:0:0:0:
256,192,31996,1,2,0:0:0:0:
256,192,33310,1,0,0:0:0:0:
256,192,33748,1,2,0:0:0:0:
256,192,34624,1,0,0:0:0:0:
256,192,35938,1,2,0:0:0:0:
256,192,36376,1,2,0:0:0:0:
256,192,37252,1,0,0:0:0:0:
256,192,38566,1,2,0:0:0:0:
256,192,39034,1,0,0:0:0:0:
256,192,39915,1,0,0:0:0:0:
256,192,41222,1,2,0:0:0:0:
512,0,42522,1,4,0:0:0:0:
256,192,43835,1,2,0:0:0:0:
256,192,45149,1,2,0:0:0:0:
256,192,46025,1,0,0:0:0:0:
256,192,46463,1,2,0:0:0:0:
256,192,47770,1,0,0:0:0:0:
256,192,49083,1,2,0:0:0:0:
256,192,49521,1,0,0:0:0:0:
256,192,50397,1,2,0:0:0:0:
256,192,51711,1,2,0:0:0:0:
512,0,53025,1,4,0:0:0:0:
256,192,54339,1,0,0:0:0:0:
256,192,55643,1,0,0:0:0:0:
256,192,56078,1,2,0:0:0:0:
256,192,56947,1,2,0:0:0:0:
256,192,57382,1,0,0:0:0:0:
512,0,58252,1,6,0:0:0:0:
256,192,59134,1,0,0:0:0:0:
256,192,59575,1,2,0:0:0:0:
256,192,60457,1,0,0:0:0:0:
256,192,60899,1,2,0:0:0:0:
256,192,62212,1,2,0:0:0:0:
256,192,62650,1,2,0:0:0:0:
512,0,63526,1,4,0:0:0:0:
256,192,64395,1,2,0:0:0:0:
256,192,64830,1,2,0:0:0:0:
256,192,65271,1,0,0:0:0:0:
256,192,66153,1,0,0:0:0:0:
256,192,66594,1,2,0:0:0:0:
256,192,67477,1,0,0:0:0:0:
256,192,68352,1,2,0:0:0:0:
512,0,68790,1,4,0:0:0:0:
256,192,70543,1,0,0:0:0:0:
256,192,70980,1,0,0:0:0:0:
512,0,71419,1,6,0:0:0:0:
512,0,72669,1,6,0:0:0:0:
512,0,73992,1,4,0:0:0:0:
256,192,74861,1,2,0:0:0:0:
256,192,75296,1,2,0:0:0:0:
256,192,76600,1,2,0:0:0:0:
256,192,77035,1,0,0:0:0:0:
256,192,77905,1,2,0:0:0:0:
512,0,79208,1,4,0:0:0:0:
256,192,80521,1,0,0:0:0:0:
256,192,80963,1,2,0:0:0:0:
256,192,81849,1,0,0:0:0:0:
256,192,82307,1,2,0:0:0:0:
256,192,83182,1,2,0:0:0:0:
512,0,84495,1,4,0:0:0:0:
256,192,84933,12,0,87123,0:0:0:0:
