osu file format v14

[General]
AudioFilename: audio.mp3
AudioLeadIn: 0
PreviewTime: 52915
Countdown: 0
SampleSet: Normal
StackLeniency: 0.7
Mode: 1
LetterboxInBreaks: 0
WidescreenStoryboard: 1

[Editor]
Bookmarks: 5721,16231,21485,31996,42522,53025,63536,73992,84495
DistanceSpacing: 3.1
BeatDivisor: 4
GridSize: 32
TimelineZoom: 3.299999

[Metadata]
Title:Tabibito no Uta (TV Size)
TitleUnicode:旅人の唄 (TV Size)
Artist:Ohara Yuiko
ArtistUnicode:大原ゆい子
Creator:iRedi
Version:Irone's Odyssey
Source:無職転生 ~異世界行ったら本気だす~
Tags:mushoku tensei ~isekai ittara honki dasu~ jobless reincarnation i will seriously try if i go to another world op opening anime japanese j-pop jpop pop folk irone_osu irone osu roxy migurdia ロキシー・ミグルディア
BeatmapID:3861510
BeatmapSetID:1875139

[Difficulty]
HPDrainRate:5.5
CircleSize:5
OverallDifficulty:5.5
ApproachRate:5
SliderMultiplier:1.4
SliderTickRate:1

[Events]
//Background and Video events
0,0,"roxy.jpg",0,0
//Break Periods
//Storyboard Layer 0 (Background)
//Storyboard Layer 1 (Fail)
//Storyboard Layer 2 (Pass)
//Storyboard Layer 3 (Foreground)
//Storyboard Layer 4 (Overlay)
//Storyboard Sound Samples

[TimingPoints]
5722,437.956204379562,3,1,0,80,1,0
7473,431.654676258993,3,1,0,80,1,8
7473,-101.459854014739,3,1,0,80,0,0
7904,402.684563758389,3,1,0,80,1,8
7904,-108.759124088576,3,1,0,80,0,0
8105,472.44094488189,3,1,0,80,1,8
8105,-92.7007299270344,3,1,0,80,0,0
8341,437.956204379562,3,1,0,80,1,0
16224,437.956204379562,3,1,0,80,1,8
16231,428.571428571429,3,1,0,70,1,0
16231,-102.189781022047,3,1,0,70,0,0
17516,428.571428571429,3,1,0,70,1,8
17544,437.956204379562,3,1,0,70,1,0
21485,-111.111111111111,3,1,0,60,0,0
25427,441.176470588235,3,1,0,60,1,8
25428,441.176470588235,3,1,0,60,1,0
25428,-111.111111111111,3,1,0,60,0,0
29398,428.571428571429,3,1,0,60,1,0
29398,-113.636363636364,3,1,0,60,0,0
30683,437.956204379562,3,1,0,60,1,0
30683,-111.111111111111,3,1,0,60,0,0
31996,-100,3,1,0,65,0,0
38566,468.75,3,1,0,65,1,0
38566,-93.4306569343066,3,1,0,65,0,0
39442,437.956204379562,3,1,0,65,1,8
39915,432.432432432432,3,1,0,65,1,0
39915,-101.277372263531,3,1,0,65,0,0
40347,437.956204379562,3,1,0,65,1,8
41222,425.531914893617,3,1,0,65,1,0
41222,-102.919708029595,3,1,0,65,0,0
41647,437.956204379562,3,1,0,65,1,8
42303,-98.0392156862745,3,1,0,65,0,8
42413,-96.6183574879227,3,1,0,65,0,8
42522,437.956204379562,3,1,0,70,1,0
42522,-95.2380952380952,3,1,0,70,0,0
42631,-100,3,1,0,70,0,0
47770,437.956204379562,3,1,0,70,1,0
52587,-97.0873786407767,3,1,0,70,0,0
52806,-94.3396226415094,3,1,0,70,0,0
53025,-86.9565217391304,3,1,0,80,0,1
53353,-95.2380952380952,3,1,0,80,0,1
54339,434.782608695652,3,1,0,80,1,1
54339,-95.9332638162754,3,1,0,80,0,1
58252,441.176470588235,3,1,0,80,1,1
58252,-94.5429266592943,3,1,0,80,0,1
60899,437.956204379562,3,1,0,80,1,1
60899,-95.2380952380952,3,1,0,80,0,1
63526,434.782608695652,3,1,0,80,1,1
63526,-95.9332638162754,3,1,0,80,0,1
64830,441.176470588235,3,1,0,80,1,1
64830,-94.5429266592943,3,1,0,80,0,1
67477,437.956204379562,3,1,0,80,1,1
67477,-95.2380952380952,3,1,0,80,0,1
68790,434.782608695652,3,1,0,80,1,1
68790,-95.9332638162754,3,1,0,80,0,1
70094,449.438202247191,3,1,0,80,1,1
70094,-92.8050052135611,3,1,0,80,0,1
70543,437.956204379562,3,1,0,80,1,9
70543,-96.1538461538461,3,1,0,80,0,1
70761,-97.0873786407767,3,1,0,80,0,1
70980,-98.0392156862745,3,1,0,80,0,1
71199,-99.009900990099,3,1,0,80,0,1
71419,582.52427184466,3,1,0,70,1,1
71419,-75.182481751748,3,1,0,70,0,1
72002,444.444444444444,3,1,0,70,1,9
72002,-98.540145985869,3,1,0,70,0,1
72669,441.176470588235,3,1,0,70,1,1
72669,-99.2700729923529,3,1,0,70,0,1
73110,-98.0392156862745,3,1,0,70,0,1
73330,-96.1538461538461,3,1,0,70,0,1
73551,-94.3396226415094,3,1,0,70,0,1
73771,-92.5925925925926,3,1,0,70,0,1
73992,434.782608695652,3,1,0,80,1,1
73992,-90.9090909090909,3,1,0,80,0,1
74318,-101.010101010101,3,1,0,80,0,1
79209,451.127819548872,3,1,0,80,1,1
79209,-97.0802919707958,3,1,0,80,0,1
80521,442.80442804428,3,1,0,80,1,1
80521,-98.9051094891594,3,1,0,80,0,1
82307,437.956204379562,3,1,0,80,1,9
83182,437.956204379562,3,1,0,80,1,1
84495,-100,3,1,0,70,0,0
85371,-100,3,1,0,60,0,0
85809,-100,3,1,0,50,0,0
86247,-100,3,1,0,40,0,0
86685,-100,3,1,0,30,0,0
87123,-100,3,1,0,40,0,0

[HitObjects]
252,190,5721,5,4,0:0:0:0:
252,190,5940,1,2,0:0:0:0:
252,190,6159,1,0,0:0:0:0:
252,190,6378,1,0,0:0:0:0:
252,190,6597,1,0,0:0:0:0:
252,190,6707,1,0,0:0:0:0:
252,190,6816,1,2,0:0:0:0:
252,190,7035,1,0,0:0:0:0:
252,190,7254,1,2,0:0:0:0:
252,190,7473,1,0,0:0:0:0:
252,190,7688,1,0,0:0:0:0:
252,190,7904,1,2,0:0:0:0:
252,190,8004,1,2,0:0:0:0:
252,190,8105,1,2,0:0:0:0:
252,190,8341,1,0,0:0:0:0:
252,190,8559,1,2,0:0:0:0:
252,190,8778,1,0,0:0:0:0:
252,190,8997,1,0,0:0:0:0:
252,190,9216,1,2,0:0:0:0:
252,190,9326,1,0,0:0:0:0:
252,190,9435,1,0,0:0:0:0:
252,190,9654,1,2,0:0:0:0:
252,190,10092,1,0,0:0:0:0:
252,190,10311,1,2,0:0:0:0:
252,190,10530,1,0,0:0:0:0:
252,190,10640,1,0,0:0:0:0:
252,190,10749,1,0,0:0:0:0:
252,190,10968,1,6,0:0:0:0:
252,190,11187,1,0,0:0:0:0:
252,190,11406,1,0,0:0:0:0:
252,190,11625,1,2,0:0:0:0:
252,190,11844,1,0,0:0:0:0:
252,190,11954,1,0,0:0:0:0:
252,190,12063,1,2,0:0:0:0:
252,190,12282,1,0,0:0:0:0:
252,190,12501,1,2,0:0:0:0:
252,190,12720,1,0,0:0:0:0:
252,190,12939,1,0,0:0:0:0:
252,190,13158,1,2,0:0:0:0:
252,190,13268,1,0,0:0:0:0:
252,190,13377,1,2,0:0:0:0:
252,190,13596,1,4,0:0:0:0:
252,190,13815,1,2,0:0:0:0:
252,190,14034,1,0,0:0:0:0:
252,190,14253,1,0,0:0:0:0:
252,190,14472,1,2,0:0:0:0:
252,190,14581,1,0,0:0:0:0:
252,190,14691,1,0,0:0:0:0:
252,190,14910,1,2,0:0:0:0:
252,190,15348,1,0,0:0:0:0:
252,190,15567,1,0,0:0:0:0:
252,190,15786,1,2,0:0:0:0:
252,190,15895,1,2,0:0:0:0:
252,190,16005,1,0,0:0:0:0:
252,190,16231,1,6,0:0:0:0:
256,192,16445,12,0,18857,0:0:0:0:
256,190,21485,5,0,0:0:0:0:
256,190,21923,1,0,0:0:0:0:
256,190,22361,1,2,0:0:0:0:
256,190,22799,1,0,0:0:0:0:
256,190,23237,1,0,0:0:0:0:
256,190,23456,1,0,0:0:0:0:
256,190,23675,1,2,0:0:0:0:
256,190,24113,1,0,0:0:0:0:
256,190,24551,1,0,0:0:0:0:
256,190,24770,1,2,0:0:0:0:
256,190,24989,1,0,0:0:0:0:
256,190,25428,1,2,0:0:0:0:
256,190,25869,1,0,0:0:0:0:
256,190,26751,1,0,0:0:0:0:
256,190,27192,1,2,0:0:0:0:
256,190,27413,1,0,0:0:0:0:
256,190,27633,1,2,0:0:0:0:
256,190,28075,1,0,0:0:0:0:
256,190,28516,1,2,0:0:0:0:
256,190,28957,1,0,0:0:0:0:
256,190,29177,1,0,0:0:0:0:
256,190,29398,1,2,0:0:0:0:
256,190,29826,1,2,0:0:0:0:
256,190,30255,1,0,0:0:0:0:
256,190,30683,1,2,0:0:0:0:
255,191,31996,1,2,0:0:0:0:
255,191,32215,1,0,0:0:0:0:
255,191,32434,1,0,0:0:0:0:
255,191,32653,1,2,0:0:0:0:
255,191,32872,1,0,0:0:0:0:
255,191,33091,1,0,0:0:0:0:
255,191,33201,1,0,0:0:0:0:
255,191,33310,1,2,0:0:0:0:
255,191,33529,1,0,0:0:0:0:
255,191,33748,1,0,0:0:0:0:
255,191,33967,1,2,0:0:0:0:
255,191,34405,1,0,0:0:0:0:
255,191,34624,1,2,0:0:0:0:
255,191,34843,1,0,0:0:0:0:
255,191,35062,1,0,0:0:0:0:
255,191,35281,1,2,0:0:0:0:
255,191,35391,1,0,0:0:0:0:
255,191,35500,1,2,0:0:0:0:
255,191,35719,1,0,0:0:0:0:
255,191,35938,1,0,0:0:0:0:
255,191,36376,1,2,0:0:0:0:
255,191,36595,1,0,0:0:0:0:
255,191,36704,1,2,0:0:0:0:
255,191,36814,1,0,0:0:0:0:
255,191,37033,1,0,0:0:0:0:
255,191,37252,1,2,0:0:0:0:
255,191,37471,1,2,0:0:0:0:
255,191,37690,1,0,0:0:0:0:
255,191,37909,1,2,0:0:0:0:
255,191,38128,1,0,0:0:0:0:
255,191,38347,1,0,0:0:0:0:
255,191,38456,1,0,0:0:0:0:
255,191,38566,1,2,0:0:0:0:
255,191,38800,1,2,0:0:0:0:
255,191,39034,1,0,0:0:0:0:
255,191,39269,1,2,0:0:0:0:
255,191,39661,1,0,0:0:0:0:
255,191,39915,1,2,0:0:0:0:
255,191,40131,1,0,0:0:0:0:
255,191,40347,1,2,0:0:0:0:
255,191,40565,1,2,0:0:0:0:
255,191,40675,1,0,0:0:0:0:
255,191,40784,1,0,0:0:0:0:
255,191,41003,1,0,0:0:0:0:
255,191,41222,1,2,0:0:0:0:
255,191,41434,1,2,0:0:0:0:
255,191,41647,1,0,0:0:0:0:
255,191,41865,1,0,0:0:0:0:
255,191,42084,1,2,0:0:0:0:
255,191,42303,1,2,0:0:0:0:
255,191,42413,1,2,0:0:0:0:
255,191,42522,1,4,0:0:0:0:
255,191,42959,1,0,0:0:0:0:
255,191,43178,1,2,0:0:0:0:
255,191,43397,1,0,0:0:0:0:
255,191,43616,1,0,0:0:0:0:
255,191,43726,1,0,0:0:0:0:
255,191,43835,1,2,0:0:0:0:
255,191,44273,1,0,0:0:0:0:
255,191,44492,1,2,0:0:0:0:
255,191,44930,1,2,0:0:0:0:
255,191,45040,1,0,0:0:0:0:
255,191,45149,1,0,0:0:0:0:
255,191,45587,1,2,0:0:0:0:
255,191,45806,1,0,0:0:0:0:
255,191,46025,1,2,0:0:0:0:
255,191,46244,1,0,0:0:0:0:
255,191,46354,1,0,0:0:0:0:
255,191,46463,1,2,0:0:0:0:
255,191,46901,1,2,0:0:0:0:
255,191,47339,1,0,0:0:0:0:
255,191,47558,1,0,0:0:0:0:
255,191,47667,1,0,0:0:0:0:
255,191,47770,1,2,0:0:0:0:
255,191,48207,1,0,0:0:0:0:
255,191,48426,1,2,0:0:0:0:
255,191,48645,1,0,0:0:0:0:
255,191,48864,1,0,0:0:0:0:
255,191,49083,1,2,0:0:0:0:
255,191,49521,1,0,0:0:0:0:
255,191,49740,1,2,0:0:0:0:
255,191,49959,1,0,0:0:0:0:
255,191,50178,1,2,0:0:0:0:
255,191,50288,1,0,0:0:0:0:
255,191,50397,1,2,0:0:0:0:
255,191,50835,1,0,0:0:0:0:
255,191,51054,1,0,0:0:0:0:
255,191,51273,1,2,0:0:0:0:
255,191,51492,1,0,0:0:0:0:
255,191,51602,1,0,0:0:0:0:
255,191,51711,1,2,0:0:0:0:
255,191,52587,1,0,0:0:0:0:
255,191,52806,1,0,0:0:0:0:
255,191,53025,1,6,0:0:0:0:
255,191,53463,1,0,0:0:0:0:
255,191,53682,1,2,0:0:0:0:
255,191,53901,1,0,0:0:0:0:
255,191,54120,1,0,0:0:0:0:
255,191,54229,1,0,0:0:0:0:
255,191,54339,1,2,0:0:0:0:
255,191,54773,1,0,0:0:0:0:
255,191,54991,1,2,0:0:0:0:
255,191,55208,1,0,0:0:0:0:
255,191,55425,1,2,0:0:0:0:
255,191,55534,1,2,0:0:0:0:
255,191,55643,1,0,0:0:0:0:
255,191,55860,1,0,0:0:0:0:
255,191,56078,1,2,0:0:0:0:
255,191,56295,1,2,0:0:0:0:
255,191,56512,1,0,0:0:0:0:
255,191,56621,1,0,0:0:0:0:
255,191,56730,1,2,0:0:0:0:
255,191,56947,1,2,0:0:0:0:
255,191,57165,1,0,0:0:0:0:
255,191,57273,1,0,0:0:0:0:
255,191,57382,1,2,0:0:0:0:
255,191,57491,1,2,0:0:0:0:
255,191,57599,1,0,0:0:0:0:
255,191,57817,1,0,0:0:0:0:
255,191,58034,1,0,0:0:0:0:
255,191,58252,1,6,0:0:0:0:
255,191,58693,1,0,0:0:0:0:
255,191,58913,1,2,0:0:0:0:
255,191,59134,1,0,0:0:0:0:
255,191,59244,1,0,0:0:0:0:
255,191,59354,1,0,0:0:0:0:
255,191,59575,1,2,0:0:0:0:
255,191,60016,1,0,0:0:0:0:
255,191,60237,1,2,0:0:0:0:
255,191,60457,1,0,0:0:0:0:
255,191,60678,1,2,0:0:0:0:
255,191,60788,1,0,0:0:0:0:
255,191,60899,1,2,0:0:0:0:
255,191,61117,1,2,0:0:0:0:
255,191,61336,1,0,0:0:0:0:
255,191,61555,1,2,0:0:0:0:
255,191,61774,1,0,0:0:0:0:
255,191,61993,1,0,0:0:0:0:
255,191,62212,1,2,0:0:0:0:
255,191,62431,1,0,0:0:0:0:
255,191,62541,1,0,0:0:0:0:
255,191,62650,1,2,0:0:0:0:
255,191,62869,1,2,0:0:0:0:
255,191,63088,1,0,0:0:0:0:
255,191,63198,1,0,0:0:0:0:
255,191,63307,1,0,0:0:0:0:
255,191,63526,1,6,0:0:0:0:
255,191,63960,1,0,0:0:0:0:
255,191,64178,1,2,0:0:0:0:
255,191,64286,1,0,0:0:0:0:
255,191,64395,1,2,0:0:0:0:
255,191,64612,1,0,0:0:0:0:
255,191,64830,1,2,0:0:0:0:
255,191,65050,1,2,0:0:0:0:
255,191,65271,1,0,0:0:0:0:
255,191,65712,1,2,0:0:0:0:
255,191,65932,1,0,0:0:0:0:
255,191,66153,1,2,0:0:0:0:
255,191,66374,1,2,0:0:0:0:
255,191,66594,1,0,0:0:0:0:
255,191,66705,1,0,0:0:0:0:
255,191,66815,1,2,0:0:0:0:
255,191,67035,1,0,0:0:0:0:
255,191,67256,1,0,0:0:0:0:
255,191,67477,1,2,0:0:0:0:
255,191,67695,1,0,0:0:0:0:
255,191,67914,1,2,0:0:0:0:
255,191,68024,1,2,0:0:0:0:
255,191,68133,1,2,0:0:0:0:
255,191,68352,1,0,0:0:0:0:
255,191,68571,1,0,0:0:0:0:
255,191,68790,1,6,0:0:0:0:
255,191,69224,1,0,0:0:0:0:
255,191,69442,1,2,0:0:0:0:
255,191,69659,1,0,0:0:0:0:
255,191,69876,1,0,0:0:0:0:
255,191,69985,1,2,0:0:0:0:
255,191,70094,1,2,0:0:0:0:
255,191,70543,1,0,0:0:0:0:
255,191,70761,1,2,0:0:0:0:
255,191,70980,1,0,0:0:0:0:
255,191,71199,1,2,0:0:0:0:
255,191,71419,1,4,0:0:0:0:
253,186,72002,1,2,0:0:0:0:
253,186,72224,1,0,0:0:0:0:
253,186,72669,1,6,0:0:0:0:
253,186,73110,1,0,0:0:0:0:
253,186,73330,1,0,0:0:0:0:
253,186,73551,1,0,0:0:0:0:
253,186,73771,1,0,0:0:0:0:
253,186,73992,1,6,0:0:0:0:
253,186,74426,1,0,0:0:0:0:
253,186,74644,1,2,0:0:0:0:
253,186,74861,1,0,0:0:0:0:
253,186,74970,1,0,0:0:0:0:
253,186,75078,1,0,0:0:0:0:
253,186,75296,1,2,0:0:0:0:
253,186,75731,1,0,0:0:0:0:
253,186,75948,1,2,0:0:0:0:
253,186,76165,1,0,0:0:0:0:
253,186,76274,1,2,0:0:0:0:
253,186,76383,1,0,0:0:0:0:
253,186,76600,1,6,0:0:0:0:
253,186,77035,1,0,0:0:0:0:
253,186,77252,1,2,0:0:0:0:
253,186,77470,1,0,0:0:0:0:
253,186,77687,1,2,0:0:0:0:
253,186,77796,1,2,0:0:0:0:
253,186,77905,1,0,0:0:0:0:
253,186,78013,1,0,0:0:0:0:
253,186,78122,1,2,0:0:0:0:
253,186,78339,1,4,0:0:0:0:
253,186,78557,1,2,0:0:0:0:
253,186,78774,1,0,0:0:0:0:
253,186,78992,1,0,0:0:0:0:
253,186,79209,1,6,0:0:0:0:
253,186,79659,1,0,0:0:0:0:
253,186,79884,1,2,0:0:0:0:
253,186,80110,1,0,0:0:0:0:
253,186,80521,1,2,0:0:0:0:
253,186,80742,1,2,0:0:0:0:
253,186,80963,1,0,0:0:0:0:
253,186,81185,1,2,0:0:0:0:
253,186,81295,1,2,0:0:0:0:
253,186,81406,1,0,0:0:0:0:
253,186,81628,1,2,0:0:0:0:
253,186,81849,1,4,0:0:0:0:
253,186,82307,1,2,0:0:0:0:
253,186,82525,1,4,0:0:0:0:
253,186,82744,1,2,0:0:0:0:
253,186,82963,1,2,0:0:0:0:
253,186,83182,1,4,0:0:0:0:
253,186,83510,1,0,0:0:0:0:
253,186,83619,1,2,0:0:0:0:
253,186,83838,1,0,0:0:0:0:
253,186,83948,1,0,0:0:0:0:
253,186,84057,1,0,0:0:0:0:
253,186,84276,1,0,0:0:0:0:
253,186,84495,1,6,0:0:0:0:
256,192,84714,12,0,87123,0:0:0:0:
