osu file format v14

[General]
AudioFilename: audio.mp3
AudioLeadIn: 0
PreviewTime: 52715
Countdown: 0
SampleSet: Soft
StackLeniency: 0.6
Mode: 0
LetterboxInBreaks: 0
WidescreenStoryboard: 1

[Editor]
DistanceSpacing: 1.1
BeatDivisor: 4
GridSize: 32
TimelineZoom: 2

[Metadata]
Title:Tabibito no Uta (TV Size)
TitleUnicode:旅人の唄 (TV Size)
Artist:Ohara Yuiko
ArtistUnicode:大原ゆい子
Creator:Ralkinson
Version:Normal
Source:無職転生 ~異世界行ったら本気だす~
Tags:Mushoku Tensei ~Isekai Ittara Honki Dasu~ Jobless Reincarnation: I Will Seriously Try If I Go To Another World 無職転生 ~異世界行ったら本気だす~ opening MANYO japanese folk pop Roxy Migurdia ロキシー・ミグルディア anime
BeatmapID:3787324
BeatmapSetID:1842903

[Difficulty]
HPDrainRate:4
CircleSize:3
OverallDifficulty:4
ApproachRate:5
SliderMultiplier:1.24
SliderTickRate:1

[Events]
//Background and Video events
0,0,"least delicious chilean foodjpg.jpg",0,0
//Break Periods
//Storyboard Layer 0 (Background)
//Storyboard Layer 1 (Fail)
//Storyboard Layer 2 (Pass)
//Storyboard Layer 3 (Foreground)
//Storyboard Layer 4 (Overlay)
//Storyboard Sound Samples

[TimingPoints]
265,437.956204379562,3,2,1,100,1,0
4644,-117.647058823529,3,2,1,45,0,0
5520,-105.263157894737,3,2,1,65,0,0
21286,-117.64705882353,3,2,1,50,0,0
31797,-117.64705882353,3,2,1,55,0,0
42308,-111.111111111111,3,2,1,60,0,0
52819,-100,3,2,1,70,0,0

[Colours]
Combo1 : 139,255,119
Combo2 : 128,191,255
Combo3 : 143,231,156
Combo4 : 142,248,253

[HitObjects]
451,313,4644,6,0,P|411:280|347:284,1,105.400002010345,2|2,0:2|0:2,0:2:0:0:
253,243,5520,6,0,P|195:268|116:276,1,117.799996854401,6|0,1:2|1:2,0:2:0:0:
137,292,6177,2,0,L|62:277,1,58.8999984272003,10|0,0:2|1:2,0:0:0:0:
104,165,6834,2,0,P|125:101|137:41,1,117.799996854401,2|0,1:2|1:2,0:2:0:0:
261,14,7710,2,0,L|275:89,1,58.8999984272003,0|10,1:2|0:2,0:2:0:0:
283,79,8148,6,0,P|262:143|250:203,1,117.799996854401,2|0,1:2|1:2,0:2:0:0:
261,211,8805,1,10,0:2:0:0:
307,312,9243,1,0,0:2:0:0:
317,328,9462,2,0,B|368:306|443:297,1,117.799996854401,2|0,1:2|1:2,0:2:0:0:
381,197,10337,1,10,0:2:0:0:
471,109,10775,6,0,P|413:97|358:76,1,117.799996854401,6|0,1:2|1:2,0:2:0:0:
344,62,11432,2,0,L|270:75,1,58.8999984272003,10|0,0:2|1:2,0:0:0:0:
174,1,12089,2,0,P|162:58|141:113,1,117.799996854401,2|0,1:2|1:2,0:2:0:0:
51,179,12965,2,0,P|40:226|33:247,1,58.8999984272003,0|10,1:2|0:2,0:0:0:0:
33,262,13403,6,0,P|87:240|145:229,1,117.799996854401,2|0,1:2|1:2,0:2:0:0:
248,322,14279,1,0,1:2:0:0:
377,287,14717,2,0,P|389:223|410:149,1,117.799996854401,2|2,1:2|1:2,0:2:0:0:
426,154,15374,2,0,P|414:90|393:16,1,117.799996854401,10|0,0:2|1:2,0:0:0:0:
383,15,16031,1,4,0:2:0:0:
256,192,16250,12,0,18659,0:2:0:0:
52,91,21286,6,0,P|122:27|238:66,1,210.800004020691,6|2,0:2|0:2,0:2:0:0:
289,141,22600,2,0,P|268:219|256:362,1,210.800004020691,2|2,0:2|0:2,0:2:0:0:
400,371,23914,2,0,P|388:319|385:267,2,105.400002010345,2|0|0,0:2|0:2|3:2,0:2:0:0:
505,293,25228,2,0,P|498:207|462:70,1,210.800004020691,2|0,0:2|3:2,0:2:0:0:
365,51,26542,6,0,P|328:94|272:91,1,105.400002010345,2|2,0:2|0:2,0:2:0:0:
180,43,27418,1,2,0:2:0:0:
89,101,27856,2,0,P|115:188|126:327,1,210.800004020691,2|2,3:2|0:2,0:2:0:0:
234,346,29170,2,0,P|317:365|404:267,1,210.800004020691,2|0,0:2|0:2,0:2:0:0:
316,232,30483,2,0,P|290:145|279:6,1,210.800004020691,2|0,0:2|0:2,0:2:0:0:
166,60,31797,6,0,P|156:115|135:169,1,105.400002010345,2|0,0:2|0:2,0:2:0:0:
128,185,32454,2,0,P|170:239|266:214,1,158.100003015518,2|2,0:2|0:2,0:0:0:0:
325,150,33549,1,2,0:2:0:0:
333,131,33768,2,0,P|389:113|451:109,1,105.400002010345,2|2,0:0|0:0,0:0:0:0:
461,109,34425,6,0,P|447:170|427:329,1,210.800004020691,2|2,0:2|0:2,0:2:0:0:
340,369,35739,1,2,0:2:0:0:
257,295,36177,2,0,P|198:299|157:351,1,105.400002010345,2|2,0:2|0:2,0:2:0:0:
68,261,37053,6,0,P|61:205|39:140,1,105.400002010345,2|0,0:2|0:2,0:2:0:0:
59,130,37710,2,0,P|98:83|194:90,1,158.100003015518,2|2,0:2|0:2,0:0:0:0:
248,173,38805,1,0,0:2:0:0:
261,188,39024,2,0,P|330:199|381:221,1,105.400002010345,2|2,0:2|0:2,0:2:0:0:
405,198,39681,6,0,P|466:116|445:16,1,210.800004020691,2|2,0:2|0:2,0:2:0:0:
314,36,40994,2,0,P|300:100|298:161,2,105.400002010345,2|2|2,0:2|0:2|0:2,0:2:0:0:
180,68,42308,6,2,P|173:151|145:230,1,167.399994891358,6|2,1:2|0:2,0:2:0:0:
213,333,43403,1,2,0:2:0:0:
213,333,43622,2,0,P|273:350|366:278,1,167.399994891358,10|2,0:2|0:1,0:2:0:0:
492,338,44717,1,0,0:2:0:0:
492,338,44936,6,0,P|462:268|442:162,1,167.399994891358,2|2,1:2|0:2,0:2:0:0:
432,165,45812,1,2,0:2:0:0:
462,48,46250,2,0,P|394:43|361:75,1,111.599996594238,10|2,0:2|0:2,0:2:0:0:
328,168,47126,1,0,1:2:0:0:
245,102,47564,6,0,P|214:115|119:123,1,111.599996594238,2|2,1:2|0:2,0:2:0:0:
66,226,48440,2,0,L|137:241,1,55.7999982971192,2|0,0:2|1:2,0:2:0:0:
126,257,48878,2,0,P|178:238|233:234,1,111.599996594238,10|2,0:2|0:2,0:2:0:0:
339,261,49754,2,0,L|350:323,1,55.7999982971192,2|8,0:2|0:2,0:2:0:0:
379,333,50192,6,0,P|435:323|473:261,1,111.599996594238,2|0,1:2|0:2,0:2:0:0:
421,154,51067,2,0,L|430:93,1,55.7999982971192,0|8,0:2|0:2,0:0:0:0:
441,73,51505,2,0,P|332:53|256:128,1,223.199993188477,2|8,1:2|0:2,0:2:0:0:
145,82,52819,5,6,1:2:0:0:
98,195,53257,1,2,1:2:0:0:
98,195,53476,2,0,L|111:271,1,62,8|0,0:0|1:0,0:0:0:0:
148,276,53914,1,2,0:2:0:0:
148,276,54133,2,0,P|196:240|282:239,1,124,2|2,1:2|1:2,0:2:0:0:
268,215,54790,2,0,P|328:221|378:258,1,124,10|2,0:2|0:2,0:2:0:0:
394,272,55447,5,2,1:2:0:0:
471,165,55885,1,2,1:2:0:0:
471,165,56104,1,10,0:2:0:0:
396,64,56542,1,2,0:2:0:0:
396,64,56761,2,0,L|328:49,1,62,2|0,1:2|0:0,0:0:0:0:
303,80,57199,2,0,P|324:138|329:199,1,124,2|0,1:2|1:2,0:0:0:0:
248,301,58075,6,0,P|191:306|106:192,1,186,6|10,1:2|0:2,0:2:0:0:
114,199,58951,1,0,1:0:0:0:
184,91,59389,2,0,P|322:70|425:28,1,248,2|2,1:2|1:2,0:2:0:0:
471,59,60483,1,2,0:0:0:0:
483,116,60702,2,0,P|396:128|295:8,1,248,2|0,1:2|1:2,0:2:0:0:
153,76,62016,1,2,1:2:0:0:
195,213,62454,1,2,1:2:0:0:
337,166,62892,1,10,1:2:0:0:
239,99,63330,6,2,P|177:94|97:64,1,124,6|2,1:2|1:2,0:2:0:0:
82,91,63987,1,8,0:0:0:0:
70,127,64206,1,2,1:2:0:0:
28,231,64644,2,0,P|93:249|118:299,1,124,2|2,1:2|1:2,0:2:0:0:
133,280,65301,2,0,L|144:205,1,62,8|2,0:2|1:2,0:0:0:0:
66,103,65958,5,2,1:2:0:0:
194,31,66396,2,0,P|235:40|263:65,1,62,0|8,1:0|0:0,0:0:0:0:
267,77,66834,1,2,1:2:0:0:
297,214,67272,2,0,P|243:212|179:148,1,124,2|2,1:2|1:2,0:2:0:0:
251,52,68148,2,0,L|319:37,1,62,2|0,1:2|0:2,0:2:0:0:
336,51,68586,6,0,P|396:72|465:75,1,124,4|0,1:2|1:2,0:2:0:0:
483,98,69243,2,0,P|466:171|466:226,1,124,8|0,0:2|0:2,0:2:0:0:
477,236,69900,1,0,1:2:0:0:
363,181,70337,1,2,1:2:0:0:
363,181,70556,1,8,0:2:0:0:
263,252,70994,1,8,0:2:0:0:
263,252,71213,2,0,P|196:151|74:138,1,248,4|4,0:2|0:3,0:2:0:0:
137,254,72527,2,0,P|220:217|376:192,1,248,4|8,0:2|3:3,0:2:0:0:
448,107,73841,6,0,P|461:69|464:40,1,62,4|0,1:2|0:2,0:2:0:0:
451,24,74279,1,2,1:2:0:0:
347,90,74717,1,2,1:2:0:0:
223,54,75155,2,0,P|211:110|175:185,1,124,2|0,1:2|1:2,0:2:0:0:
189,207,75812,2,0,P|247:221|291:181,1,124,8|0,0:2|1:2,0:2:0:0:
310,169,76469,5,4,1:2:0:0:
364,291,76907,1,0,1:2:0:0:
364,291,77126,1,8,0:2:0:0:
246,333,77564,1,0,1:2:0:0:
246,333,77783,2,0,P|173:313|114:308,1,124,2|12,1:2|1:2,0:2:0:0:
106,318,78440,2,0,P|51:304|36:223,1,124,2|0,0:2|1:2,0:2:0:0:
33,225,79097,5,4,1:2:0:0:
138,139,79535,1,2,1:2:0:0:
138,139,79754,2,0,P|217:135|272:108,1,124,12|0,0:2|1:2,0:2:0:0:
281,123,80410,2,0,P|344:135|368:187,1,124,2|0,1:2|1:2,0:2:0:0:
383,204,81067,1,8,0:2:0:0:
282,273,81505,1,8,0:2:0:0:
282,273,81724,6,0,P|233:281|146:314,1,124,6|0,1:2|1:2,0:2:0:0:
123,282,82381,2,0,P|111:221|90:162,1,124,12|0,0:2|0:2,0:2:0:0:
119,109,83038,2,0,P|204:111|217:143,1,124,2|0,1:2|1:2,0:2:0:0:
296,167,83695,2,0,P|368:174|465:103,1,186,10|4,0:2|1:2,0:0:0:0:
256,192,84571,12,2,86870,0:2:0:0:
