osu file format v14

[General]
AudioFilename: audio.mp3
AudioLeadIn: 0
PreviewTime: 52715
Countdown: 0
SampleSet: Soft
StackLeniency: 0.9
Mode: 0
LetterboxInBreaks: 0
WidescreenStoryboard: 1

[Editor]
DistanceSpacing: 0.3
BeatDivisor: 4
GridSize: 32
TimelineZoom: 2

[Metadata]
Title:Tabibito no Uta (TV Size)
TitleUnicode:旅人の唄 (TV Size)
Artist:Ohara Yuiko
ArtistUnicode:大原ゆい子
Creator:Ralkinson
Version:Hard
Source:無職転生 ~異世界行ったら本気だす~
Tags:Mushoku Tensei ~Isekai Ittara Honki Dasu~ Jobless Reincarnation: I Will Seriously Try If I Go To Another World 無職転生 ~異世界行ったら本気だす~ opening MANYO japanese folk pop Roxy Migurdia ロキシー・ミグルディア anime
BeatmapID:3791029
BeatmapSetID:1842903

[Difficulty]
HPDrainRate:5
CircleSize:3
OverallDifficulty:5.5
ApproachRate:7.5
SliderMultiplier:1.54
SliderTickRate:1

[Events]
//Background and Video events
0,0,"least delicious chilean foodjpg.jpg",0,0
//Break Periods
//Storyboard Layer 0 (Background)
//Storyboard Layer 1 (Fail)
//Storyboard Layer 2 (Pass)
//Storyboard Layer 3 (Foreground)
//Storyboard Layer 4 (Overlay)
//Storyboard Sound Samples

[TimingPoints]
265,437.956204379562,3,2,1,100,1,0
4644,-100,3,2,1,45,0,0
5520,-100,3,2,1,65,0,0
21286,-125,3,2,1,50,0,0
31797,-111.111111111111,4,2,1,55,0,0
42089,-105.263157894737,4,2,1,55,0,0
42308,-105.263157894737,4,2,1,60,0,0
52819,-95.2380952380954,4,2,1,70,0,0

[Colours]
Combo1 : 139,255,119
Combo2 : 128,191,255
Combo3 : 143,231,156
Combo4 : 142,248,253

[HitObjects]
386,184,4644,5,2,0:2:0:0:
234,214,5082,1,2,0:2:0:0:
83,244,5520,6,0,P|112:189|131:77,1,154,6|0,1:2|1:2,0:2:0:0:
235,17,6177,2,0,P|249:68|268:102,1,77,10|0,0:2|1:2,0:0:0:0:
223,190,6615,1,0,0:2:0:0:
279,95,6834,6,0,P|337:80|416:148,1,154,2|0,1:2|1:2,0:2:0:0:
326,204,7491,1,2,0:2:0:0:
435,240,7710,2,0,L|514:214,1,77,0|10,1:2|0:2,0:2:0:0:
289,301,8148,6,0,L|121:249,1,154,2|0,1:2|1:2,0:2:0:0:
42,300,8805,2,0,P|4:266|24:153,1,154,10|0,0:2|0:2,0:0:0:0:
121,80,9462,2,0,L|105:171,1,77,2|0,1:2|0:0,0:2:0:0:
180,228,9900,1,0,1:2:0:0:
285,200,10119,1,10,0:2:0:0:
210,132,10337,1,10,0:2:0:0:
177,240,10556,1,8,0:2:0:0:
286,182,10775,6,0,P|215:153|115:127,1,154,6|0,1:2|1:2,0:2:0:0:
62,69,11432,1,10,0:2:0:0:
37,174,11651,2,0,P|51:231|51:279,1,77,0|0,1:2|0:2,0:2:0:0:
133,336,12089,6,0,P|196:346|271:273,1,154,2|0,1:2|1:2,0:2:0:0:
274,303,12965,1,0,1:2:0:0:
177,234,13184,1,10,0:2:0:0:
289,176,13403,2,0,P|367:223|424:278,1,154,2|0,1:2|1:2,0:2:0:0:
495,337,14060,2,0,P|512:287|511:251,1,77,10|0,0:2|1:2,0:2:0:0:
457,166,14498,1,2,0:2:0:0:
477,12,14717,6,0,P|416:66|331:55,1,154,2|2,1:2|1:2,0:2:0:0:
253,0,15374,1,10,0:2:0:0:
341,87,15593,2,0,L|266:112,1,77,2|0,1:2|1:2,0:0:0:0:
160,68,16031,1,4,0:2:0:0:
256,192,16250,12,0,18659,0:2:0:0:
0,327,21286,6,0,P|53:269|160:295,1,184.8,6|0,0:2|0:2,0:2:0:0:
236,229,22162,2,0,L|254:296,1,61.6,2|0,0:2|0:2,0:2:0:0:
347,232,22600,2,0,P|357:157|397:51,1,184.8,2|0,0:2|0:0,0:2:0:0:
503,67,23476,2,0,L|485:-20,1,61.6,2|0,0:2|0:2,0:2:0:0:
417,150,23914,6,0,P|357:147|300:83,2,123.2,2|0|0,0:2|0:2|0:2,0:2:0:0:
213,62,25228,1,2,0:2:0:0:
210,79,25666,1,0,0:0:0:0:
207,96,26104,1,0,0:2:0:0:
233,200,26542,6,0,P|175:240|113:224,1,123.2,2|2,0:2|0:2,0:2:0:0:
55,45,27418,2,0,L|119:27,1,61.6,2|0,0:2|0:2,0:0:0:0:
113,135,27856,2,0,P|88:197|71:336,1,184.8,2|0,0:2|0:2,0:2:0:0:
183,271,28732,2,0,L|198:344,1,61.6,2|0,0:2|0:2,0:2:0:0:
300,342,29170,6,0,P|374:365|501:254,1,246.4,2|0,0:2|0:2,0:2:0:0:
438,178,30264,1,0,0:2:0:0:
372,254,30483,2,0,P|400:180|424:12,1,246.4,2|0,0:2|0:2,0:2:0:0:
424,15,31797,6,0,P|386:22|357:46,1,69.2999978851319,2|0,0:2|0:0,0:2:0:0:
268,11,32235,1,2,0:2:0:0:
212,95,32454,2,0,P|152:101|85:38,1,138.599995770264,2|0,0:2|0:2,0:0:0:0:
9,135,33111,2,0,P|23:175|28:216,1,69.2999978851319,2|0,0:2|0:0,0:2:0:0:
126,196,33549,1,2,0:2:0:0:
194,280,33768,2,0,P|268:249|351:247,1,138.599995770264,2|2,0:0|0:0,0:0:0:0:
423,157,34425,6,0,P|442:116|453:73,1,69.2999978851319,2|0,0:2|0:0,0:2:0:0:
367,13,34863,1,2,0:2:0:0:
317,116,35082,2,0,P|283:99|246:92,2,69.2999978851319,2|2|0,0:2|0:2|0:2,0:0:0:0:
405,190,35739,2,0,P|435:272|438:340,2,138.599995770264,2|2|2,0:2|0:2|0:2,0:0:0:0:
251,230,37053,6,0,P|209:243|175:258,1,69.2999978851319,2|0,0:2|0:0,0:2:0:0:
140,161,37491,1,2,0:2:0:0:
40,201,37710,2,0,P|9:171|6:67,1,138.599995770264,2|0,0:2|0:2,0:0:0:0:
101,77,38367,2,0,P|116:28|121:-9,1,69.2999978851319,2|0,0:2|0:0,0:2:0:0:
211,81,38805,1,2,0:2:0:0:
306,23,39024,2,0,P|368:25|427:98,1,138.599995770264,2|2,0:2|0:2,0:2:0:0:
315,130,39681,6,0,P|292:174|272:195,1,69.2999978851319,2|0,0:2|0:0,0:2:0:0:
415,182,40119,1,0,0:2:0:0:
365,276,40337,2,0,P|320:290|274:293,2,69.2999978851319,2|2|0,0:2|0:2|0:2,0:2:0:0:
432,170,40994,6,0,P|442:112|464:30,2,138.599995770264,2|2|2,0:2|0:2|0:2,0:2:0:0:
328,129,42089,1,8,0:2:0:0:
328,129,42199,1,8,0:2:0:0:
328,129,42308,2,2,P|263:179|195:157,1,146.299996093369,6|0,1:2|0:2,0:2:0:0:
94,125,42965,2,0,L|18:144,1,73.1499980466843,2|0,0:2|0:2,0:2:0:0:
180,73,43403,1,2,0:2:0:0:
123,225,43622,2,0,P|104:282|89:382,1,146.299996093369,10|0,0:2|0:2,0:2:0:0:
212,326,44279,2,0,P|247:318|288:295,1,73.1499980466843,2|0,0:1|0:2,0:2:0:0:
231,202,44717,1,0,0:2:0:0:
231,202,44827,1,0,0:2:0:0:
231,202,44936,6,0,P|290:155|371:172,1,146.299996093369,2|2,1:2|0:2,0:2:0:0:
313,274,45593,1,2,0:2:0:0:
416,350,45812,2,0,L|430:256,1,73.1499980466843,2|0,0:2|0:2,0:2:0:0:
480,180,46250,2,0,P|461:132|448:35,2,146.299996093369,10|2|0,0:2|0:2|1:2,0:2:0:0:
390,241,47345,1,8,3:3:0:0:
390,241,47454,1,8,3:3:0:0:
390,241,47564,6,0,P|346:273|318:279,1,73.1499980466843,2|0,1:2|0:2,0:2:0:0:
241,331,48002,2,0,P|224:277|203:240,1,73.1499980466843,2|0,0:2|0:2,0:2:0:0:
62,312,48440,2,0,P|98:318|134:328,1,73.1499980466843,2|0,0:2|1:2,0:2:0:0:
197,231,48878,2,0,P|159:199|161:93,1,146.299996093369,10|2,0:2|0:2,0:2:0:0:
258,55,49535,2,0,P|352:76|423:80,1,146.299996093369,2|8,0:2|0:2,0:0:0:0:
247,157,50192,5,2,1:2:0:0:
272,166,50629,1,2,0:2:0:0:
297,175,51067,1,2,0:2:0:0:
411,153,51286,1,8,0:2:0:0:
439,265,51505,2,0,P|355:290|226:373,1,219.449994140053,2|2,1:2|0:2,0:2:0:0:
190,264,52381,1,8,0:2:0:0:
242,178,52600,1,8,0:2:0:0:
195,81,52819,6,0,P|128:68|45:144,1,161.699995065308,6|2,1:2|1:2,0:2:0:0:
81,227,53476,2,0,L|64:313,1,80.8499975326539,10|0,0:2|1:2,0:2:0:0:
190,264,53914,1,2,0:2:0:0:
273,338,54133,2,0,P|335:289|413:300,1,161.699995065308,2|2,1:2|1:2,0:2:0:0:
493,223,54790,2,0,P|508:171|516:126,1,80.8499975326539,10|0,0:2|1:2,0:2:0:0:
402,171,55228,1,2,0:2:0:0:
503,106,55447,6,0,P|439:58|360:66,1,161.699995065308,2|2,1:2|1:2,0:2:0:0:
246,92,56104,2,0,L|260:-7,1,80.8499975326539,10|0,0:2|1:2,0:2:0:0:
258,198,56542,1,2,0:2:0:0:
155,139,56761,2,0,L|133:48,1,80.8499975326539,2|0,1:2|0:2,0:2:0:0:
43,162,57199,2,0,P|128:173|160:255,1,161.699995065308,2|2,1:2|1:2,0:0:0:0:
108,319,57856,1,2,0:2:0:0:
180,228,58075,6,0,P|258:254|366:262,1,161.699995065308,6|2,1:2|1:2,0:2:0:0:
394,357,58732,1,10,0:2:0:0:
394,357,58951,2,0,P|453:335|476:316,1,80.8499975326539,0|0,1:2|0:2,0:2:0:0:
289,337,59389,6,0,P|312:241|317:140,1,161.699995065308,2|2,1:2|1:2,0:2:0:0:
255,70,60046,1,10,0:2:0:0:
255,70,60264,2,0,P|226:25|215:-15,1,80.8499975326539,2|2,1:2|0:2,0:2:0:0:
221,156,60702,6,0,P|267:98|368:103,1,161.699995065308,2|2,1:2|1:2,0:2:0:0:
445,40,61359,2,0,P|457:89|473:130,1,80.8499975326539,10|0,0:2|1:2,0:0:0:0:
393,190,61797,1,2,0:2:0:0:
479,300,62016,6,0,P|486:255|501:212,1,80.8499975326539,2|0,1:2|0:2,0:2:0:0:
332,327,62454,2,0,P|326:287|314:248,1,80.8499975326539,2|10,1:2|0:2,0:2:0:0:
164,283,62892,2,0,P|171:238|186:195,1,80.8499975326539,10|2,1:2|1:2,0:2:0:0:
83,145,63330,6,0,P|166:92|243:116,1,161.699995065308,6|2,1:2|1:2,0:2:0:0:
316,40,63987,2,0,P|328:91|332:132,1,80.8499975326539,8|2,0:2|1:2,0:0:0:0:
265,196,64425,1,2,0:2:0:0:
326,280,64644,6,0,P|253:244|175:221,1,161.699995065308,2|2,1:2|1:2,0:2:0:0:
210,100,65301,2,0,P|194:58|184:16,1,80.8499975326539,8|2,0:2|1:2,0:0:0:0:
95,127,65739,1,2,0:2:0:0:
185,211,65958,6,0,P|238:202|289:188,1,80.8499975326539,2|0,1:2|0:2,0:2:0:0:
408,104,66396,2,0,P|416:64|428:18,1,80.8499975326539,2|8,1:2|0:2,0:2:0:0:
278,24,66834,2,0,P|288:63|295:102,1,80.8499975326539,2|0,1:2|0:2,0:2:0:0:
500,150,67272,2,0,P|423:140|366:194,1,161.699995065308,2|2,1:2|1:2,0:2:0:0:
454,260,67929,1,8,0:2:0:0:
358,308,68148,2,0,L|279:279,1,80.8499975326539,2|0,1:2|0:2,0:2:0:0:
209,349,68586,6,0,P|236:259|243:172,1,161.699995065308,4|0,1:2|1:2,0:2:0:0:
329,122,69243,2,0,P|346:166|368:197,1,80.8499975326539,8|0,0:2|1:2,0:2:0:0:
344,292,69681,1,2,0:2:0:0:
466,276,69900,6,0,P|475:195|499:118,1,161.699995065308,0|2,1:2|1:2,0:2:0:0:
414,27,70556,1,8,0:2:0:0:
369,131,70775,2,0,P|324:116|285:111,1,80.8499975326539,2|8,1:2|0:2,0:2:0:0:
236,28,71213,6,0,P|253:152|319:352,1,323.399990130616,4|4,0:2|0:3,0:2:0:0:
403,270,72308,5,0,0:2:0:0:
403,270,72418,1,0,0:0:0:0:
403,270,72527,2,0,P|250:217|137:202,1,242.549992597962,4|8,0:2|3:3,0:2:0:0:
89,130,73403,2,0,P|64:180|55:223,1,80.8499975326539,4|4,3:3|3:3,0:0:0:0:
189,92,73841,5,4,1:2:0:0:
189,92,74279,2,0,P|256:74|282:62,1,80.8499975326539,0|12,1:2|0:2,0:2:0:0:
378,25,74717,2,0,P|420:49|445:82,1,80.8499975326539,0|0,1:2|0:2,0:2:0:0:
351,143,75155,2,0,P|366:221|309:286,1,161.699995065308,2|0,1:2|1:2,0:2:0:0:
212,261,75812,2,0,P|125:276|32:317,1,161.699995065308,10|0,0:2|1:2,0:2:0:0:
39,191,76469,6,0,P|59:143|64:106,1,80.8499975326539,6|0,1:2|0:2,0:2:0:0:
165,163,76907,1,0,1:2:0:0:
245,82,77126,2,0,P|305:122|401:106,1,161.699995065308,8|0,0:2|1:2,0:2:0:0:
482,44,77783,2,0,P|496:103|502:152,1,80.8499975326539,2|0,1:2|3:2,0:2:0:0:
437,206,78221,1,12,1:2:0:0:
493,287,78440,2,0,P|433:247|337:263,1,161.699995065308,2|0,0:2|1:2,0:2:0:0:
267,338,79097,5,4,1:2:0:0:
48,196,79535,1,0,1:2:0:0:
135,117,79754,2,0,P|152:173|154:211,1,80.8499975326539,12|0,0:2|1:2,0:2:0:0:
250,237,80192,1,0,1:2:0:0:
354,191,80410,2,0,P|327:114|315:34,1,161.699995065308,2|0,1:2|1:2,0:2:0:0:
214,128,81067,2,0,P|161:119|125:116,1,80.8499975326539,8|0,0:2|1:2,0:2:0:0:
207,21,81505,1,8,0:2:0:0:
111,119,81724,6,0,P|93:190|143:266,1,161.699995065308,4|0,1:2|1:2,0:2:0:0:
124,376,82381,2,0,P|167:362|218:352,1,80.8499975326539,12|0,0:2|1:2,0:2:0:0:
279,284,82819,1,2,0:2:0:0:
384,328,83038,2,0,P|432:254|406:163,1,161.699995065308,2|0,1:2|1:2,0:2:0:0:
285,75,83695,2,0,P|183:108|93:118,1,161.699995065308,10|8,0:2|0:2,0:0:0:0:
241,187,84352,1,4,1:2:0:0:
256,192,84571,12,2,86870,0:2:0:0:
