osu file format v14

[General]
AudioFilename: audio.mp3
AudioLeadIn: 0
PreviewTime: 52715
Countdown: 0
SampleSet: Soft
StackLeniency: 0.9
Mode: 0
LetterboxInBreaks: 0
WidescreenStoryboard: 1

[Editor]
DistanceSpacing: 0.3
BeatDivisor: 4
GridSize: 32
TimelineZoom: 2

[Metadata]
Title:Tabibito no Uta (TV Size)
TitleUnicode:旅人の唄 (TV Size)
Artist:Ohara Yuiko
ArtistUnicode:大原ゆい子
Creator:Ralkinson
Version:Burger
Source:無職転生 ~異世界行ったら本気だす~
Tags:Mushoku Tensei ~Isekai Ittara Honki Dasu~ Jobless Reincarnation: I Will Seriously Try If I Go To Another World 無職転生 ~異世界行ったら本気だす~ opening MANYO japanese folk pop Roxy Migurdia ロキシー・ミグルディア anime
BeatmapID:3785285
BeatmapSetID:1842903

[Difficulty]
HPDrainRate:6
CircleSize:4.4
OverallDifficulty:7.5
ApproachRate:8.4
SliderMultiplier:1.74
SliderTickRate:1

[Events]
//Background and Video events
0,0,"least delicious chilean foodjpg.jpg",0,0
//Break Periods
2,18858,20596
//Storyboard Layer 0 (Background)
//Storyboard Layer 1 (Fail)
//Storyboard Layer 2 (Pass)
//Storyboard Layer 3 (Foreground)
//Storyboard Layer 4 (Overlay)
//Storyboard Sound Samples

[TimingPoints]
265,437.956204379562,3,2,1,100,1,0
4644,-142.857142857143,3,2,1,45,0,0
5520,-111.111111111111,3,2,1,65,0,0
16031,-333.333333333332,3,2,1,65,0,0
21286,-142.857142857143,3,2,1,50,0,0
26542,-133.333333333333,3,2,1,50,0,0
31797,-125,3,2,1,55,0,0
42308,-117.647058823529,3,2,1,60,0,0
52819,-100,3,2,1,70,0,0

[Colours]
Combo1 : 139,255,119
Combo2 : 128,191,255
Combo3 : 143,231,156
Combo4 : 142,248,253

[HitObjects]
441,360,4644,6,0,P|471:331|493:316,1,60.8999981414796,2|0,0:2|0:2,0:2:0:0:
320,281,5082,2,0,P|333:316|340:345,1,60.8999981414796,2|0,0:2|0:2,0:2:0:0:
407,248,5520,6,0,P|331:255|273:206,1,156.599995220947,6|0,1:2|1:2,0:2:0:0:
327,39,6177,1,10,0:2:0:0:
350,126,6396,2,0,P|300:117|266:107,1,78.2999976104737,0|0,1:2|0:2,0:2:0:0:
127,47,6834,6,0,P|49:35|-9:81,1,156.599995220947,2|0,1:2|1:2,0:2:0:0:
4,237,7491,2,0,P|23:203|31:164,1,78.2999976104737,2|2,0:2|1:2,0:2:0:0:
110,243,7929,1,10,0:2:0:0:
268,188,8148,6,0,P|192:171|120:134,1,156.599995220947,2|0,1:2|1:2,0:2:0:0:
314,39,8805,1,10,0:2:0:0:
206,17,9024,2,0,P|222:79|233:103,1,78.2999976104737,0|0,1:2|0:2,0:2:0:0:
308,270,9462,6,0,P|355:204|341:130,1,156.599995220947,2|0,1:2|1:2,0:2:0:0:
466,179,10119,5,10,0:2:0:0:
399,43,10337,1,10,0:2:0:0:
267,102,10556,1,8,0:2:0:0:
364,164,10775,6,0,P|276:185|208:228,1,156.599995220947,6|0,1:2|1:2,0:2:0:0:
89,79,11432,1,10,0:2:0:0:
187,49,11651,2,0,P|180:110|162:142,1,78.2999976104737,0|0,1:2|0:2,0:2:0:0:
279,285,12089,6,0,P|218:249|122:225,1,156.599995220947,2|0,1:2|1:2,0:2:0:0:
55,172,12746,2,0,P|36:223|34:266,1,78.2999976104737,2|0,0:2|1:2,0:2:0:0:
191,138,13184,1,10,0:2:0:0:
285,274,13403,6,0,P|347:284|427:207,1,156.599995220947,2|0,1:2|1:2,0:2:0:0:
493,132,14060,2,0,P|427:112|405:100,1,78.2999976104737,10|0,0:2|1:2,0:2:0:0:
499,32,14498,1,2,0:2:0:0:
288,62,14717,6,0,P|313:130|323:209,1,117.449996415711,2|0,1:2|0:2,0:2:0:0:
317,196,15155,1,2,1:2:0:0:
272,292,15374,1,10,0:2:0:0:
173,246,15593,1,2,1:2:0:0:
218,150,15812,1,0,1:2:0:0:
282,307,16031,6,0,P|287:197|132:64,1,313.199990441895,4|0,0:2|0:2,0:2:0:0:
247,345,21286,6,0,P|302:320|361:305,1,121.799996282959,6|0,0:2|0:2,0:2:0:0:
440,255,21943,1,0,3:2:0:0:
440,255,22053,1,0,3:2:0:0:
440,255,22162,2,0,P|448:223|454:184,1,60.8999981414796,2|0,3:2|0:2,0:2:0:0:
348,203,22600,6,0,P|315:161|325:91,1,121.799996282959,2|0,0:2|0:2,0:2:0:0:
321,96,23476,2,0,P|371:107|390:109,1,60.8999981414796,2|0,0:2|0:2,0:2:0:0:
229,161,23914,6,0,P|127:181|84:197,1,121.799996282959,2|0,0:2|0:2,0:2:0:0:
6,127,24571,1,0,3:2:0:0:
6,127,24681,1,0,3:2:0:0:
6,127,24790,2,0,P|1:96|0:66,1,60.8999981414796,0|0,3:2|0:2,0:2:0:0:
109,100,25228,6,0,P|86:192|73:290,1,182.699994424439,2|0,0:2|0:2,0:2:0:0:
165,249,26104,1,0,3:2:0:0:
227,322,26323,1,0,3:2:0:0:
227,322,26432,1,0,3:2:0:0:
227,322,26542,6,0,P|286:335|315:348,1,65.2500024890901,2|0,3:2|0:2,0:2:0:0:
407,238,26980,2,0,P|393:269|386:299,1,65.2500024890901,2|0,0:2|0:2,0:2:0:0:
319,189,27418,1,2,0:2:0:0:
408,150,27637,1,0,3:2:0:0:
408,150,27746,1,0,3:2:0:0:
408,150,27856,6,0,P|324:154|253:52,1,195.75000746727,2|0,3:2|0:2,0:2:0:0:
172,16,28732,2,0,P|163:61|152:102,1,65.2500024890901,2|0,0:2|0:2,0:2:0:0:
49,36,29170,2,0,P|64:83|82:184,1,130.50000497818,2|0,0:2|0:2,0:2:0:0:
176,185,29827,1,0,0:2:0:0:
108,251,30046,2,0,P|98:282|92:314,1,65.2500024890901,0|0,0:2|0:2,0:2:0:0:
262,218,30483,6,0,P|330:263|392:247,1,130.50000497818,2|0,0:2|0:2,0:2:0:0:
484,278,31140,1,0,3:2:0:0:
484,278,31250,1,0,3:2:0:0:
484,278,31359,2,0,P|472:225|468:198,1,65.2500024890901,0|0,3:2|3:2,3:2:0:0:
411,116,31797,6,0,P|344:73|286:93,1,139.2,2|0,0:2|0:2,0:2:0:0:
206,59,32454,1,2,0:2:0:0:
123,116,32673,2,0,P|115:69|106:33,1,69.6,2|0,0:2|0:2,0:2:0:0:
47,161,33111,2,0,P|113:150|171:192,1,139.2,2|2,0:2|0:2,0:2:0:0:
271,171,33768,2,0,P|248:236|243:305,1,139.2,2|2,0:0|0:0,0:0:0:0:
286,159,34425,6,0,P|363:163|420:100,1,139.2,2|0,0:2|0:2,0:2:0:0:
385,25,35082,1,2,0:2:0:0:
299,76,35301,2,0,P|287:47|281:4,1,69.6,2|0,0:2|0:2,0:2:0:0:
195,189,35739,1,2,0:2:0:0:
195,189,36177,6,0,P|210:150|216:114,1,69.6,2|0,0:2|0:2,0:2:0:0:
132,94,36505,1,2,0:2:0:0:
132,94,36615,2,0,P|117:133|111:169,1,69.6,2|0,0:2|0:2,0:2:0:0:
143,255,37053,6,0,P|207:229|300:222,1,139.2,2|0,0:2|0:2,0:2:0:0:
334,296,37710,1,2,0:2:0:0:
417,257,37929,2,0,P|402:213|394:179,1,69.6,2|0,0:2|0:2,0:2:0:0:
276,220,38367,6,0,P|297:160|318:56,1,139.2,2|0,0:2|0:2,0:2:0:0:
474,74,39024,2,0,P|424:89|399:104,1,69.6,2|0,0:2|0:2,0:2:0:0:
370,16,39462,1,2,0:2:0:0:
258,143,39681,6,0,P|200:153|122:83,1,139.2,2|0,0:2|0:2,0:2:0:0:
34,112,40337,2,0,P|49:64|66:34,1,69.6,2|2,0:2|0:2,0:2:0:0:
152,21,40775,1,0,0:2:0:0:
238,67,40994,6,0,P|291:55|331:39,1,69.6,2|0,0:2|0:2,0:2:0:0:
194,167,41432,2,0,P|167:141|140:123,1,69.6,2|0,0:2|0:2,0:2:0:0:
401,18,41870,2,0,P|397:75|385:111,1,69.6,2|8,0:2|0:2,0:2:0:0:
436,196,42199,1,8,0:2:0:0:
436,196,42308,6,0,P|377:174|278:160,1,147.900002820969,6|0,1:2|0:2,0:2:0:0:
203,94,42965,2,0,P|199:145|189:179,1,73.9500014104843,2|0,0:2|0:2,0:2:0:0:
298,62,43403,1,2,0:2:0:0:
228,254,43622,6,0,P|170:203|89:171,1,147.900002820969,10|0,0:2|0:2,0:2:0:0:
217,21,44279,2,0,P|204:74|203:111,1,73.9500014104843,2|0,0:1|0:2,0:2:0:0:
45,116,44717,1,0,0:2:0:0:
45,116,44827,1,0,0:2:0:0:
45,116,44936,2,0,P|68:194|75:279,1,147.900002820969,2|2,1:2|0:2,0:2:0:0:
261,312,45593,1,2,0:2:0:0:
165,337,45812,2,0,P|169:293|181:251,1,73.9500014104843,2|0,0:2|0:2,0:2:0:0:
352,287,46250,6,0,P|424:247|485:264,2,147.900002820969,10|2|0,0:2|0:2|1:2,0:2:0:0:
266,214,47345,1,8,3:3:0:0:
266,214,47454,1,8,3:3:0:0:
266,214,47564,6,0,P|278:163|283:122,1,73.9500014104843,2|0,1:2|0:2,0:2:0:0:
432,56,48002,2,0,P|389:71|344:80,1,73.9500014104843,2|0,0:2|0:2,0:2:0:0:
175,40,48440,2,0,P|192:87|198:134,1,73.9500014104843,2|0,0:2|1:2,0:2:0:0:
407,146,48878,2,0,P|354:129|270:68,1,147.900002820969,10|2,0:2|0:2,0:2:0:0:
171,194,49535,1,2,0:2:0:0:
247,253,49754,2,0,P|260:205|260:162,1,73.9500014104843,2|8,0:2|0:2,0:2:0:0:
155,304,50192,6,0,P|91:281|-3:277,2,147.900002820969,2|0|0,1:2|0:2|0:2,0:2:0:0:
118,198,51286,1,8,0:2:0:0:
239,384,51505,2,0,P|242:347|254:312,1,73.9500014104843,2|0,1:2|0:2,0:2:0:0:
390,237,51943,2,0,P|426:226|458:208,1,73.9500014104843,2|0,0:0|0:0,0:0:0:0:
356,333,52381,1,8,0:2:0:0:
231,201,52600,1,8,0:2:0:0:
382,255,52819,6,0,P|331:248|283:237,1,87,6|0,1:2|0:2,0:2:0:0:
325,143,53257,1,2,1:2:0:0:
184,321,53476,2,0,P|192:240|219:138,1,174,10|2,0:2|0:2,0:2:0:0:
83,20,54133,6,0,P|110:64|123:109,1,87,2|0,1:2|0:2,0:2:0:0:
224,20,54571,1,2,1:2:0:0:
83,174,54790,2,0,P|145:122|250:147,1,174,10|2,0:2|0:2,0:2:0:0:
329,80,55447,2,0,P|341:136|357:180,1,87,2|0,1:2|0:2,0:2:0:0:
87,339,55885,5,2,1:2:0:0:
191,346,56104,2,0,P|183:303|170:262,1,87,10|0,0:2|1:2,0:2:0:0:
296,197,56542,1,2,0:0:0:0:
394,297,56761,1,2,1:2:0:0:
394,297,56980,1,2,0:0:0:0:
308,276,57198,5,2,1:2:0:0:
456,237,57417,1,10,0:2:0:0:
349,137,57637,1,2,1:2:0:0:
477,247,57856,1,10,0:2:0:0:
492,46,58074,6,0,P|403:39|319:-3,1,174,6|2,1:2|1:2,0:2:0:0:
143,63,58731,1,10,0:2:0:0:
275,159,58950,2,0,P|259:98|234:60,1,87,0|0,1:2|0:2,0:2:0:0:
316,325,59388,6,0,P|349:262|452:178,1,174,2|2,1:2|1:2,0:2:0:0:
512,157,60045,1,10,0:2:0:0:
346,121,60264,2,0,P|366:76|372:26,1,87,2|2,1:2|0:2,0:2:0:0:
205,384,60702,6,0,P|168:275|115:201,1,174,2|2,1:2|1:2,0:2:0:0:
246,210,61359,1,10,0:2:0:0:
66,149,61578,2,0,P|42:185|29:226,1,87,0|2,1:2|0:2,0:2:0:0:
170,98,62016,6,0,P|245:83|274:68,1,87,2|0,1:2|0:2,0:2:0:0:
400,310,62454,2,0,P|325:325|296:340,1,87,2|10,1:2|0:2,0:2:0:0:
333,159,62892,2,0,P|356:96|361:39,1,87,10|2,1:2|1:2,0:2:0:0:
238,238,63330,6,0,P|153:251|57:287,1,174,6|2,1:2|1:2,0:2:0:0:
186,143,63987,1,8,0:2:0:0:
52,90,64206,2,0,P|78:136|89:188,1,87,2|0,1:2|0:2,0:2:0:0:
250,330,64644,6,0,P|347:355|437:366,1,174,2|2,1:2|1:2,0:2:0:0:
457,191,65301,1,8,0:2:0:0:
431,350,65520,2,0,P|410:311|395:270,1,87,2|0,1:2|0:2,0:2:0:0:
224,45,65958,6,0,P|163:30|118:29,1,87,2|0,1:2|0:2,0:2:0:0:
341,139,66396,2,0,P|368:105|404:81,1,87,2|8,1:2|0:2,0:2:0:0:
138,122,66834,2,0,P|126:190|107:224,1,87,2|0,1:2|0:2,0:2:0:0:
214,324,67271,6,0,P|223:241|257:136,1,174,2|2,1:2|1:2,0:2:0:0:
121,293,67928,1,8,0:2:0:0:
331,263,68147,2,0,P|344:324|365:367,1,87,2|0,1:2|0:2,0:2:0:0:
436,172,68585,6,0,P|360:167|244:128,1,174,6|0,1:2|1:2,0:2:0:0:
67,285,69242,2,0,P|154:253|254:246,1,174,8|0,0:2|0:2,0:2:0:0:
176,73,69899,2,0,P|161:129|145:156,1,87,0|0,1:2|0:2,0:2:0:0:
315,274,70337,6,0,P|259:259|232:243,1,87,2|8,1:2|0:2,0:2:0:0:
71,212,70775,2,0,P|50:173|41:131,1,87,2|8,1:2|0:2,0:2:0:0:
186,343,71213,6,0,P|204:219|251:56,1,261,6|8,0:2|3:0,0:2:0:0:
303,19,72089,2,0,P|328:76|331:134,1,87,4|0,0:3|0:2,0:2:0:0:
122,127,72527,6,0,P|288:182|460:178,1,348,6|4,0:2|3:3,0:2:0:0:
331,100,73622,1,4,3:3:0:0:
459,7,73841,2,0,P|438:46|426:99,1,87,4|0,1:2|0:2,0:2:0:0:
466,323,74279,6,0,P|425:306|382:300,1,87,2|12,1:2|0:2,0:2:0:0:
277,128,74717,2,0,P|292:87|300:44,1,87,2|0,1:2|0:2,0:2:0:0:
246,242,75155,6,0,P|327:211|412:190,1,174,2|0,1:2|1:2,0:2:0:0:
160,129,75812,2,0,P|138:213|107:294,1,174,8|0,0:2|1:2,0:2:0:0:
277,128,76469,6,0,P|253:69|245:36,1,87,6|2,1:2|0:2,0:2:0:0:
223,205,76907,1,2,1:2:0:0:
353,55,77126,2,0,P|440:38|506:111,1,174,8|0,0:2|1:2,0:2:0:0:
321,150,77783,6,0,P|285:137|229:129,1,87,2|0,1:2|3:2,0:2:0:0:
302,248,78221,1,14,1:2:0:0:
426,156,78440,2,0,P|404:240|394:325,1,174,2|0,0:2|0:2,1:2:0:0:
196,358,79097,6,0,P|208:316|212:273,1,87,6|2,1:2|0:2,0:2:0:0:
304,232,79535,1,2,1:2:0:0:
62,211,79754,2,0,P|139:199|239:161,1,174,12|0,0:2|1:2,0:2:0:0:
83,320,80410,6,0,P|39:304|-4:298,1,87,2|2,1:2|0:2,0:2:0:0:
156,231,80848,1,2,1:2:0:0:
43,63,81067,2,0,P|14:137|86:220,1,174,8|8,0:2|0:2,0:2:0:0:
233,165,81724,6,0,P|247:110|252:72,1,87,6|2,1:2|0:2,0:2:0:0:
147,107,82162,1,2,1:2:0:0:
359,43,82381,2,0,P|420:100|501:81,1,174,12|0,0:2|0:2,0:2:0:0:
331,181,83038,6,0,P|245:200|152:238,1,174,2|0,1:2|1:2,0:2:0:0:
473,155,83695,5,8,0:2:0:0:
277,102,83914,1,8,0:2:0:0:
230,304,84133,1,8,0:2:0:0:
367,78,84352,5,4,1:2:0:0:
256,192,84462,12,2,86870,0:2:0:0:
