osu file format v14

[General]
AudioFilename: audio.mp3
AudioLeadIn: 0
PreviewTime: 52715
Countdown: 0
SampleSet: Soft
StackLeniency: 0.7
Mode: 0
LetterboxInBreaks: 0
WidescreenStoryboard: 1

[Editor]
DistanceSpacing: 1
BeatDivisor: 4
GridSize: 32
TimelineZoom: 1.5

[Metadata]
Title:Tabibito no Uta (TV Size)
TitleUnicode:旅人の唄 (TV Size)
Artist:Ohara Yuiko
ArtistUnicode:大原ゆい子
Creator:MajK00
Version:Stompy's Normal
Source:無職転生 ~異世界行ったら本気だす~
Tags:Mushoku Tensei ~Isekai Ittara Honki Dasu~ Jobless Reincarnation: I Will Seriously Try If I Go To Another World opening MANYO japanese folk pop anime EnuHQ Stompy_
BeatmapID:3753465
BeatmapSetID:1826809

[Difficulty]
HPDrainRate:3.2
CircleSize:3.3
OverallDifficulty:4
ApproachRate:5
SliderMultiplier:1.20000000596046
SliderTickRate:1

[Events]
//Background and Video events
0,0,"stretched-1920-1080-1215002.jpg",0,0
//Break Periods
2,19084,20299
//Storyboard Layer 0 (Background)
//Storyboard Layer 1 (Fail)
//Storyboard Layer 2 (Pass)
//Storyboard Layer 3 (Foreground)
//Storyboard Layer 4 (Overlay)
//Storyboard Sound Samples

[TimingPoints]
494,434.782608695652,3,2,27,70,1,0
1580,476.190476190476,3,2,27,70,1,0
1818,430.10752688172,3,2,27,70,1,0
2463,437.956204379562,3,2,27,70,1,0
2681,437.956204379562,3,2,27,70,1,0
3118,437.956204379562,3,2,27,70,1,0
5307,402.684563758389,3,2,27,70,1,0
5709,464.2166344294,3,2,27,70,1,0
6173,416.666666666667,3,2,27,70,1,0
6589,431.654676258993,3,2,27,70,1,0
7020,437.956204379562,3,2,27,70,1,0
7895,387.096774193548,3,2,27,70,1,0
8088,465.116279069767,3,2,27,70,1,0
8320,439.56043956044,3,2,27,70,1,0
9638,437.956204379562,3,2,27,70,1,0
10951,441.176470588235,3,2,27,70,1,0
13598,433.212996389892,3,2,27,70,1,0
14897,440.366972477064,3,2,27,70,1,0
16218,444.444444444444,3,2,27,70,1,0
19297,465.116279069767,3,2,27,70,1,0
19762,451.127819548872,3,2,27,70,1,0
19987,413.793103448276,3,2,27,70,1,0
20193,431.654676258993,3,2,27,70,1,0
20624,437.956204379562,3,2,27,70,1,0
21499,441.176470588235,3,2,27,40,1,0
22822,436.363636363636,3,2,27,40,1,0
24131,437.956204379562,3,2,27,40,1,0
25444,438.59649122807,3,2,27,40,1,0
26759,441.176470588235,3,2,27,40,1,0
28082,437.556973564266,3,2,27,40,1,0
32020,437.956204379562,3,2,27,50,1,0
34647,434.782608695652,3,2,27,50,1,0
35951,437.956204379562,3,2,27,50,1,0
38578,447.761194029851,3,2,27,50,1,0
39473,410.958904109589,3,2,27,50,1,0
39678,472.44094488189,3,2,27,50,1,0
39914,434.782608695652,3,2,27,50,1,0
42522,439.56043956044,3,2,27,50,1,0
44939,422.535211267606,3,2,27,35,1,0
45150,432.432432432432,3,2,27,50,1,0
46447,441.988950276243,3,2,27,50,1,0
47551,413.793103448276,3,2,27,35,1,0
47757,437.956204379562,3,2,27,50,1,0
49946,428.571428571429,3,2,27,50,1,0
50374,451.127819548872,3,2,27,50,1,0
51276,425.531914893617,3,2,27,50,1,0
51701,441.176470588235,3,2,27,50,1,0
52583,437.956204379562,3,2,27,50,1,0
53020,437.956204379562,3,2,27,70,1,0
55647,418.118466898955,3,2,27,70,1,0
56065,444.444444444444,3,2,27,70,1,0
56953,431.654676258993,3,2,27,70,1,0
58247,446.927374301676,3,2,27,70,1,0
59140,437.956204379562,3,2,27,70,1,0
59577,443.62292051756,3,2,27,70,1,0
60464,434.782608695652,3,2,27,70,1,0
60898,437.158469945355,3,2,27,70,1,0
63520,437.956204379562,3,2,27,70,1,0
66147,440.366972477064,3,2,27,70,1,0
67468,437.956204379562,3,2,27,70,1,0
70095,441.176470588235,3,2,27,70,1,0
71418,413.793103448276,3,2,27,70,1,0
71831,363.636363636364,3,2,27,70,1,0
72012,470.588235294118,3,2,27,70,1,0
72247,437.956204379562,3,2,27,70,1,0
72684,434.782608695652,3,2,27,70,1,0
73988,444.444444444444,3,2,27,70,1,0
74432,433.212996389892,3,2,27,70,1,0
75298,436.363636363636,3,2,27,70,1,0
76607,436.919716002185,3,2,27,70,1,0
79228,437.956204379562,3,2,27,70,1,0
80541,438.59649122807,3,2,27,70,1,0
81856,440.528634361234,3,2,27,70,1,0
83177,442.80442804428,3,2,27,70,1,0
83619,428.571428571429,3,2,27,70,1,0
84047,434.782608695652,3,2,27,70,1,0
84481,461.538461538462,3,2,27,70,1,0
85634,368.098159509202,3,2,27,70,1,0
85818,442.80442804428,3,2,27,70,1,0
87146,437.956204379562,3,2,27,70,1,0

[Colours]
Combo1 : 183,232,236
Combo2 : 250,138,118
Combo3 : 252,234,218
Combo4 : 170,122,188

[HitObjects]
43,125,5709,6,0,B|49:176|49:176|43:195|43:195|53:262,1,120.000000596046,4|0,1:2|1:0,0:0:0:0:
60,294,6381,1,8,2:0:0:0:
203,359,7020,2,0,P|232:361|266:364,1,60.000000298023,2|0,1:2|0:0,0:0:0:0:
316,368,7457,1,0,1:0:0:0:
420,305,7895,2,0,P|414:260|411:236,1,60.000000298023,6|10,2:3|2:0,0:0:0:0:
447,201,8320,6,0,B|453:149|453:149|447:130|447:130|456:63,1,120.000000596046,2|0,1:2|1:0,0:0:0:0:
422,38,8979,1,8,2:0:0:0:
326,83,9418,1,0,3:0:0:0:
326,83,9638,2,0,P|265:87|197:100,1,120.000000596046,4|0,1:2|1:0,0:0:0:0:
107,48,10513,2,0,P|77:32|51:30,1,60.000000298023,8|4,2:0|1:3,0:0:0:0:
14,64,10951,6,0,P|0:121|25:178,1,120.000000596046,6|0,1:2|1:0,0:0:0:0:
58,215,11612,2,0,P|111:193|167:224,1,120.000000596046,8|2,2:0|2:0,0:0:0:0:
203,255,12274,1,2,1:2:0:0:
294,199,12715,1,0,1:0:0:0:
228,111,13156,2,0,P|224:71|222:42,1,60.000000298023,6|10,2:3|2:0,0:0:0:0:
264,14,13598,6,0,P|323:13|389:36,1,120.000000596046,6|0,1:2|1:0,0:0:0:0:
434,54,14247,1,8,2:0:0:0:
500,140,14681,1,0,3:0:0:0:
500,140,14897,2,0,P|484:198|472:267,1,120.000000596046,2|2,1:2|1:2,0:0:0:0:
459,309,15557,1,8,2:0:0:0:
368,365,15997,1,0,3:0:0:0:
368,365,16218,1,6,1:2:0:0:
256,192,16440,12,2,18884,0:0:0:0:
62,54,21499,6,0,B|99:122|177:118|177:118|190:60|264:38,1,240.000001192092,2|2,3:0|3:2,0:0:0:0:
350,40,22822,2,0,B|338:129|414:103|374:239,1,180.000000894069,2|0,3:0|2:0,0:0:0:0:
372,264,23694,1,2,2:0:0:0:
321,359,24131,2,0,P|258:296|179:331,1,180.000000894069,2|0,3:0|0:0,0:0:0:0:
146,366,25006,1,0,3:0:0:0:
51,317,25444,2,0,P|34:223|10:141,1,180.000000894069,2|0,3:0|0:0,0:0:0:0:
11,87,26321,1,0,3:0:0:0:
110,46,26759,6,0,P|165:26|220:51,2,120.000000596046,2|2|2,3:0|2:0|2:0,0:0:0:0:
48,135,28082,2,0,B|60:213|60:213|48:243|48:243|62:323,1,180.000000894069,2|0,3:0|2:0,0:0:0:0:
70,363,28957,1,2,2:0:0:0:
168,318,29394,2,0,P|217:289|285:328,1,120.000000596046,2|0,3:0|3:0,0:0:0:0:
313,344,30051,1,0,3:0:0:0:
411,295,30488,1,2,2:0:0:0:
411,295,30707,2,0,P|424:223|437:173,2,120.000000596046,2|0|0,3:0|3:0|3:0,0:0:0:0:
316,347,32020,6,0,P|277:311|209:335,1,120.000000596046,2|0,3:0|2:0,0:0:0:0:
177,363,32676,1,2,2:0:0:0:
59,256,33333,2,0,P|50:190|38:131,1,120.000000596046,2|0,3:0|2:0,0:0:0:0:
28,84,33990,1,2,2:0:0:0:
120,26,34428,1,2,2:0:0:0:
120,26,34647,1,2,3:0:0:0:
206,89,35081,2,0,P|266:78|344:75,1,120.000000596046,0|0,3:0|3:0,0:0:0:0:
431,64,35951,5,0,3:0:0:0:
501,146,36388,1,2,2:0:0:0:
435,231,36826,1,2,2:0:0:0:
334,192,37264,6,0,B|352:266|311:242|340:332,1,120.000000596046,2|0,3:0|2:0,0:0:0:0:
340,363,37921,1,2,2:0:0:0:
236,357,38359,1,0,3:0:0:0:
236,357,38578,2,0,P|184:327|128:347,1,120.000000596046,2|0,3:0|3:0,0:0:0:0:
84,372,39249,1,2,2:0:0:0:
33,294,39678,1,2,2:0:0:0:
33,294,39914,6,0,P|24:224|10:149,1,120.000000596046,2|2,3:0|3:0,0:0:0:0:
73,84,40783,2,0,P|81:54|97:19,1,60.000000298023,2|0,3:0|2:0,0:0:0:0:
142,22,41218,2,0,P|181:47|259:21,1,120.000000596046,2|2,3:0|3:0,0:0:0:0:
351,64,42087,2,0,P|345:100|341:143,1,60.000000298023,2|8,2:0|2:0,0:0:0:0:
349,176,42522,6,0,P|368:208|454:218,1,120.000000596046,6|0,1:2|2:0,0:0:0:0:
486,188,43181,2,0,P|495:133|507:63,1,120.000000596046,2|0,2:0|1:0,0:0:0:0:
501,15,43840,1,10,2:0:0:0:
168,36,45150,6,0,P|110:21|57:73,1,120.000000596046,2|2,1:2|2:0,0:0:0:0:
31,97,45798,1,0,3:0:0:0:
26,208,46231,1,0,1:0:0:0:
26,208,46447,2,0,B|52:280|12:264|43:332,1,120.000000596046,10|2,2:0|2:0,0:0:0:0:
136,374,47330,2,0,P|165:359|192:353,1,60.000000298023,2|8,1:2|2:0,0:0:0:0:
243,339,47757,6,0,P|250:271|262:205,1,120.000000596046,2|0,1:2|2:0,0:0:0:0:
308,197,48413,2,0,P|302:129|290:63,1,120.000000596046,0|0,3:0|1:0,0:0:0:0:
279,25,49070,1,10,2:0:0:0:
182,73,49508,2,0,P|148:67|117:67,1,60.000000298023,2|2,3:0|3:0,0:0:0:0:
83,22,49946,2,0,P|47:22|13:27,1,60.000000298023,2|8,2:0|2:0,0:0:0:0:
5,79,50374,6,0,B|36:172|-21:170|17:267,1,180.000000894069,2|0,1:2|3:0,0:0:0:0:
104,328,51488,1,8,2:0:0:0:
104,328,51701,2,0,P|160:330|228:349,1,120.000000596046,2|0,1:2|0:0,0:0:0:0:
330,364,52583,2,0,P|359:360|398:344,1,60.000000298023,8|8,1:2|1:2,0:0:0:0:
419,304,53020,6,0,B|424:255|424:255|435:238|435:238|442:188,1,120.000000596046,6|0,1:2|1:0,0:0:0:0:
451,134,53676,1,8,2:0:0:0:
390,51,54114,1,8,2:3:0:0:
390,51,54333,2,0,P|329:39|281:76,1,120.000000596046,2|0,1:2|1:0,0:0:0:0:
249,112,54990,1,8,2:0:0:0:
309,210,55428,5,10,2:3:0:0:
309,210,55647,2,0,P|303:246|300:272,1,60.000000298023,6|0,1:2|0:0,0:0:0:0:
315,317,56065,2,0,B|392:297|392:297|441:326,2,120.000000596046,2|0|2,1:2|1:0|1:2,0:0:0:0:
213,354,57384,2,0,P|188:339|155:334,1,60.000000298023,2|8,1:2|2:0,0:0:0:0:
105,349,57816,2,0,P|78:363|45:367,1,60.000000298023,2|8,1:2|3:0,0:0:0:0:
26,320,58247,6,0,P|7:274|38:193,1,120.000000596046,6|0,1:2|1:0,0:0:0:0:
55,164,58917,1,8,2:0:0:0:
55,164,59140,1,2,1:2:0:0:
155,198,59577,2,0,P|219:211|280:231,1,120.000000596046,2|0,1:2|1:0,0:0:0:0:
328,235,60242,1,8,2:0:0:0:
328,235,60464,2,0,P|360:225|396:221,1,60.000000298023,2|10,1:2|2:3,0:0:0:0:
438,211,60898,6,0,P|468:169|464:82,1,120.000000596046,6|0,1:2|1:0,0:0:0:0:
449,53,61553,1,8,2:0:0:0:
351,18,61990,1,8,2:3:0:0:
351,18,62209,1,2,1:2:0:0:
250,52,62646,2,0,P|219:40|197:8,2,60.000000298023,2|8|10,1:2|2:0|1:3,0:0:0:0:
286,99,63302,1,4,1:3:0:0:
286,99,63520,6,0,P|304:155|311:214,1,120.000000596046,6|2,1:2|1:2,0:0:0:0:
320,273,64176,1,8,2:0:0:0:
320,273,64395,1,2,1:2:0:0:
254,358,64833,2,0,P|221:322|149:327,1,120.000000596046,2|2,1:2|1:2,0:0:0:0:
109,352,65490,1,8,2:0:0:0:
109,352,65709,1,2,1:2:0:0:
43,267,66147,6,0,P|35:207|20:149,1,120.000000596046,6|2,1:2|1:2,0:0:0:0:
6,97,66807,1,8,2:0:0:0:
89,27,67247,1,0,3:0:0:0:
89,27,67468,2,0,P|150:42|207:63,1,120.000000596046,2|2,1:2|1:2,0:0:0:0:
256,50,68124,2,0,P|284:40|313:33,1,60.000000298023,8|10,2:0|3:0,0:0:0:0:
364,15,68562,1,4,3:0:0:0:
364,15,68781,6,0,P|407:51|435:122,1,120.000000596046,6|0,1:2|1:0,0:0:0:0:
445,160,69438,1,8,2:0:0:0:
355,218,69876,1,2,2:0:0:0:
355,218,70095,2,0,P|371:275|384:334,1,120.000000596046,2|2,1:2|1:2,0:0:0:0:
346,371,70756,1,8,2:0:0:0:
346,371,70977,2,0,P|315:376|276:353,1,60.000000298023,0|8,1:0|2:0,0:0:0:0:
258,316,71418,5,6,1:2:0:0:
272,86,72012,1,4,1:3:0:0:
272,86,72247,1,8,1:3:0:0:
172,42,72684,2,0,P|134:11|67:30,1,120.000000596046,6|8,1:2|1:3,0:0:0:0:
41,75,73336,1,8,1:3:0:0:
41,75,73553,2,0,P|50:103|58:141,1,60.000000298023,4|4,1:3|1:3,0:0:0:0:
65,185,73988,6,0,P|46:237|28:303,1,120.000000596046,6|2,1:2|1:2,0:0:0:0:
105,375,74865,1,2,1:2:0:0:
203,331,75298,1,2,1:2:0:0:
304,364,75734,2,0,P|332:372|362:371,2,60.000000298023,0|8|0,1:0|2:0|1:0,0:0:0:0:
292,316,76388,1,8,2:0:0:0:
292,316,76607,6,0,B|298:264|298:264|292:246|292:246|302:179,1,120.000000596046,6|2,1:2|1:2,0:0:0:0:
271,151,77262,2,0,P|214:140|175:185,1,120.000000596046,8|2,2:0|2:0,0:0:0:0:
149,229,77917,1,2,1:2:0:0:
105,328,78354,1,8,1:3:0:0:
105,328,78573,2,0,P|54:353|9:307,1,120.000000596046,4|8,1:3|1:3,0:0:0:0:
14,262,79228,6,0,P|11:219|10:189,1,60.000000298023,6|0,1:2|0:0,0:0:0:0:
55,170,79665,1,0,1:0:0:0:
55,170,79884,2,0,P|64:112|74:40,1,120.000000596046,8|2,2:0|3:0,0:0:0:0:
102,6,80541,1,2,1:2:0:0:
198,53,80979,2,0,P|250:30|315:58,1,120.000000596046,0|0,1:0|1:0,0:0:0:0:
354,86,81637,1,8,2:0:0:0:
354,86,81856,6,0,P|346:149|338:210,1,120.000000596046,6|2,1:2|1:2,0:0:0:0:
315,253,82516,2,0,P|259:234|208:263,1,120.000000596046,8|2,2:0|2:0,0:0:0:0:
171,301,83177,1,6,1:2:0:0:
76,242,83619,2,0,P|82:189|84:171,1,60.000000298023,8|14,2:0|2:0,0:0:0:0:
92,133,84047,1,8,2:0:0:0:
180,63,84481,1,6,1:2:0:0:
256,192,84711,12,3,87035,2:1:0:0:
