osu file format v14

[General]
AudioFilename: audio.mp3
AudioLeadIn: 0
PreviewTime: 52715
Countdown: 0
SampleSet: Soft
StackLeniency: 0.7
Mode: 0
LetterboxInBreaks: 0
WidescreenStoryboard: 0

[Editor]
DistanceSpacing: 1
BeatDivisor: 4
GridSize: 32
TimelineZoom: 1.5

[Metadata]
Title:Tabibito no Uta (TV Size)
TitleUnicode:旅人の唄 (TV Size)
Artist:Ohara Yuiko
ArtistUnicode:大原ゆい子
Creator:MajK00
Version:Memories
Source:無職転生 ~異世界行ったら本気だす~
Tags:Mushoku Tensei ~Isekai Ittara Honki Dasu~ Jobless Reincarnation: I Will Seriously Try If I Go To Another World opening MANYO japanese folk pop anime EnuHQ Stompy_
BeatmapID:3748878
BeatmapSetID:1826809

[Difficulty]
HPDrainRate:5.2
CircleSize:4.3
OverallDifficulty:8
ApproachRate:8.5
SliderMultiplier:1.82
SliderTickRate:1

[Events]
//Background and Video events
0,0,"stretched-1920-1080-1215002.jpg",0,0
//Break Periods
2,19084,20605
//Storyboard Layer 0 (Background)
//Storyboard Layer 1 (Fail)
//Storyboard Layer 2 (Pass)
//Storyboard Layer 3 (Foreground)
//Storyboard Layer 4 (Overlay)
//Storyboard Sound Samples

[TimingPoints]
494,434.782608695652,3,2,27,70,1,0
1580,476.190476190476,3,2,27,70,1,0
1818,430.10752688172,3,2,27,70,1,0
2463,437.956204379562,3,2,27,70,1,0
2681,437.956204379562,3,2,27,70,1,0
3118,437.956204379562,3,2,27,70,1,0
5307,402.684563758389,3,2,27,70,1,0
5709,464.2166344294,3,2,27,70,1,0
5709,-103.092783505155,3,2,27,70,0,0
6173,416.666666666667,3,2,27,70,1,0
6589,431.654676258993,3,2,27,70,1,0
6589,-103.092783505155,3,2,27,70,0,0
7020,437.956204379562,3,2,27,70,1,0
7020,-103.092783505155,3,2,27,70,0,0
7895,387.096774193548,3,2,27,70,1,0
8088,465.116279069767,3,2,27,70,1,0
8320,439.56043956044,3,2,27,70,1,0
8320,-103.092783505155,3,2,27,70,0,0
9638,437.956204379562,3,2,27,70,1,0
9638,-103.092783505155,3,2,27,70,0,0
10951,441.176470588235,3,2,27,70,1,0
10951,-103.092783505155,3,2,27,70,0,0
13598,433.212996389892,3,2,27,70,1,0
13598,-103.092783505155,3,2,27,70,0,0
14897,440.366972477064,3,2,27,70,1,0
14897,-103.092783505155,3,2,27,70,0,0
16218,444.444444444444,3,2,27,70,1,0
16218,-370.370370370374,3,2,27,70,0,0
19297,465.116279069767,3,2,27,70,1,0
19762,451.127819548872,3,2,27,70,1,0
19987,413.793103448276,3,2,27,70,1,0
20193,431.654676258993,3,2,27,70,1,0
20624,437.956204379562,3,2,27,70,1,0
21280,-100,3,2,27,40,0,0
21499,441.176470588235,3,2,27,40,1,0
21499,-175.438596491228,3,2,27,40,0,0
22822,436.363636363636,3,2,27,40,1,0
22822,-175.438596491228,3,2,27,40,0,0
24131,437.956204379562,3,2,27,40,1,0
24131,-175.438596491228,3,2,27,40,0,0
25444,438.59649122807,3,2,27,40,1,0
25444,-175.438596491228,3,2,27,40,0,0
26759,441.176470588235,3,2,27,40,1,0
26759,-175.438596491228,3,2,27,40,0,0
28082,437.556973564266,3,2,27,40,1,0
28082,-175.438596491228,3,2,27,40,0,0
31801,-175.438596491228,3,2,27,50,0,0
32020,437.956204379562,3,2,27,50,1,0
32020,-129.87012987013,3,2,27,50,0,0
34647,434.782608695652,3,2,27,50,1,0
34647,-129.87012987013,3,2,27,50,0,0
35951,437.956204379562,3,2,27,50,1,0
35951,-129.87012987013,3,2,27,50,0,0
38578,447.761194029851,3,2,27,50,1,0
38578,-129.87012987013,3,2,27,50,0,0
39473,410.958904109589,3,2,27,50,1,0
39678,472.44094488189,3,2,27,50,1,0
39914,434.782608695652,3,2,27,50,1,0
39914,-129.87012987013,3,2,27,50,0,0
42522,439.56043956044,3,2,27,50,1,0
42522,-129.87012987013,3,2,27,50,0,0
44939,422.535211267606,3,2,27,35,1,0
44939,-129.87012987013,3,2,27,35,0,0
45150,432.432432432432,3,2,27,50,1,0
45150,-129.87012987013,3,2,27,50,0,0
46447,441.988950276243,3,2,27,50,1,0
46447,-129.87012987013,3,2,27,50,0,0
47551,413.793103448276,3,2,27,35,1,0
47551,-129.87012987013,3,2,27,35,0,0
47757,437.956204379562,3,2,27,50,1,0
47757,-129.87012987013,3,2,27,50,0,0
49946,428.571428571429,3,2,27,50,1,0
50374,451.127819548872,3,2,27,50,1,0
50374,-129.87012987013,3,2,27,50,0,0
51276,425.531914893617,3,2,27,50,1,0
51701,441.176470588235,3,2,27,50,1,0
51701,-129.87012987013,3,2,27,50,0,0
52583,437.956204379562,3,2,27,50,1,0
53020,437.956204379562,3,2,27,70,1,0
53020,-103.092783505155,3,2,27,70,0,0
55647,418.118466898955,3,2,27,70,1,0
55647,-103.092783505155,3,2,27,70,0,0
56065,444.444444444444,3,2,27,70,1,0
56287,-103.092783505155,3,2,27,70,0,0
56953,431.654676258993,3,2,27,70,1,0
56953,-103.092783505155,3,2,27,70,0,0
58247,446.927374301676,3,2,27,70,1,0
58247,-103.092783505155,3,2,27,70,0,0
59140,437.956204379562,3,2,27,70,1,0
59577,443.62292051756,3,2,27,70,1,0
59577,-103.092783505155,3,2,27,70,0,0
60464,434.782608695652,3,2,27,70,1,0
60898,437.158469945355,3,2,27,70,1,0
60898,-103.092783505155,3,2,27,70,0,0
63520,437.956204379562,3,2,27,70,1,0
63520,-103.092783505155,3,2,27,70,0,0
66147,440.366972477064,3,2,27,70,1,0
66147,-103.092783505155,3,2,27,70,0,0
67468,437.956204379562,3,2,27,70,1,0
67468,-103.092783505155,3,2,27,70,0,0
70095,441.176470588235,3,2,27,70,1,0
70095,-103.092783505155,3,2,27,70,0,0
71418,413.793103448276,3,2,27,70,1,0
71418,-103.092783505155,3,2,27,70,0,0
71831,363.636363636364,3,2,27,70,1,0
72012,470.588235294118,3,2,27,70,1,0
72012,-103.092783505155,3,2,27,70,0,0
72247,437.956204379562,3,2,27,70,1,0
72247,-103.092783505155,3,2,27,70,0,0
72684,434.782608695652,3,2,27,70,1,0
72684,-103.092783505155,3,2,27,70,0,0
73988,444.444444444444,3,2,27,70,1,0
73988,-103.092783505155,3,2,27,70,0,0
74432,433.212996389892,3,2,27,70,1,0
74865,-103.092783505155,3,2,27,70,0,0
75298,436.363636363636,3,2,27,70,1,0
75298,-103.092783505155,3,2,27,70,0,0
76607,436.919716002185,3,2,27,70,1,0
76607,-103.092783505155,3,2,27,70,0,0
79228,437.956204379562,3,2,27,70,1,0
79228,-103.092783505155,3,2,27,70,0,0
80541,438.59649122807,3,2,27,70,1,0
80541,-103.092783505155,3,2,27,70,0,0
81856,440.528634361234,3,2,27,70,1,0
81856,-103.092783505155,3,2,27,70,0,0
83177,442.80442804428,3,2,27,70,1,0
83398,-103.092783505155,3,2,27,70,0,0
83619,428.571428571429,3,2,27,70,1,0
84047,434.782608695652,3,2,27,70,1,0
84264,-103.092783505155,3,2,27,70,0,0
84481,461.538461538462,3,2,27,70,1,0
85634,368.098159509202,3,2,27,70,1,0
85818,442.80442804428,3,2,27,70,1,0
87146,437.956204379562,3,2,27,70,1,0

[Colours]
Combo1 : 183,232,236
Combo2 : 250,138,118
Combo3 : 252,234,218
Combo4 : 170,122,188

[HitObjects]
256,192,494,12,1,5307,2:0:0:0:
0,166,5709,6,1,B|60:172|57:114|133:126,1,132.405003131527,4|0,1:2|2:0,2:0:0:0:
177,176,6173,1,0,1:0:0:0:
344,51,6381,1,8,2:0:0:0:
211,6,6589,2,1,P|234:47|246:110,1,88.2700020876847,0|0,1:0|2:0,2:0:0:0:
472,62,7020,6,1,P|431:134|412:232,1,176.540004175369,2|0,1:2|1:0,2:0:0:0:
482,367,7676,1,0,3:0:0:0:
463,356,7786,1,0,3:0:0:0:
449,340,7895,1,6,2:3:0:0:
512,182,8088,1,10,2:0:0:0:
341,315,8320,6,1,B|278:298|278:298|235:342|168:329,1,176.540004175369,2|0,1:2|1:0,2:0:0:0:
65,189,8979,1,8,2:0:0:0:
202,231,9199,1,0,1:0:0:0:
76,312,9418,5,0,3:0:0:0:
59,318,9528,1,0,3:0:0:0:
43,309,9638,2,1,P|64:244|74:180,1,132.405,4|0,1:2|2:0,2:0:0:0:
49,109,10075,1,0,1:0:0:0:
160,46,10294,1,8,2:0:0:0:
305,125,10513,1,8,2:0:0:0:
453,19,10732,1,4,1:3:0:0:
249,7,10951,6,1,P|236:80|185:162,1,132.405003131527,6|0,1:2|2:0,2:0:0:0:
168,194,11392,1,0,1:0:0:0:
349,287,11612,1,8,2:0:0:0:
264,364,11833,2,1,P|256:319|232:272,1,88.2699999999997,0|2,1:0|2:0,2:0:0:0:
493,219,12274,6,1,P|452:297|436:396,1,176.539999999999,2|0,1:2|1:0,2:0:0:0:
349,287,12936,1,0,3:0:0:0:
337,270,13046,1,0,3:0:0:0:
333,250,13156,1,6,2:3:0:0:
438,144,13377,1,10,2:0:0:0:
260,0,13598,6,1,P|339:34|333:147,1,176.539999999999,6|0,1:2|1:0,2:0:0:0:
127,93,14247,1,8,2:0:0:0:
80,0,14464,1,0,1:0:0:0:
228,71,14681,5,0,3:0:0:0:
243,85,14789,1,0,3:0:0:0:
261,95,14897,2,1,P|238:157|214:252,1,132.405003131527,2|0,1:2|2:0,2:0:0:0:
200,293,15337,1,2,1:2:0:0:
21,372,15557,1,8,2:0:0:0:
107,268,15777,1,2,1:2:0:0:
279,322,15997,5,0,3:0:0:0:
294,336,16108,1,0,3:0:0:0:
305,353,16218,2,1,P|336:239|419:79,1,294.840007198242,6|2,1:2|0:0,2:0:0:0:
512,267,21280,5,0,3:0:0:0:
507,272,21390,1,0,3:0:0:0:
502,277,21499,2,1,P|408:287|336:307,1,155.609998100464,2|0,3:0|2:0,2:0:0:0:
432,203,22381,2,1,P|422:226|416:252,1,51.8699993668213,2|0,3:2|2:0,2:0:0:0:
215,277,22822,6,1,P|287:257|348:301,1,155.61,2|0,3:0|2:0,2:0:0:0:
287,230,23694,2,1,P|281:204|272:181,1,51.87,2|0,2:0|2:0,2:0:0:0:
268,349,24131,6,1,P|147:304|18:297,1,259.35,2|0,3:0|2:0,2:0:0:0:
123,180,25444,2,1,P|136:230|159:276,2,103.74,2|2|0,3:0|2:0|3:0,2:0:0:0:
11,43,26540,5,0,3:0:0:0:
5,48,26650,1,0,3:0:0:0:
0,52,26759,2,1,P|37:87|88:88,2,103.74,2|2|2,3:0|2:0|2:0,2:0:0:0:
226,3,27861,5,0,3:0:0:0:
232,8,27972,1,0,3:0:0:0:
239,13,28082,2,1,P|213:76|191:171,1,155.61,2|0,3:0|2:0,2:0:0:0:
291,86,28957,2,1,P|267:96|242:102,1,51.87,2|0,2:0|2:0,2:0:0:0:
390,189,29394,6,1,P|441:196|488:217,2,103.74,2|0|0,3:0|3:0|3:0,2:0:0:0:
373,377,30488,5,2,2:0:0:0:
379,380,30597,1,2,2:0:0:0:
385,384,30707,2,1,P|395:326|427:278,1,103.74,2|0,3:0|2:0,2:0:0:0:
348,313,31363,2,1,L|323:320,2,25.935,0|0|0,3:0|3:0|3:0,2:0:0:0:
246,359,31801,5,0,3:0:0:0:
240,363,31910,1,0,3:0:0:0:
234,369,32020,2,1,P|209:328|221:223,1,140.14,2|0,3:0|2:0,2:0:0:0:
120,322,32676,1,2,2:0:0:0:
46,255,32895,2,1,P|75:231|114:225,1,70.0699999999999,2|0,2:0|3:0,2:0:0:0:
129,226,33224,5,0,3:0:0:0:
129,226,33333,2,1,P|88:195|79:108,1,140.14,2|0,3:0|2:0,2:0:0:0:
184,77,33990,2,1,P|168:108|161:142,1,70.0699999999999,2|0,2:0|2:0,2:0:0:0:
68,101,34428,1,2,2:0:0:0:
270,149,34647,6,1,P|344:126|412:120,1,140.14,2|0,3:0|3:0,2:0:0:0:
442,13,35299,1,0,3:0:0:0:
444,17,35407,1,0,3:0:0:0:
446,21,35516,2,1,P|481:43|527:48,1,70.0699999999999,0|0,3:0|2:0,2:0:0:0:
332,104,35951,6,1,P|368:142|387:191,1,105.105,0|0,3:0|2:0,2:0:0:0:
455,219,36388,2,1,P|440:251|437:286,1,70.0699999999999,2|0,2:0|2:0,2:0:0:0:
447,304,36717,1,2,2:0:0:0:
447,304,36826,1,2,2:0:0:0:
381,372,37045,1,2,2:0:0:0:
248,349,37264,6,1,P|285:328|295:224,1,140.14,2|0,3:0|2:0,2:0:0:0:
161,124,37921,1,2,2:0:0:0:
258,122,38140,2,1,P|244:152|236:188,1,70.0699999999999,2|0,3:0|2:0,2:0:0:0:
440,186,38578,6,1,P|417:138|410:86,1,105.104997915093,2|0,3:0|2:0,2:0:0:0:
411,71,39025,1,0,3:0:0:0:
337,0,39249,2,1,P|302:0|271:15,1,70.0699999999999,2|0,2:0|2:0,2:0:0:0:
106,82,39678,5,2,2:0:0:0:
215,134,39914,2,1,L|174:-9,1,140.14,2|2,3:0|3:0,2:0:0:0:
16,73,40566,1,2,2:0:0:0:
96,162,40783,2,1,L|112:94,1,70.0699999999999,2|0,3:0|2:0,2:0:0:0:
0,222,41218,6,1,P|47:240|69:287,1,105.104997915093,2|0,3:0|2:0,2:0:0:0:
70,300,41653,2,1,P|104:311|146:315,1,70.0699999999999,2|0,3:0|2:0,2:0:0:0:
241,340,42087,1,2,2:0:0:0:
343,219,42305,5,8,2:0:0:0:
332,228,42414,1,8,2:0:0:0:
322,237,42522,2,1,L|369:375,1,140.14,6|0,1:2|2:0,2:0:0:0:
492,384,43181,1,2,2:0:0:0:
431,281,43401,2,1,L|457:212,1,70.0699999999999,2|0,2:0|1:0,2:0:0:0:
466,200,43730,5,0,1:0:0:0:
466,200,43840,2,1,P|448:135|384:115,1,140.14,10|0,2:0|2:0,2:0:0:0:
261,190,44500,2,1,P|295:189|325:171,1,70.0699999999999,2|0,2:0|2:0,2:0:0:0:
449,47,44939,6,1,L|424:40,2,23.3566666666666,8|8|8,2:0|2:0|2:0,2:0:0:0:
461,38,45150,2,1,L|329:6,1,105.105,2|0,1:2|2:0,2:0:0:0:
279,0,45582,2,1,L|295:67,1,70.0699999999999,2|0,2:0|3:0,2:0:0:0:
261,190,46014,2,1,L|244:257,1,70.0699999999999,2|0,2:0|1:0,2:0:0:0:
68,154,46447,6,1,P|129:121|197:103,2,140.14,10|2|2,2:0|2:0|1:2,2:0:0:0:
32,295,47551,6,1,P|44:297|56:299,2,23.3566662033539,8|8|8,2:0|2:0|2:0,2:0:0:0:
20,305,47757,2,1,P|90:317|155:338,1,140.14,2|0,1:2|2:0,2:0:0:0:
262,221,48413,2,1,P|227:225|194:237,1,70.0699999999999,0|0,3:0|2:0,2:0:0:0:
253,337,48851,1,0,1:0:0:0:
408,175,49070,22,1,P|384:221|370:272,1,105.105,10|0,2:0|2:0,2:0:0:0:
364,289,49508,1,2,3:0:0:0:
236,155,49727,2,1,P|251:187|262:221,1,70.0699999999999,2|2,3:0|2:0,2:0:0:0:
342,102,50160,1,8,2:0:0:0:
145,42,50374,6,1,B|96:28|96:28|63:62|11:52,1,140.139997220123,2|0,1:2|2:0,2:0:0:0:
99,197,51050,2,1,L|116:130,1,70.0699999999999,0|0,3:0|2:0,2:0:0:0:
0,282,51488,1,8,2:0:0:0:
247,317,51701,6,1,B|277:292|313:307|313:307|216:262|234:354|137:330,1,245.245,2|0,1:2|2:0,2:0:0:0:
88,283,52583,5,8,1:2:0:0:
354,240,52801,5,8,1:2:0:0:
499,10,53020,6,1,P|434:14|398:70,1,132.405,6|0,1:2|2:0,2:0:0:0:
392,141,53457,1,0,1:0:0:0:
203,23,53676,2,1,P|246:16|288:3,1,88.2699999999997,8|0,2:0|1:0,2:0:0:0:
163,141,54114,1,8,2:3:0:0:
322,316,54333,6,1,B|422:337|422:337|441:304|423:266,1,176.539999999999,2|0,1:2|1:0,2:0:0:0:
220,239,54990,1,8,2:0:0:0:
139,310,55209,1,0,1:0:0:0:
325,220,55428,2,1,P|329:200|339:177,1,44.1349999999998,10|0,2:3|2:0,2:0:0:0:
73,79,55647,6,1,P|110:133|122:197,1,132.405003131527,6|0,1:2|2:0,2:0:0:0:
70,256,56065,1,2,1:2:0:0:
198,100,56287,2,1,P|239:115|282:118,1,88.2699999999997,8|0,2:0|1:0,2:0:0:0:
222,225,56731,1,8,3:0:0:0:
415,238,56953,6,1,P|347:262|332:332,1,132.405,2|0,1:2|2:0,2:0:0:0:
386,363,57384,1,2,1:2:0:0:
512,158,57600,1,8,2:0:0:0:
365,101,57816,1,2,1:2:0:0:
415,238,58032,2,1,L|457:227,1,44.1349999999998,8|0,3:0|2:0,2:0:0:0:
249,384,58247,6,1,B|196:370|196:370|180:349|180:349|130:336,1,132.405003131527,6|0,1:2|2:0,2:0:0:0:
60,318,58693,1,0,1:0:0:0:
127,162,58917,1,8,2:0:0:0:
52,92,59140,5,2,1:2:0:0:
148,249,59358,1,0,3:0:0:0:
160,257,59468,1,0,3:0:0:0:
174,264,59577,2,1,B|210:267|238:244|229:236|255:213|308:220,1,132.405,2|0,1:2|2:0,2:0:0:0:
363,255,60020,1,0,1:0:0:0:
441,77,60242,1,8,2:0:0:0:
358,24,60464,5,2,1:2:0:0:
494,162,60681,1,10,2:3:0:0:
346,10,60898,2,1,P|283:32|218:41,1,132.405,6|0,1:2|2:0,2:0:0:0:
136,17,61335,5,0,1:0:0:0:
21,185,61553,1,8,2:0:0:0:
11,203,61663,1,2,2:0:0:0:
0,221,61772,1,0,1:0:0:0:
163,125,61990,1,8,2:3:0:0:
92,371,62209,6,1,B|134:367|145:348|145:348|109:242,1,132.405,2|0,1:2|2:0,2:0:0:0:
144,205,62646,1,2,1:2:0:0:
261,156,62865,1,8,2:0:0:0:
415,245,63083,1,10,1:3:0:0:
512,65,63302,1,4,1:3:0:0:
297,24,63520,6,1,P|326:82|346:146,1,132.405,6|0,1:2|2:0,2:0:0:0:
325,223,63957,1,2,1:2:0:0:
150,100,64176,1,8,2:0:0:0:
220,233,64395,2,1,P|224:189|240:148,1,88.2699999999997,2|8,1:2|3:0,2:0:0:0:
8,24,64833,6,1,P|37:77|53:146,1,132.405,2|0,1:2|2:0,2:0:0:0:
20,216,65271,2,1,P|3:256|0:300,1,88.2699999999997,2|8,1:2|2:0,2:0:0:0:
201,382,65709,1,2,1:2:0:0:
139,257,65928,2,1,P|117:262|97:270,1,44.1349999999998,8|0,3:0|2:0,2:0:0:0:
270,146,66147,6,1,B|340:142|321:189|404:187,1,132.405,6|0,1:2|2:0,2:0:0:0:
443,128,66587,1,2,1:2:0:0:
270,243,66807,1,8,2:0:0:0:
361,348,67027,1,2,1:2:0:0:
364,334,67137,1,0,3:0:0:0:
368,320,67247,1,0,3:0:0:0:
139,257,67468,6,1,L|106:128,1,132.405,2|0,1:2|2:0,2:0:0:0:
88,50,67905,1,2,1:2:0:0:
0,213,68124,1,8,2:0:0:0:
168,75,68343,5,10,3:0:0:0:
227,158,68562,1,4,3:0:0:0:
347,323,68781,2,1,B|394:310|394:310|426:343|477:333,1,132.405,6|0,1:2|2:0,2:0:0:0:
453,257,69219,1,0,1:0:0:0:
252,384,69438,2,1,P|209:366|166:362,1,88.2699999999997,8|0,2:0|1:0,2:0:0:0:
231,130,69876,5,2,2:0:0:0:
220,127,69986,1,2,2:0:0:0:
209,125,70095,2,1,L|270:304,1,176.539999999999,2|2,1:2|1:2,2:0:0:0:
99,140,70756,2,1,L|120:54,1,88.2699999999997,8|0,2:0|1:0,2:0:0:0:
15,228,71197,1,8,2:0:0:0:
188,360,71418,6,1,B|258:341|258:341|279:313|279:313|346:296,1,176.539999999999,6|0,1:2|2:0,2:0:0:0:
467,326,72012,2,1,P|474:307|477:283,1,44.1349999999998,4|0,1:3|2:0,2:0:0:0:
397,129,72247,2,1,B|383:112|387:88|387:88|371:115|381:135,1,88.2700020876847,8|0,1:3|2:0,2:0:0:0:
434,207,72575,1,2,2:0:0:0:
434,207,72684,2,1,P|375:177|309:171,1,132.405,6|0,1:2|2:0,2:0:0:0:
254,237,73118,5,8,1:3:0:0:
159,134,73336,1,8,1:3:0:0:
76,349,73553,1,4,1:3:0:0:
317,311,73770,1,4,1:3:0:0:
49,221,73988,6,1,P|34:156|16:92,1,132.405,6|0,1:2|2:0,2:0:0:0:
0,18,74432,1,2,1:2:0:0:
159,134,74648,1,8,2:0:0:0:
279,2,74865,2,1,P|228:27|219:71,1,88.2699999999997,2|0,1:2|3:0,2:0:0:0:
244,132,75190,5,0,3:0:0:0:
244,132,75298,2,1,P|278:213|307:296,1,176.540004175369,2|0,1:2|1:0,2:0:0:0:
442,177,75952,2,1,P|398:172|355:162,1,88.2699999999997,8|0,2:0|1:0,2:0:0:0:
435,313,76388,1,8,2:0:0:0:
204,351,76607,6,1,B|172:322|133:335|133:335|123:371|86:385,1,132.405,6|0,1:2|2:0,2:0:0:0:
55,316,77043,1,2,1:2:0:0:
205,174,77262,2,1,P|209:217|226:258,1,88.2699999999997,8|0,2:0|1:0,2:0:0:0:
0,106,77699,5,2,2:0:0:0:
7,116,77808,1,2,2:0:0:0:
14,127,77917,1,2,1:2:0:0:
108,103,78136,1,8,2:0:0:0:
205,174,78354,1,8,1:3:0:0:
358,31,78573,5,4,1:3:0:0:
202,77,78791,1,0,1:0:0:0:
105,6,79010,1,8,1:3:0:0:
303,113,79228,6,1,P|356:188|359:278,1,176.539999999999,6|0,1:2|1:0,2:0:0:0:
160,384,79884,1,8,2:0:0:0:
246,289,80103,1,0,1:0:0:0:
123,188,80322,2,1,L|134:231,1,44.1349999999998,2|0,3:0|2:0,2:0:0:0:
268,381,80541,6,1,B|302:372|324:342|324:342|374:369|427:367,1,176.539999999999,2|0,1:2|1:0,2:0:0:0:
307,173,81198,2,1,P|265:176|222:193,1,88.2699999999997,8|0,2:0|1:0,2:0:0:0:
387,255,81637,1,8,2:0:0:0:
499,5,81856,6,1,P|486:70|449:124,1,132.405,6|0,1:2|2:0,2:0:0:0:
389,173,82296,1,2,1:2:0:0:
234,45,82516,1,8,2:0:0:0:
338,7,82737,1,0,1:0:0:0:
312,101,82957,2,1,L|301:143,1,44.1349999999998,2|0,2:0|2:0,2:0:0:0:
324,328,83177,5,6,1:2:0:0:
234,226,83398,2,0,L|166:238,1,44.1350010438423,8|8,2:3|2:0,2:0:0:0:
84,254,83619,1,8,2:0:0:0:
204,8,83833,5,14,2:0:0:0:
135,147,84047,1,8,2:0:0:0:
38,343,84264,2,0,L|16:386,1,44.1350010438423,8|8,0:0|0:0,2:0:0:0:
380,24,84481,5,6,1:2:0:0:
256,192,84711,12,3,87035,2:1:0:0:
