osu file format v14

[General]
AudioFilename: audio.mp3
AudioLeadIn: 0
PreviewTime: 52715
Countdown: 0
SampleSet: Soft
StackLeniency: 0.7
Mode: 0
LetterboxInBreaks: 0
WidescreenStoryboard: 1

[Editor]
DistanceSpacing: 1.1
BeatDivisor: 4
GridSize: 32
TimelineZoom: 1.5

[Metadata]
Title:Tabibito no Uta (TV Size)
TitleUnicode:旅人の唄 (TV Size)
Artist:Ohara Yuiko
ArtistUnicode:大原ゆい子
Creator:MajK00
Version:Enu's Insane
Source:無職転生 ~異世界行ったら本気だす~
Tags:Mushoku Tensei ~Isekai Ittara Honki Dasu~ Jobless Reincarnation: I Will Seriously Try If I Go To Another World opening MANYO japanese folk pop anime EnuHQ Stompy_
BeatmapID:3751711
BeatmapSetID:1826809

[Difficulty]
HPDrainRate:4.8
CircleSize:4
OverallDifficulty:7.5
ApproachRate:8.2
SliderMultiplier:1.82
SliderTickRate:1

[Events]
//Background and Video events
0,0,"stretched-1920-1080-1215002.jpg",0,0
//Break Periods
2,19084,20560
//Storyboard Layer 0 (Background)
//Storyboard Layer 1 (Fail)
//Storyboard Layer 2 (Pass)
//Storyboard Layer 3 (Foreground)
//Storyboard Layer 4 (Overlay)
//Storyboard Sound Samples

[TimingPoints]
494,434.782608695652,3,2,27,70,1,0
1580,476.190476190476,3,2,27,70,1,0
1818,430.10752688172,3,2,27,70,1,0
2463,437.956204379562,3,2,27,70,1,0
2681,437.956204379562,3,2,27,70,1,0
3118,437.956204379562,3,2,27,70,1,0
5307,402.684563758389,3,2,27,70,1,0
5709,464.2166344294,3,2,27,70,1,0
6173,416.666666666667,3,2,27,70,1,0
6381,-100.603621730382,3,2,27,70,0,0
6589,431.654676258993,3,2,27,70,1,0
7020,437.956204379562,3,2,27,70,1,0
7020,-100.603621730382,3,2,27,70,0,0
7894,-100.603621730382,3,2,27,70,0,0
7895,387.096774193548,3,2,27,70,1,0
8088,465.116279069767,3,2,27,70,1,0
8320,439.56043956044,3,2,27,70,1,0
8320,-100.603621730382,3,2,27,70,0,0
9638,437.956204379562,3,2,27,70,1,0
9638,-100.603621730382,3,2,27,70,0,0
10951,441.176470588235,3,2,27,70,1,0
10951,-100.603621730382,3,2,27,70,0,0
13598,433.212996389892,3,2,27,70,1,0
13598,-100.603621730382,3,2,27,70,0,0
14897,440.366972477064,3,2,27,70,1,0
14897,-100.603621730382,3,2,27,70,0,0
16218,444.444444444444,3,2,27,70,1,0
16218,-307.692307692308,3,2,27,70,0,0
19297,465.116279069767,3,2,27,70,1,0
19762,451.127819548872,3,2,27,70,1,0
19987,413.793103448276,3,2,27,70,1,0
20193,431.654676258993,3,2,27,70,1,0
20624,437.956204379562,3,2,27,70,1,0
21280,-100,3,2,27,40,0,0
21499,441.176470588235,3,2,27,40,1,0
21499,-172.413793103448,3,2,27,40,0,0
22381,-147.058823529412,3,2,27,40,0,0
22822,436.363636363636,3,2,27,40,1,0
22822,-172.413793103448,3,2,27,40,0,0
24131,437.956204379562,3,2,27,40,1,0
24131,-172.413793103448,3,2,27,40,0,0
25444,438.59649122807,3,2,27,40,1,0
25444,-172.413793103448,3,2,27,40,0,0
26759,441.176470588235,3,2,27,40,1,0
26759,-147.058823529412,3,2,27,40,0,0
27200,-172.413793103448,3,2,27,40,0,0
28082,437.556973564266,3,2,27,40,1,0
28082,-172.413793103448,3,2,27,40,0,0
31801,-172.413793103448,3,2,27,50,0,0
32020,437.956204379562,3,2,27,50,1,0
32020,-128.205128205128,3,2,27,50,0,0
32676,-113.636363636364,3,2,27,50,0,0
33333,-128.205128205128,3,2,27,50,0,0
34647,434.782608695652,3,2,27,50,1,0
34647,-128.205128205128,3,2,27,50,0,0
35951,437.956204379562,3,2,27,50,1,0
35951,-113.636363636364,3,2,27,50,0,0
36388,-128.205128205128,3,2,27,50,0,0
38578,447.761194029851,3,2,27,50,1,0
38578,-128.205128205128,3,2,27,50,0,0
39472,-128.205128205128,3,2,27,50,0,0
39473,410.958904109589,3,2,27,50,1,0
39678,472.44094488189,3,2,27,50,1,0
39914,434.782608695652,3,2,27,50,1,0
39914,-128.205128205128,3,2,27,50,0,0
42522,439.56043956044,3,2,27,50,1,0
42522,-113.636363636364,3,2,27,50,0,0
44939,422.535211267606,3,2,27,35,1,0
45150,432.432432432432,3,2,27,50,1,0
45150,-113.636363636364,3,2,27,50,0,0
46447,441.988950276243,3,2,27,50,1,0
46447,-113.636363636364,3,2,27,50,0,0
47551,413.793103448276,3,2,27,35,1,0
47551,-113.636363636364,3,2,27,35,0,0
47757,437.956204379562,3,2,27,50,1,0
47757,-113.636363636364,3,2,27,50,0,0
49946,428.571428571429,3,2,27,50,1,0
49946,-113.636363636364,3,2,27,50,0,0
50374,451.127819548872,3,2,27,50,1,0
50374,-113.636363636364,3,2,27,50,0,0
51275,-113.636363636364,3,2,27,50,0,0
51276,425.531914893617,3,2,27,50,1,0
51701,441.176470588235,3,2,27,50,1,0
51701,-172.413793103449,3,2,27,50,0,0
52583,437.956204379562,3,2,27,50,1,0
53020,437.956204379562,3,2,27,70,1,0
53020,-96.1538461538461,3,2,27,70,0,0
55647,418.118466898955,3,2,27,70,1,0
55647,-96.1538461538461,3,2,27,70,0,0
56065,444.444444444444,3,2,27,70,1,0
56953,431.654676258993,3,2,27,70,1,0
56953,-87.719298245614,3,2,27,70,0,0
57384,-96.1538461538461,3,2,27,70,0,0
58247,446.927374301676,3,2,27,70,1,0
58247,-96.1538461538461,3,2,27,70,0,0
59140,437.956204379562,3,2,27,70,1,0
59140,-96.1538461538461,3,2,27,70,0,0
59577,443.62292051756,3,2,27,70,1,0
59577,-96.1538461538461,3,2,27,70,0,0
60464,434.782608695652,3,2,27,70,1,0
60898,437.158469945355,3,2,27,70,1,0
60898,-96.1538461538461,3,2,27,70,0,0
63520,437.956204379562,3,2,27,70,1,0
63520,-96.1538461538461,3,2,27,70,0,0
66147,440.366972477064,3,2,27,70,1,0
66147,-96.1538461538461,3,2,27,70,0,0
67468,437.956204379562,3,2,27,70,1,0
67468,-96.1538461538461,3,2,27,70,0,0
70095,441.176470588235,3,2,27,70,1,0
70095,-96.1538461538461,3,2,27,70,0,0
71418,413.793103448276,3,2,27,70,1,0
71418,-96.1538461538461,3,2,27,70,0,0
71831,363.636363636364,3,2,27,70,1,0
72012,470.588235294118,3,2,27,70,1,0
72247,437.956204379562,3,2,27,70,1,0
72684,434.782608695652,3,2,27,70,1,0
72684,-96.1538461538461,3,2,27,70,0,0
73988,444.444444444444,3,2,27,70,1,0
73988,-87.719298245614,3,2,27,70,0,0
74432,433.212996389892,3,2,27,70,1,0
74432,-96.1538461538461,3,2,27,70,0,0
75298,436.363636363636,3,2,27,70,1,0
75298,-96.1538461538461,3,2,27,70,0,0
76607,436.919716002185,3,2,27,70,1,0
76607,-96.1538461538461,3,2,27,70,0,0
79228,437.956204379562,3,2,27,70,1,0
79228,-96.1538461538461,3,2,27,70,0,0
80541,438.59649122807,3,2,27,70,1,0
80541,-96.1538461538461,3,2,27,70,0,0
81856,440.528634361234,3,2,27,70,1,0
81856,-96.1538461538461,3,2,27,70,0,0
83177,442.80442804428,3,2,27,70,1,0
83177,-96.1538461538461,3,2,27,70,0,0
83619,428.571428571429,3,2,27,70,1,0
83833,-96.1538461538461,3,2,27,70,0,0
84047,434.782608695652,3,2,27,70,1,0
84481,461.538461538462,3,2,27,70,1,0
85634,368.098159509202,3,2,27,70,1,0
85818,442.80442804428,3,2,27,70,1,0
87146,437.956204379562,3,2,27,70,1,0

[Colours]
Combo1 : 183,232,236
Combo2 : 250,138,118
Combo3 : 252,234,218
Combo4 : 170,122,188

[HitObjects]
256,192,494,12,1,5307,2:0:0:0:
512,95,5709,5,4,1:2:0:0:
495,116,5941,1,2,0:0:0:0:
445,155,6173,1,0,1:0:0:0:
336,61,6381,2,0,P|313:100|306:144,1,90.4539993650995,8|0,2:0|1:0,0:0:0:0:
342,323,6804,5,2,2:0:0:0:
363,239,7020,2,1,P|307:303|220:341,1,180.908000000001,2|0,1:2|1:0,0:0:0:0:
164,295,7676,2,0,P|153:252|134:209,1,90.4540000000002,0|6,3:0|2:3,0:0:0:0:
84,58,8088,5,10,2:0:0:0:
33,127,8320,2,1,B|121:85|121:85|157:97|157:97|205:72,1,180.908000000001,2|0,1:2|1:0,0:0:0:0:
252,28,8979,2,0,P|295:39|337:57,1,90.4540000000002,8|0,2:0|1:0,0:0:0:0:
258,222,9418,5,0,3:0:0:0:
330,307,9638,2,1,P|304:220|271:136,1,180.908000000001,4|0,1:2|1:0,0:0:0:0:
467,26,10294,1,8,2:0:0:0:
380,147,10513,1,8,2:0:0:0:
439,312,10732,5,4,1:3:0:0:
479,232,10951,2,1,B|382:274|412:295|328:332,1,180.908000000001,6|0,1:2|1:0,0:0:0:0:
248,287,11612,1,8,2:0:0:0:
231,308,11833,1,0,1:0:0:0:
181,347,12053,1,2,2:0:0:0:
34,314,12274,6,1,P|11:274|5:230,1,91,2|0,1:2|0:0,0:0:0:0:
162,153,12715,1,0,1:0:0:0:
90,241,12936,2,0,P|109:200|141:168,1,90.4539993650995,0|6,3:0|2:3,0:0:0:0:
245,25,13377,5,10,2:0:0:0:
157,23,13598,2,1,B|225:45|272:87|272:87|283:113|298:132,1,180.907998730199,6|0,1:2|1:0,0:0:0:0:
360,78,14247,2,0,P|401:60|445:48,1,91,8|0,2:0|1:0,0:0:0:0:
428,251,14681,5,0,3:0:0:0:
390,172,14897,2,1,P|457:230|495:317,1,180.907998730199,2|2,1:2|1:2,0:0:0:0:
257,337,15557,5,8,2:0:0:0:
183,384,15777,1,2,1:2:0:0:
303,237,15997,1,0,3:0:0:0:
379,342,16218,2,1,B|353:206|107:261|169:454|318:402|251:329,1,354.9,6|2,1:2|0:0,0:0:0:0:
0,99,21280,5,0,3:0:0:0:
0,99,21390,1,0,3:0:0:0:
0,99,21499,2,1,P|70:69|149:47,1,158.34,2|0,3:0|2:0,0:0:0:0:
206,0,22381,2,1,P|234:12|263:22,1,61.8799999999999,2|0,3:2|2:0,0:0:0:0:
346,4,22712,5,0,3:0:0:0:
346,4,22822,2,1,P|264:64|268:165,1,211.120006442871,2|2,3:0|2:0,0:0:0:0:
458,149,24131,6,1,P|409:130|358:114,2,105.56,2|2|0,3:0|0:0|0:0,0:0:0:0:
257,278,25444,6,1,P|305:259|356:243,2,105.56,2|2|0,3:0|2:0|3:0,0:0:0:0:
74,378,26759,6,1,P|111:350|123:306,1,92.8199999999999,2|0,3:0|0:0,0:0:0:0:
77,256,27200,2,0,P|69:230|59:206,1,52.7800000000001,2|0,2:0|0:0,0:0:0:0:
140,70,27641,5,2,2:0:0:0:
87,131,28082,6,1,P|159:100|235:78,1,158.34,2|0,3:0|2:0,0:0:0:0:
317,54,28957,2,1,P|341:43|366:34,1,52.7800000000001,2|0,2:0|2:0,0:0:0:0:
261,0,29285,5,0,3:0:0:0:
261,0,29394,2,1,P|310:29|354:171,1,211.12,2|0,3:0|3:0,0:0:0:0:
441,254,30488,1,2,2:0:0:0:
441,254,30597,1,2,2:0:0:0:
441,254,30707,2,1,P|390:268|345:295,1,105.560003221436,2|0,3:0|2:0,0:0:0:0:
288,384,31363,1,0,3:0:0:0:
265,370,31473,1,0,3:0:0:0:
240,363,31582,1,0,3:0:0:0:
164,311,31801,5,0,3:0:0:0:
141,325,31910,1,0,3:0:0:0:
116,332,32020,2,1,P|101:280|80:231,1,106.47,2|0,3:0|0:0,0:0:0:0:
72,216,32457,1,2,2:0:0:0:
0,161,32676,2,0,B|33:119|89:128|89:128|115:74,1,160.16,2|0,2:0|3:0,0:0:0:0:
176,26,33224,5,0,3:0:0:0:
176,26,33333,2,1,P|210:35|243:48,1,70.9800000000001,2|0,3:0|0:0,0:0:0:0:
314,159,33771,1,2,2:0:0:0:
348,70,33990,2,1,B|304:100|280:138|280:138|280:170|272:188,1,141.96,2|2,2:0|2:0,0:0:0:0:
171,262,34647,6,1,P|184:294|193:329,1,70.9800000000001,2|0,3:0|0:0,0:0:0:0:
255,381,35081,1,0,3:0:0:0:
108,323,35299,1,0,3:0:0:0:
108,323,35407,1,0,3:0:0:0:
108,323,35516,2,1,P|75:309|40:300,1,70.9800000000001,0|0,3:0|2:0,0:0:0:0:
255,381,35951,6,1,P|310:358|368:343,1,120.12,0|0,3:0|2:0,0:0:0:0:
407,283,36388,2,1,P|388:239|376:192,1,70.9800000000001,2|0,2:0|2:0,0:0:0:0:
372,189,36717,1,2,2:0:0:0:
372,189,36826,1,2,2:0:0:0:
265,118,37045,5,2,2:0:0:0:
359,96,37264,2,1,B|293:127|293:127|282:154|282:154|239:172,1,141.96,2|0,3:0|2:0,0:0:0:0:
147,259,37921,2,0,P|86:231|12:212,1,141.96,2|0,2:0|2:0,0:0:0:0:
97,141,38578,6,1,P|81:109|70:75,1,70.9800000000001,2|0,3:0|0:0,0:0:0:0:
126,9,39025,1,0,3:0:0:0:
189,160,39249,2,1,P|220:144|254:133,1,70.9800000000001,2|0,2:0|2:0,0:0:0:0:
353,46,39678,5,2,2:0:0:0:
273,35,39914,2,1,P|331:65|358:137,1,141.96,2|2,3:0|3:0,0:0:0:0:
431,195,40566,2,0,P|462:179|496:168,1,70.9800000000001,2|2,2:0|3:0,0:0:0:0:
346,270,41000,5,0,3:0:0:0:
446,296,41218,2,1,P|393:268|336:250,1,106.47,2|0,3:0|2:0,0:0:0:0:
290,384,41653,2,1,P|321:368|355:357,1,70.9800000000001,2|0,3:0|2:0,0:0:0:0:
237,226,42087,2,0,P|253:257|264:291,1,70.9800000000001,2|8,2:0|2:0,0:0:0:0:
303,163,42414,5,8,2:0:0:0:
303,163,42522,2,1,P|243:213|165:208,1,160.16,6|0,1:2|2:0,0:0:0:0:
120,139,43181,2,0,P|133:98|152:60,1,80.0799999999997,2|2,2:0|2:0,0:0:0:0:
217,124,43620,1,0,1:0:0:0:
80,216,43840,6,1,P|97:251|109:289,1,80.0799999999997,10|0,2:0|0:0,0:0:0:0:
209,380,44280,1,0,3:0:0:0:
111,382,44500,2,1,P|184:346|264:321,1,160.16,2|8,2:0|2:0,0:0:0:0:
348,350,45044,5,8,0:0:0:0:
348,350,45150,2,1,P|283:306|277:229,1,160.16,2|2,1:2|2:0,0:0:0:0:
415,157,45798,1,0,3:0:0:0:
415,157,46014,1,2,2:0:0:0:
363,230,46231,1,0,1:0:0:0:
294,133,46447,6,1,B|248:84|248:84|218:87|190:72,1,120.12,10|0,2:0|0:0,0:0:0:0:
127,109,46888,2,0,P|110:144|98:182,1,80.0799999999997,2|0,2:0|0:0,0:0:0:0:
1,22,47330,2,0,P|19:57|30:95,1,80.0799999999997,2|8,1:2|2:0,0:0:0:0:
44,258,47654,5,8,0:0:0:0:
44,258,47757,2,1,P|98:197|179:192,1,160.16,2|0,1:2|2:0,0:0:0:0:
178,270,48413,2,1,P|195:305|207:343,1,80.0799999999997,0|0,3:0|2:0,0:0:0:0:
331,234,48851,5,0,1:0:0:0:
249,222,49070,2,1,P|287:233|323:251,1,80.0799999999997,10|0,2:0|0:0,0:0:0:0:
466,313,49508,1,2,3:0:0:0:
368,356,49727,1,2,3:0:0:0:
417,228,49946,2,0,P|428:189|446:153,1,80.0799999999997,2|8,2:0|2:0,0:0:0:0:
511,109,50267,5,0,3:0:0:0:
511,109,50374,2,1,P|433:128|368:84,1,160.16,2|0,1:2|2:0,0:0:0:0:
275,42,51050,2,1,P|238:24|200:12,1,80.0799999999997,0|0,3:0|2:0,0:0:0:0:
356,1,51488,1,8,2:0:0:0:
288,131,51701,2,1,P|211:154|139:188,1,158.339999999999,2|0,1:2|0:0,0:0:0:0:
0,360,52583,5,8,1:2:0:0:
135,283,52801,5,8,1:2:0:0:
346,384,53020,6,1,P|387:328|456:320,1,141.96,6|0,1:2|2:0,0:0:0:0:
480,325,53457,1,0,1:0:0:0:
361,204,53676,2,1,P|372:160|392:114,1,94.64,8|0,2:0|1:0,0:0:0:0:
202,227,54114,5,8,2:3:0:0:
294,277,54333,2,1,B|242:252|242:252|167:268|148:335,1,189.28,2|0,1:2|1:0,0:0:0:0:
273,152,54990,2,0,P|261:108|241:62,1,94.64,8|0,2:0|1:0,0:0:0:0:
172,133,55428,1,10,2:3:0:0:
348,207,55647,2,1,P|413:178|481:159,1,141.96,6|0,1:2|2:0,0:0:0:0:
500,157,56065,5,2,1:2:0:0:
466,242,56287,1,8,2:0:0:0:
440,327,56509,1,0,1:0:0:0:
471,233,56731,1,8,3:0:0:0:
339,374,56953,6,1,B|259:329|259:329|229:344|185:337,1,155.61,2|0,1:2|2:0,0:0:0:0:
138,296,57384,2,0,P|126:252|106:206,1,94.64,2|8,1:2|2:0,0:0:0:0:
9,243,57816,1,2,1:2:0:0:
74,72,58032,2,1,P|82:49|92:28,1,47.32,8|0,3:0|2:0,0:0:0:0:
7,136,58247,6,1,P|94:99|185:75,1,189.28,6|0,1:2|1:0,0:0:0:0:
331,135,58917,1,8,2:0:0:0:
229,2,59140,2,1,P|272:20|318:32,1,94.64,2|0,1:2|3:0,0:0:0:0:
417,0,59468,5,0,3:0:0:0:
417,0,59577,2,1,P|337:44|332:138,1,189.28,2|0,1:2|1:0,0:0:0:0:
476,250,60242,5,8,2:0:0:0:
401,189,60464,1,2,1:2:0:0:
329,350,60681,1,10,2:3:0:0:
392,282,60898,2,1,P|300:306|213:343,1,189.28,6|0,1:2|1:0,0:0:0:0:
129,319,61553,2,0,P|117:275|97:229,1,94.64,8|0,2:0|1:0,0:0:0:0:
22,311,61990,1,8,2:3:0:0:
198,213,62209,2,1,P|210:169|230:123,1,94.64,2|0,1:2|0:0,0:0:0:0:
56,36,62646,5,2,1:2:0:0:
143,75,62865,1,8,2:0:0:0:
223,13,63083,1,10,1:3:0:0:
318,91,63302,1,4,1:3:0:0:
476,0,63520,2,1,P|447:64|427:132,1,141.96,6|0,1:2|2:0,0:0:0:0:
388,192,63957,2,0,P|406:235|419:280,1,94.64,2|8,1:2|2:0,0:0:0:0:
343,115,64395,1,2,1:2:0:0:
485,203,64614,1,8,3:0:0:0:
365,349,64833,6,1,P|301:320|233:300,1,141.96,2|0,1:2|2:0,0:0:0:0:
173,261,65271,2,1,P|130:279|85:292,1,94.64,2|8,1:2|2:0,0:0:0:0:
240,217,65709,1,2,1:2:0:0:
155,364,65928,1,8,3:0:0:0:
22,224,66147,6,1,P|35:178|53:134,1,94.64,6|0,1:2|0:0,0:0:0:0:
177,100,66587,2,1,P|190:54|208:10,1,94.64,2|8,1:2|2:0,0:0:0:0:
91,58,67027,1,2,1:2:0:0:
91,58,67137,1,0,3:0:0:0:
91,58,67247,1,0,3:0:0:0:
196,202,67468,6,1,P|251:160|322:151,1,141.96,2|0,1:2|2:0,0:0:0:0:
387,106,67905,2,0,P|423:135|468:148,1,94.64,2|8,1:2|2:0,0:0:0:0:
463,66,68343,1,10,3:0:0:0:
351,282,68562,6,1,P|361:303|368:325,1,47.32,4|0,3:0|0:0,0:0:0:0:
386,215,68781,2,1,B|306:259|323:293|249:345,1,189.28,6|0,1:2|1:0,0:0:0:0:
214,236,69438,2,1,P|182:201|138:188,1,94.64,8|0,2:0|1:0,0:0:0:0:
1,383,69876,5,2,2:0:0:0:
1,383,69986,1,2,2:0:0:0:
1,383,70095,2,1,P|100:366|161:296,1,189.28,2|2,1:2|1:2,0:0:0:0:
13,185,70756,2,1,P|30:228|43:274,1,94.64,8|0,2:0|1:0,0:0:0:0:
142,70,71197,5,8,2:0:0:0:
71,138,71418,2,1,P|158:101|249:77,1,189.28,6|0,1:2|2:0,0:0:0:0:
416,0,72012,5,4,1:3:0:0:
357,72,72247,1,8,1:3:0:0:
467,184,72465,1,2,2:0:0:0:
467,184,72575,1,2,2:0:0:0:
467,184,72684,2,1,P|404:215|366:274,1,141.96,6|0,1:2|2:0,0:0:0:0:
358,296,73118,5,8,1:3:0:0:
266,380,73336,1,8,1:3:0:0:
168,306,73553,1,4,1:3:0:0:
96,361,73770,1,4,1:3:0:0:
0,211,73988,6,1,B|64:145|64:145|57:112|75:71,1,155.61,6|0,1:2|2:0,0:0:0:0:
129,26,74432,2,0,P|173:38|219:58,1,94.64,2|8,1:2|2:0,0:0:0:0:
366,137,74865,2,1,P|410:149|456:169,1,94.64,2|0,1:2|3:0,0:0:0:0:
329,60,75190,5,0,3:0:0:0:
329,60,75298,2,1,P|346:149|286:218,1,189.28,2|0,1:2|1:0,0:0:0:0:
313,298,75952,2,1,P|358:310|401:329,1,94.64,8|0,2:0|1:0,0:0:0:0:
210,161,76388,1,8,2:0:0:0:
133,316,76607,2,1,P|176:296|221:284,1,94.64,6|0,1:2|0:0,0:0:0:0:
63,383,77043,1,2,1:2:0:0:
107,229,77262,2,1,P|95:183|76:140,1,94.64,8|0,2:0|1:0,0:0:0:0:
0,0,77699,5,2,2:0:0:0:
29,4,77808,1,2,2:0:0:0:
55,16,77917,1,2,1:2:0:0:
133,73,78136,1,8,2:0:0:0:
267,0,78354,1,8,1:3:0:0:
398,131,78573,1,4,1:3:0:0:
311,238,78791,1,0,1:0:0:0:
373,321,79010,5,8,1:3:0:0:
322,381,79228,2,1,P|391:324|490:303,1,189.28,6|0,1:2|1:0,0:0:0:0:
490,384,79884,1,8,2:0:0:0:
396,225,80103,2,1,P|384:179|365:136,1,94.64,0|2,1:0|3:0,0:0:0:0:
398,50,80432,5,0,3:0:0:0:
398,50,80541,2,1,P|340:121|248:126,1,189.28,2|0,1:2|1:0,0:0:0:0:
105,32,81198,2,1,P|63:9|17:1,1,94.64,8|0,2:0|1:0,0:0:0:0:
131,130,81637,1,8,2:0:0:0:
189,53,81856,2,1,P|152:140|128:231,1,189.28,6|2,1:2|1:2,0:0:0:0:
0,384,82516,5,8,2:0:0:0:
37,350,82737,1,0,1:0:0:0:
115,334,82957,1,2,2:0:0:0:
209,384,83177,6,1,P|221:338|240:295,1,94.64,6|8,1:2|2:3,0:0:0:0:
258,272,83509,1,8,2:0:0:0:
258,272,83619,1,8,2:0:0:0:
398,90,83833,2,1,P|352:102|309:121,1,94.64,14|8,2:0|2:0,0:0:0:0:
183,166,84264,2,1,P|161:173|139:178,1,45.5,8|8,0:0|0:0,0:0:0:0:
25,197,84481,5,6,1:2:0:0:
256,192,84711,12,3,87035,2:1:0:0:
